<?xml version="1.0" standalone="no"?>
<!DOCTYPE svg PUBLIC "-//W3C//DTD SVG 1.1//EN" "http://www.w3.org/Graphics/SVG/1.1/DTD/svg11.dtd" >
<svg xmlns="http://www.w3.org/2000/svg" xmlns:xlink="http://www.w3.org/1999/xlink" version="1.1">
<metadata>
Created by FontForge 20170731 at Tue Apr 30 17:14:28 2019
 By Aleksey,,,
Copyright 2016 The Oswald Project Authors (https://github.com/googlefonts/OswaldFont)
</metadata>
<defs>
<font id="Oswald-Light" horiz-adv-x="0" >
  <font-face 
    font-family="Oswald Light"
    font-weight="300"
    font-stretch="normal"
    units-per-em="1000"
    panose-1="0 0 0 0 0 0 0 0 0 0"
    ascent="800"
    descent="-200"
    x-height="578"
    cap-height="810"
    bbox="-171 -258 1043 1295"
    underline-thickness="50"
    underline-position="-175"
    unicode-range="U+000D-FB02"
  />
<missing-glyph horiz-adv-x="645" 
d="M71 0v810h502v-810h-502zM174 90h296v630h-296v-630z" />
    <glyph glyph-name="fi" unicode="fi" horiz-adv-x="452" 
d="M92 0v525h-74v53h74v60q0 46 8.5 78.5t33 50t70.5 17.5q12 0 26.5 -1.5t26.5 -3.5v-55q-10 2 -20 3t-20 1q-33 0 -42 -18t-9 -65v-67h219v-578h-73v525h-146v-525h-74zM318 658v99h68v-99h-68z" />
    <glyph glyph-name="fl" unicode="fl" horiz-adv-x="471" 
d="M92 0v525h-74v53h74v60q0 27 4 55t19.5 52t49 38.5t91.5 14.5q30 0 67.5 -5t84.5 -14v-779h-74v738q-20 2 -37 3t-32 1q-48 0 -69 -13.5t-25.5 -37.5t-4.5 -54v-22.5v-36.5h93v-53h-93v-525h-74z" />
    <glyph glyph-name="f_f" unicode="ff" horiz-adv-x="504" 
d="M92 0v525h-74v53h74v60q0 43 7 76t29.5 52t69.5 19q16 0 30.5 -1.5t28.5 -5.5v-54q-9 2 -20.5 3.5t-20.5 1.5q-33 0 -41.5 -20.5t-8.5 -63.5v-67h93v-53h-93v-525h-74zM329 0v525h-74v53h74v60q0 43 7 76t29.5 52t69.5 19q16 0 30.5 -1.5t28.5 -5.5v-54q-9 2 -20.5 3.5
t-20.5 1.5q-33 0 -41.5 -20.5t-8.5 -63.5v-67h93v-53h-93v-525h-74z" />
    <glyph glyph-name="f_f_i" unicode="ffi" horiz-adv-x="702" 
d="M92 0v525h-74v53h74v60q0 43 7 76t29.5 52t69.5 19q16 0 31 -1.5t28 -5.5v-54q-9 2 -20.5 3.5t-20.5 1.5q-33 0 -41.5 -20.5t-8.5 -63.5v-67h162v60q0 43 6.5 76t29 52t70.5 19q16 0 31 -1.5t28 -5.5v-54q-10 2 -21 3.5t-20 1.5q-33 0 -42 -20.5t-9 -63.5v-67h234v-578
h-73v525h-161v-525h-73v525h-162v-525h-74zM562 658v99h73v-99h-73z" />
    <glyph glyph-name="f_f_l" unicode="ffl" horiz-adv-x="708" 
d="M493 798q30 0 68 -5t84 -14v-779h-73v738q-21 2 -38 3t-32 1q-48 0 -69 -13.5t-25.5 -37.5t-4.5 -54v-59h94v-53h-94v-525h-73v525h-164v-525h-74v525h-74v53h74v60q0 43 7 76t29.5 52t69.5 19q16 0 30.5 -1.5t28.5 -5.5v-54q-9 2 -20.5 3.5t-20.5 1.5q-32 0 -41 -20.5
t-9 -63.5v-67h164v60q0 27 4 55t19 52t48.5 38.5t91.5 14.5z" />
    <glyph glyph-name=".notdef" horiz-adv-x="645" 
d="M71 0v810h502v-810h-502zM174 90h296v630h-296v-630z" />
    <glyph glyph-name=".null" 
 />
    <glyph glyph-name="nonmarkingreturn" horiz-adv-x="333" 
 />
    <glyph glyph-name="NULL" 
 />
    <glyph glyph-name="NULL" 
 />
    <glyph glyph-name="CR" unicode="&#xd;" horiz-adv-x="204" 
 />
    <glyph glyph-name="space" unicode=" " horiz-adv-x="204" 
 />
    <glyph glyph-name="exclam" unicode="!" horiz-adv-x="201" 
d="M87 174l-25 636h78l-27 -636h-26zM61 0v88h78v-88h-78z" />
    <glyph glyph-name="quotedbl" unicode="&#x22;" horiz-adv-x="215" 
d="M19 573v237h71l-31 -237h-40zM141 573v237h70l-30 -237h-40z" />
    <glyph glyph-name="numbersign" unicode="#" horiz-adv-x="465" 
d="M53 0l44 291h-56v55h65l22 141h-75v55h83l42 268h71l-41 -268h99l41 268h71l-41 -268h51v-55h-59l-23 -141h69v-55h-77l-45 -291h-71l45 291h-99l-45 -291h-71zM177 346h99l22 141h-99z" />
    <glyph glyph-name="dollar" unicode="$" horiz-adv-x="466" 
d="M238 -88v79q-98 2 -144 62t-53 157l67 20q5 -50 18 -90.5t41 -64t77 -23.5q54 0 84 28t30 89q0 54 -26.5 93t-72.5 82l-143 137q-25 25 -41.5 50.5t-24.5 53.5t-8 59q0 81 47 126t125 48v84h32v-84q39 -3 69.5 -15.5t52.5 -37t34.5 -62t16.5 -90.5l-65 -17
q-4 51 -16.5 87.5t-39 56.5t-73.5 18q-50 -2 -82 -27t-32 -80q0 -33 13 -60t44 -58l143 -135q32 -30 58.5 -64.5t43 -74t16.5 -85.5q0 -56 -20 -95t-56 -61t-84 -26v-80h-31z" />
    <glyph glyph-name="percent" unicode="%" horiz-adv-x="732" 
d="M206 0l257 817h64l-255 -817h-66zM163 403q-67 0 -95 43.5t-28 112.5v113q0 71 28 112t95 41t94.5 -40.5t27.5 -110.5v-116q0 -70 -27.5 -112.5t-94.5 -42.5zM163 460q22 0 34 12.5t17 34.5t5 49v119q0 41 -11.5 67t-44.5 26q-34 0 -45 -26.5t-11 -67.5v-118
q0 -28 5 -49.5t17 -34t34 -12.5zM569 -6q-67 0 -94.5 43t-27.5 113v112q0 71 27.5 112t94.5 41q68 0 95.5 -40t27.5 -111v-116q0 -70 -27.5 -112t-95.5 -42zM569 50q23 0 35 13t16.5 34.5t4.5 49.5v118q0 41 -11 67.5t-45 26.5t-45 -26.5t-11 -67.5v-118q0 -28 5 -49.5
t17 -34.5t34 -13z" />
    <glyph glyph-name="ampersand" unicode="&#x26;" horiz-adv-x="604" 
d="M244 -10q-62 0 -103.5 25t-62.5 67t-21 92q0 64 31.5 120.5t98.5 120.5q-28 48 -49.5 86t-33.5 73t-12 73q0 54 21 92.5t59.5 58.5t91.5 20q50 0 87 -17t57.5 -49.5t20.5 -77.5q0 -46 -23 -90t-61 -88t-85 -86l156 -246q18 25 31.5 59.5t22 70.5t9.5 65h71
q0 -36 -11.5 -80t-32 -87t-46.5 -75q22 -28 44.5 -40t47.5 -12v-72q-5 0 -10 0.5t-9 1.5q-24 2 -45 12.5t-38.5 27t-33.5 34.5q-28 -32 -71.5 -55.5t-100.5 -23.5zM244 51q40 0 71 17.5t59 48.5l-158 246q-46 -52 -65.5 -97.5t-19.5 -91.5q0 -29 10.5 -57.5t35 -47
t67.5 -18.5zM234 452q32 32 60 68.5t45.5 76t17.5 78.5q0 40 -26 61t-69 21q-51 0 -74.5 -32.5t-23.5 -76.5q0 -46 18.5 -91.5t51.5 -104.5z" />
    <glyph glyph-name="quotesingle" unicode="'" horiz-adv-x="93" 
d="M19 573v237h71l-31 -237h-40z" />
    <glyph glyph-name="parenleft" unicode="(" horiz-adv-x="278" 
d="M247 -165q-49 3 -81 30t-49.5 72.5t-26 106t-10 132t-1.5 149.5t1.5 150.5t10 133.5t26 107t49.5 72.5t81 27.5v-52q-36 -3 -56.5 -39.5t-29 -97.5t-10 -138.5t-1.5 -163.5t1.5 -164t10 -138.5t28.5 -97t57 -39.5v-51z" />
    <glyph glyph-name="parenright" unicode=")" horiz-adv-x="257" 
d="M30 -165v51q38 4 58 40.5t28.5 97.5t10 138.5t1.5 163.5t-1.5 164t-10 138t-28.5 96.5t-58 40.5v51q50 -1 82 -27t50 -72t26.5 -107t10 -133t1.5 -151q0 -78 -1.5 -149.5t-10 -132.5t-26.5 -106.5t-50 -72.5t-82 -30z" />
    <glyph glyph-name="asterisk" unicode="*" horiz-adv-x="372" 
d="M118 483l-45 28l87 117l-125 49l19 48l120 -60l-8 144h57l-10 -144l120 60l18 -48l-124 -49l87 -118l-45 -27l-76 127z" />
    <glyph glyph-name="plus" unicode="+" horiz-adv-x="383" 
d="M163 230v158h-140v56h140v156h55v-156h141v-56h-141v-158h-55z" />
    <glyph glyph-name="comma" unicode="," horiz-adv-x="181" 
d="M65 -116l-16 32q27 15 37.5 34.5t10.5 49.5h-43v109h81v-101q0 -49 -16 -77t-54 -47z" />
    <glyph glyph-name="hyphen" unicode="-" horiz-adv-x="297" 
d="M43 297v58h212v-58h-212z" />
    <glyph glyph-name="period" unicode="." horiz-adv-x="181" 
d="M60 0v110h77v-110h-77z" />
    <glyph glyph-name="slash" unicode="/" horiz-adv-x="344" 
d="M24 0l231 810h64l-230 -810h-65z" />
    <glyph glyph-name="zero" unicode="0" horiz-adv-x="517" 
d="M258 -10q-72 0 -114 31t-60 85t-18 123v352q0 70 18.5 123.5t61 83.5t112.5 30q72 0 114.5 -30t61 -83.5t18.5 -123.5v-352q0 -70 -18.5 -124t-60.5 -84.5t-115 -30.5zM258 48q47 0 72.5 24t36 63.5t10.5 87.5v363q0 49 -10.5 88.5t-35.5 62.5t-73 23q-46 0 -71.5 -23
t-36 -62.5t-10.5 -88.5v-363q0 -48 10.5 -87.5t36.5 -63.5t71 -24z" />
    <glyph glyph-name="one" unicode="1" horiz-adv-x="367" 
d="M168 0v712q-6 -9 -24 -18t-39.5 -16t-39 -12.5t-22.5 -6.5v59q14 4 33 12t38 19.5t37.5 26.5t31.5 34h59v-810h-74z" />
    <glyph glyph-name="two" unicode="2" horiz-adv-x="485" 
d="M49 0v54l218 334q24 37 45 71.5t34.5 72.5t13.5 86q0 65 -26.5 102t-81.5 37q-49 0 -76 -22t-37.5 -60.5t-10.5 -86.5v-18h-73v20q0 75 20 125.5t62.5 76.5t111.5 26q92 0 138 -54.5t46 -151.5q0 -49 -14 -90t-36 -78.5t-46 -75.5l-202 -306h281v-62h-367z" />
    <glyph glyph-name="three" unicode="3" horiz-adv-x="482" 
d="M238 -10q-63 0 -103 24.5t-58.5 68.5t-18.5 104v20h71v-8v-9q1 -43 11 -74.5t34 -48.5t64 -17q38 0 64.5 16.5t40 54.5t13.5 99q0 75 -27 122.5t-94 49.5h-10h-10v70h10h10q65 0 93 36.5t28 117.5q0 63 -23.5 103t-86.5 40q-61 0 -88.5 -34.5t-28.5 -106.5v-6.5v-7.5h-71
v19q0 60 18.5 103.5t60.5 67.5t108 24q64 0 105 -26t61 -71.5t20 -104.5q0 -85 -32.5 -131.5t-83.5 -58.5q30 -8 56.5 -32t43 -66.5t16.5 -106.5q0 -68 -19.5 -120.5t-61.5 -81.5t-112 -29z" />
    <glyph glyph-name="four" unicode="4" horiz-adv-x="489" 
d="M294 0v237h-244v74l230 499h86v-507h93v-66h-93v-237h-72zM124 303h170v410z" />
    <glyph glyph-name="five" unicode="5" horiz-adv-x="477" 
d="M241 -9q-65 0 -104.5 25t-57.5 74t-18 119h73q0 -49 10 -85t34 -55t66 -19q46 0 70 23.5t33 69.5t9 113q0 74 -10.5 118t-35 63.5t-65.5 19.5q-31 0 -58 -17t-47 -50h-61v420h315l-1 -69h-249l-4 -281q18 23 48.5 38.5t75.5 15.5q60 0 96.5 -29.5t52.5 -85.5t16 -134
q0 -65 -10 -116t-32.5 -86.5t-58 -53.5t-87.5 -18z" />
    <glyph glyph-name="six" unicode="6" horiz-adv-x="499" 
d="M253 -10q-67 0 -108 30.5t-60 88t-19 135.5v323q0 75 18 131.5t59 88t109 31.5q61 0 101 -21t60.5 -62.5t20.5 -103.5q0 -2 0.5 -8.5t0.5 -8.5h-73q0 78 -24.5 111t-82.5 33q-34 0 -60 -16.5t-41 -54.5t-15 -103v-153q18 17 52.5 32t77.5 15q67 0 105 -25t54 -78t16 -138
q0 -74 -19 -130t-60.5 -86.5t-111.5 -30.5zM253 51q40 0 65.5 17.5t38.5 55.5t13 99q0 66 -7.5 110t-32 66t-77.5 22q-24 0 -46 -7.5t-40 -18t-28 -20.5v-140q0 -65 12 -105.5t37.5 -59.5t64.5 -19z" />
    <glyph glyph-name="seven" unicode="7" horiz-adv-x="402" 
d="M117 0l158 751h-245v59h320v-36l-161 -774h-72z" />
    <glyph glyph-name="eight" unicode="8" horiz-adv-x="499" 
d="M250 -10q-70 0 -111.5 28.5t-60.5 79.5t-19 119q0 53 10.5 88.5t27.5 58.5t38 37t41 24q-49 20 -79 66.5t-30 123.5q0 59 18 105t58.5 72t106.5 26t106 -26.5t57.5 -72.5t17.5 -106q0 -77 -29.5 -122t-78.5 -66q20 -10 41 -24t37.5 -37t27.5 -58.5t11 -88.5
q0 -68 -18.5 -119t-60.5 -79.5t-111 -28.5zM250 49q40 0 66 18t39 55.5t13 94.5q0 50 -11.5 87.5t-37 60.5t-69.5 26q-44 -3 -70.5 -26t-38 -60.5t-11.5 -87.5q0 -57 13.5 -94.5t40 -55.5t66.5 -18zM250 458q42 2 65.5 23t33.5 56.5t10 78.5q0 70 -26 106.5t-83 36.5
q-58 0 -84.5 -36.5t-26.5 -106.5q0 -43 10 -78.5t34.5 -56.5t66.5 -23z" />
    <glyph glyph-name="nine" unicode="9" horiz-adv-x="501" 
d="M252 -10q-61 0 -102 21t-61.5 63.5t-21.5 105.5v7v7h72q0 -77 25 -110t89 -33q34 0 58.5 16t37.5 54.5t13 103.5v153q-15 -18 -47.5 -33t-82.5 -15q-67 0 -105 25.5t-54 79t-16 137.5q0 75 19.5 130t62 85.5t111.5 30.5q66 0 107 -30.5t60 -87t19 -135.5v-323
q0 -74 -17.5 -131t-57.5 -89t-109 -32zM249 387q43 0 71 15.5t42 31.5v139q0 66 -11.5 106.5t-36.5 59t-64 18.5t-65.5 -18.5t-39.5 -56.5t-13 -96q0 -66 7.5 -110.5t32.5 -66.5t77 -22z" />
    <glyph glyph-name="colon" unicode=":" horiz-adv-x="193" 
d="M69 423v107h78v-107h-78zM69 84v106h78v-106h-78z" />
    <glyph glyph-name="semicolon" unicode=";" horiz-adv-x="208" 
d="M79 -28l-15 32q28 12 38 28.5t10 46.5h-43v103h81v-95q0 -49 -15 -76t-56 -39zM69 441v110h77v-110h-77z" />
    <glyph glyph-name="less" unicode="&#x3c;" horiz-adv-x="363" 
d="M306 62l-277 204v72l277 210v-76l-220 -170l220 -165v-75z" />
    <glyph glyph-name="equal" unicode="=" horiz-adv-x="401" 
d="M51 453v58h298v-58h-298zM51 285v58h298v-58h-298z" />
    <glyph glyph-name="greater" unicode="&#x3e;" horiz-adv-x="363" 
d="M57 62v75l221 170l-221 165v76l278 -205v-72z" />
    <glyph glyph-name="question" unicode="?" horiz-adv-x="474" 
d="M174 201v124q61 44 101.5 88.5t60.5 93t20 104.5q0 71 -32 107t-88 36q-48 0 -78 -26t-30 -72q0 -14 2.5 -26.5t7.5 -28.5l-67 -15q-7 18 -10.5 34.5t-3.5 34.5q0 75 49.5 119t129.5 44q88 0 139.5 -55t51.5 -154q0 -66 -22.5 -118.5t-65 -97t-101.5 -88.5v-104h-64z
M171 0v87h72v-87h-72z" />
    <glyph glyph-name="at" unicode="@" horiz-adv-x="842" 
d="M453 -112q-81 0 -152 22t-125.5 71t-85.5 131t-31 201q0 127 31 220.5t86.5 154.5t129 91t158.5 30q89 1 154 -27t107 -81.5t61 -128t15 -167.5q-2 -77 -21.5 -131.5t-50.5 -88.5t-66.5 -50t-70.5 -16q-23 0 -43.5 10.5t-32.5 31t-11 50.5q-12 -36 -39 -65t-71 -30
q-44 -2 -75.5 19t-48 61.5t-16.5 94.5q0 64 18.5 121t50.5 100t74 68t88 25q13 0 25 -3.5t24 -9t21 -12.5l9 19h54l-50 -347q-3 -25 -3 -45t8 -31.5t28 -11.5q23 0 46.5 13t44.5 41t35 73.5t16 108.5q4 92 -13.5 159t-54 110t-91 63t-125.5 20q-72 -1 -133 -30t-106 -85
t-70 -137t-25 -185q0 -89 18.5 -153t50.5 -106t74.5 -66.5t91 -34.5t97.5 -10q34 0 66 3.5t62 9t56 12.5l16 -53q-53 -13 -106 -21t-99 -8zM406 172q31 2 58 30.5t43 80.5l36 253q-11 7 -23 10t-24 3q-42 0 -81.5 -32.5t-64.5 -90.5t-25 -136q0 -43 10.5 -70t29.5 -38.5
t41 -9.5z" />
    <glyph glyph-name="A" unicode="A" horiz-adv-x="477" 
d="M27 0l171 810h80l172 -810h-75l-40 217h-193l-41 -217h-74zM153 272h172l-86 437z" />
    <glyph glyph-name="B" unicode="B" horiz-adv-x="502" 
d="M71 0v810h174q55 0 93 -14t61 -41t33.5 -64.5t10.5 -82.5q0 -39 -9.5 -75.5t-31.5 -62t-62 -33.5q47 -13 74 -44.5t37.5 -73t10.5 -85.5q0 -48 -8.5 -90.5t-30 -74.5t-58.5 -50.5t-94 -18.5h-200zM147 57h109q79 0 105.5 43t26.5 134q0 49 -12 87t-40.5 59.5t-77.5 21.5
h-111v-345zM147 461h110q47 0 72 18.5t35 51t10 77.5q0 49 -13.5 81t-46.5 47t-95 15h-72v-290z" />
    <glyph glyph-name="C" unicode="C" horiz-adv-x="499" 
d="M259 -10q-82 0 -126.5 34t-61.5 91.5t-17 127.5v322q0 75 17.5 132t62.5 89t125 32q73 0 114.5 -28t59.5 -79.5t18 -122.5v-49h-72v47q0 53 -8.5 91t-34.5 59t-76 21q-55 0 -82.5 -22.5t-37 -63.5t-9.5 -95v-345q0 -60 11.5 -100t39.5 -60t78 -20q51 0 76.5 22t34 61.5
t8.5 92.5v53h72v-48q0 -71 -16.5 -125.5t-58 -85.5t-117.5 -31z" />
    <glyph glyph-name="D" unicode="D" horiz-adv-x="521" 
d="M71 0v810h176q85 0 132.5 -29.5t67.5 -83.5t20 -125v-322q0 -75 -20 -131.5t-66 -87.5t-127 -31h-183zM147 57h102q64 0 94 26.5t38 73t8 105.5v302q0 61 -10.5 102.5t-41 63t-91.5 21.5h-99v-694z" />
    <glyph glyph-name="E" unicode="E" horiz-adv-x="398" 
d="M70 0v810h293v-59h-216v-304h176v-56h-176v-334h218v-57h-295z" />
    <glyph glyph-name="F" unicode="F" horiz-adv-x="386" 
d="M71 0v810h291v-57h-215v-305h179v-56h-179v-392h-76z" />
    <glyph glyph-name="G" unicode="G" horiz-adv-x="519" 
d="M254 -11q-77 0 -120.5 32t-61.5 90.5t-18 135.5v316q0 78 17.5 135t62 88.5t125.5 31.5q73 0 115.5 -27t61.5 -79t19 -127v-28h-72v28q0 58 -10.5 96t-36.5 57t-76 19q-56 0 -84 -24t-36.5 -66t-8.5 -96v-333q0 -59 10.5 -100.5t39 -64t80.5 -22.5q51 0 78 22.5t38 64.5
t11 102v95h-120v57h190v-392h-49l-9 92q-15 -46 -49.5 -74.5t-96.5 -28.5z" />
    <glyph glyph-name="H" unicode="H" horiz-adv-x="549" 
d="M70 0v810h77v-359h255v359h76v-810h-76v394h-255v-394h-77z" />
    <glyph glyph-name="I" unicode="I" horiz-adv-x="222" 
d="M73 0v810h76v-810h-76z" />
    <glyph glyph-name="J" unicode="J" horiz-adv-x="279" 
d="M8 -35v57q42 0 66.5 5.5t37 20.5t16.5 43t4 72v647h76v-651q0 -67 -12 -110t-47 -63.5t-104 -20.5h-37z" />
    <glyph glyph-name="K" unicode="K" horiz-adv-x="473" 
d="M70 0v810h77v-428l216 428h73l-166 -348l202 -462h-75l-178 405l-72 -132v-273h-77z" />
    <glyph glyph-name="L" unicode="L" horiz-adv-x="382" 
d="M71 0v810h76v-753h230v-57h-306z" />
    <glyph glyph-name="M" unicode="M" horiz-adv-x="643" 
d="M64 0l20 810h76l160 -703l163 703h76l20 -810h-63l-16 645l-155 -645h-49l-153 644l-16 -644h-63z" />
    <glyph glyph-name="N" unicode="N" horiz-adv-x="520" 
d="M71 0v810h55l258 -629v629h66v-810h-54l-259 636v-636h-66z" />
    <glyph glyph-name="O" unicode="O" horiz-adv-x="525" 
d="M263 -10q-81 0 -126.5 31.5t-64 88t-18.5 129.5v336q0 74 19.5 128.5t65 84.5t124.5 30q78 0 123.5 -30t64.5 -84.5t19 -128.5v-337q0 -73 -18.5 -128.5t-63.5 -87.5t-125 -32zM263 51q53 0 81 21.5t38.5 60t10.5 89.5v367q0 51 -10.5 89t-38.5 58.5t-81 20.5
q-54 0 -82.5 -20.5t-39 -58.5t-10.5 -89v-367q0 -51 10.5 -89.5t39 -60t82.5 -21.5z" />
    <glyph glyph-name="P" unicode="P" horiz-adv-x="483" 
d="M71 0v810h194q73 0 115 -27t59.5 -75t17.5 -113q0 -57 -18.5 -105.5t-61 -77.5t-111.5 -29h-119v-383h-76zM147 440h97q49 0 79.5 14.5t44.5 48.5t14 92q0 62 -12 96.5t-41.5 48t-83.5 13.5h-98v-313z" />
    <glyph glyph-name="Q" unicode="Q" horiz-adv-x="530" 
d="M431 -159q-22 12 -46 35t-48.5 53.5t-46.5 61.5q-6 -1 -12.5 -1h-13.5q-80 0 -125.5 31.5t-65 88t-19.5 129.5v336q0 74 20 128.5t66 84.5t124 30q79 0 125 -30t66 -84.5t20 -128.5v-337q0 -58 -12 -105.5t-39.5 -81t-75.5 -48.5q13 -16 29.5 -35.5t34 -36.5t29.5 -26z
M264 51q54 0 83 21.5t40 60t11 89.5v367q0 51 -11 89t-39.5 58.5t-83.5 20.5q-53 0 -81.5 -20.5t-40 -58.5t-11.5 -89v-367q0 -51 11.5 -89.5t40 -60t81.5 -21.5z" />
    <glyph glyph-name="R" unicode="R" horiz-adv-x="512" 
d="M71 0v810h183q76 0 119.5 -24.5t62.5 -71t19 -110.5q0 -45 -10 -85t-34 -68t-68 -37l124 -414h-74l-119 398h-127v-398h-76zM147 454h103q51 0 79 17t40 50t12 83q0 75 -26 112t-103 37h-105v-299z" />
    <glyph glyph-name="S" unicode="S" horiz-adv-x="460" 
d="M243 -10q-66 0 -109.5 27.5t-65.5 77t-27 115.5l67 20q5 -50 18 -90.5t41 -64t77 -23.5q54 0 84 28t30 89q0 54 -26.5 93t-72.5 82l-143 137q-38 37 -56 76.5t-18 86.5q0 84 50 129t133 45q43 0 77.5 -11t59 -35.5t38.5 -63.5t19 -95l-65 -17q-4 51 -16.5 87.5t-39 55.5
t-73.5 19q-50 0 -82 -26t-32 -81q0 -33 12.5 -60t44.5 -58l143 -135q48 -45 83 -100t35 -124q0 -61 -23.5 -102t-65.5 -61.5t-97 -20.5z" />
    <glyph glyph-name="T" unicode="T" horiz-adv-x="414" 
d="M171 0v751h-153v59h378v-59h-149v-751h-76z" />
    <glyph glyph-name="U" unicode="U" horiz-adv-x="537" 
d="M269 -10q-82 0 -127.5 29.5t-62.5 82t-17 119.5v589h74v-591q0 -47 10.5 -85.5t39.5 -60.5t83 -22q52 0 81 22.5t40.5 60.5t11.5 85v591h73v-589q0 -67 -18 -119.5t-63 -82t-125 -29.5z" />
    <glyph glyph-name="V" unicode="V" horiz-adv-x="489" 
d="M214 0l-190 810h73l153 -671l144 671h72l-183 -810h-69z" />
    <glyph glyph-name="W" unicode="W" horiz-adv-x="715" 
d="M172 0l-137 810h65l107 -658l122 646h63l125 -647l99 659h64l-131 -810h-59l-129 668l-127 -668h-62z" />
    <glyph glyph-name="X" unicode="X" horiz-adv-x="463" 
d="M14 0l175 422l-173 388h71l145 -323l139 323h73l-179 -397l185 -413h-73l-154 342l-136 -342h-73z" />
    <glyph glyph-name="Y" unicode="Y" horiz-adv-x="469" 
d="M200 0v269l-183 541h74l146 -450l140 450h75l-178 -541v-269h-74z" />
    <glyph glyph-name="Z" unicode="Z" horiz-adv-x="407" 
d="M34 0v57l271 696h-249v57h331v-40l-278 -713h278v-57h-353z" />
    <glyph glyph-name="bracketleft" unicode="[" horiz-adv-x="302" 
d="M70 -160v970h174v-41h-100v-887h100v-42h-174z" />
    <glyph glyph-name="backslash" unicode="\" horiz-adv-x="344" 
d="M255 0l-231 810h65l230 -810h-64z" />
    <glyph glyph-name="bracketright" unicode="]" horiz-adv-x="285" 
d="M40 -159v41h101v886h-101v42h175v-969h-175z" />
    <glyph glyph-name="asciicircum" unicode="^" horiz-adv-x="394" 
d="M29 511l130 299h76l131 -299h-67l-101 248l-103 -248h-66z" />
    <glyph glyph-name="underscore" unicode="_" horiz-adv-x="332" 
d="M0 -106v57h332v-57h-332z" />
    <glyph glyph-name="grave" unicode="`" horiz-adv-x="235" 
d="M145 615l-92 195h74l55 -195h-37z" />
    <glyph glyph-name="a" unicode="a" horiz-adv-x="397" 
d="M156 -9q-35 0 -61 17.5t-40.5 47t-14.5 64.5q0 44 12.5 75t40 55.5t72 48t108.5 52.5v41q0 53 -6.5 83.5t-22 43.5t-43.5 13q-23 0 -41 -9t-29 -30.5t-11 -59.5v-20l-72 1q1 88 37.5 130.5t119.5 42.5q78 0 109.5 -46.5t31.5 -144.5v-281q0 -15 1 -38.5t2 -44.5t2 -32
h-65q-2 19 -6 42.5t-5 37.5q-12 -35 -42.5 -62t-76.5 -27zM179 53q22 0 40 11t32 26.5t22 31.5v180q-43 -22 -73.5 -40t-49.5 -35t-28 -38.5t-9 -50.5q0 -46 20 -65.5t46 -19.5z" />
    <glyph glyph-name="b" unicode="b" horiz-adv-x="416" 
d="M233 -9q-35 0 -60.5 18t-42.5 37v-46h-73v810h73v-280q17 22 44 39.5t66 17.5q42 0 68 -19.5t40 -52.5t19 -74t5 -84v-122q0 -74 -12.5 -128.5t-42.5 -85t-84 -30.5zM220 49q34 0 50.5 21t22 62.5t5.5 100.5v124q0 56 -5.5 94.5t-22 58.5t-51.5 20q-27 0 -50.5 -15
t-38.5 -30v-394q16 -17 39 -29.5t51 -12.5z" />
    <glyph glyph-name="c" unicode="c" horiz-adv-x="389" 
d="M200 -9q-68 0 -101 30t-43.5 81.5t-10.5 116.5v135q0 80 13 131.5t46.5 76.5t95.5 25q61 0 93 -23t43 -65t11 -97v-28h-68v28q0 51 -7.5 79t-25 39.5t-46.5 11.5q-34 0 -52 -16t-24 -52.5t-6 -97.5v-162q0 -87 17 -122.5t66 -35.5q34 0 51 15.5t22 46.5t5 77v32h68v-28
q0 -58 -10.5 -102.5t-42.5 -70t-94 -25.5z" />
    <glyph glyph-name="d" unicode="d" horiz-adv-x="413" 
d="M184 -9q-74 0 -106.5 56t-32.5 186v107q0 76 11 131t40.5 85.5t84.5 30.5q34 0 59.5 -15.5t42.5 -34.5v273h73v-810h-73v41q-17 -19 -41.5 -34.5t-57.5 -15.5zM199 49q24 0 45.5 11t38.5 27v402q-15 14 -37 27.5t-49 13.5q-48 0 -63.5 -42.5t-15.5 -123.5v-137
q0 -58 6.5 -98t24 -60t50.5 -20z" />
    <glyph glyph-name="e" unicode="e" horiz-adv-x="395" 
d="M201 -9q-54 0 -88.5 21.5t-51 71.5t-16.5 133v146q0 86 17 134.5t52 69t88 20.5q61 0 93 -26t44.5 -78.5t12.5 -134.5v-52h-234v-101q0 -56 8.5 -88.5t27 -46.5t47.5 -14q22 0 40 8.5t28.5 33t10.5 69.5v40h71v-32q0 -79 -32.5 -126.5t-117.5 -47.5zM118 338h162v48
q0 46 -5 78.5t-21.5 50t-52.5 17.5q-30 0 -48.5 -13t-26.5 -46.5t-8 -95.5v-39z" />
    <glyph glyph-name="f" unicode="f" horiz-adv-x="268" 
d="M92 0v525h-74v53h74v60q0 43 7 76t29.5 52t69.5 19q16 0 30.5 -1.5t28.5 -5.5v-54q-9 2 -20.5 3.5t-20.5 1.5q-33 0 -41.5 -20.5t-8.5 -63.5v-67h93v-53h-93v-525h-74z" />
    <glyph glyph-name="g" unicode="g" horiz-adv-x="431" 
d="M203 -190q-57 0 -99 11t-64.5 34.5t-22.5 59.5q0 29 14 53t36 42.5t45 30.5q-33 9 -48.5 25t-15.5 38q0 30 18.5 54t50.5 51q-40 28 -56.5 72t-16.5 104q0 56 17.5 101.5t53 73t91.5 27.5q51 0 80 -21t44 -51q9 14 31 34.5t47 30.5l15 5l20 -51q-16 -3 -35 -11.5
t-35.5 -18.5t-24.5 -20q7 -18 12.5 -49t5.5 -52q0 -57 -15.5 -103t-50 -72.5t-93.5 -26.5q-15 0 -31.5 3t-27.5 6q-14 -15 -26.5 -32.5t-12.5 -33.5q0 -14 11.5 -21.5t36.5 -10.5l92 -14q70 -10 107.5 -42t37.5 -92q0 -45 -24.5 -75t-67 -44.5t-99.5 -14.5zM206 -131
q58 0 94 17.5t36 56.5q0 20 -8.5 35t-32 25.5t-68.5 17.5l-74 10q-15 -10 -32 -24.5t-29.5 -32.5t-12.5 -41q0 -33 31.5 -48.5t95.5 -15.5zM207 234q32 0 50.5 13.5t28 35.5t13 49t3.5 53t-4 52t-14 48.5t-28.5 36t-48.5 13.5t-49.5 -14t-30 -36.5t-14 -48.5t-3.5 -51
q0 -24 3 -51t13.5 -49.5t30 -36.5t50.5 -14z" />
    <glyph glyph-name="h" unicode="h" horiz-adv-x="412" 
d="M57 0v810h73v-293q29 31 64 50.5t77 19.5q29 0 48.5 -14.5t30 -42t10.5 -66.5v-464h-74v448q0 45 -13.5 63.5t-41.5 18.5q-25 0 -51.5 -15.5t-49.5 -39.5v-475h-73z" />
    <glyph glyph-name="i" unicode="i" horiz-adv-x="204" 
d="M64 0v578h73v-578h-73zM64 658v99h73v-99h-73z" />
    <glyph glyph-name="j" unicode="j" horiz-adv-x="213" 
d="M22 -152q-7 0 -20 1t-19 3v56q3 -1 12.5 -1.5t12.5 -0.5q31 0 45.5 11.5t19 30t4.5 38.5v592h73v-598q0 -69 -34 -100.5t-94 -31.5zM77 658v99h73v-99h-73z" />
    <glyph glyph-name="k" unicode="k" horiz-adv-x="400" 
d="M57 0v810h73v-514l193 282h77l-146 -223l140 -355h-74l-122 314l-68 -95v-219h-73z" />
    <glyph glyph-name="l" unicode="l" horiz-adv-x="202" 
d="M66 0v810h73v-810h-73z" />
    <glyph glyph-name="m" unicode="m" horiz-adv-x="644" 
d="M56 0v578h68v-59q29 34 64 51.5t72 17.5q30 0 55.5 -16t36.5 -59q30 37 66 56t76 19q25 0 47.5 -12t36.5 -41t14 -79v-456h-68v454q0 51 -16.5 67.5t-41.5 16.5q-28 0 -56 -16t-53 -44q1 -5 1.5 -10.5t0.5 -11.5v-456h-69v454q0 51 -16.5 67.5t-41.5 16.5q-27 0 -55 -16
t-53 -43v-479h-68z" />
    <glyph glyph-name="n" unicode="n" horiz-adv-x="409" 
d="M56 0v578h73v-60q28 30 63 49.5t76 19.5q29 0 49 -14.5t30 -42t10 -66.5v-464h-73v448q0 45 -13.5 63.5t-41.5 18.5q-25 0 -51 -15t-49 -39v-476h-73z" />
    <glyph glyph-name="o" unicode="o" horiz-adv-x="399" 
d="M199 -9q-59 0 -92.5 25.5t-47.5 74t-14 118.5v160q0 70 14 118.5t47.5 74t92.5 25.5q61 0 94 -25.5t47 -74t14 -118.5v-160q0 -70 -14 -118.5t-47 -74t-94 -25.5zM199 46q38 0 55.5 20t21.5 56.5t4 82.5v168q0 47 -4 82.5t-21.5 56t-55.5 20.5t-55 -20.5t-21 -56
t-4 -82.5v-168q0 -46 4 -82.5t21 -56.5t55 -20z" />
    <glyph glyph-name="p" unicode="p" horiz-adv-x="417" 
d="M56 -190v768h73v-48q18 22 45 39.5t66 17.5q42 0 67.5 -19.5t39.5 -52.5t19 -74t5 -84v-122q0 -74 -12 -128.5t-42.5 -85t-84.5 -30.5q-35 0 -60.5 18t-42.5 37v-236h-73zM221 49q33 0 49.5 21t22 62.5t5.5 100.5v124q0 56 -5.5 94.5t-22.5 58.5t-51 20q-28 0 -51.5 -15
t-38.5 -30v-394q16 -17 39.5 -29.5t52.5 -12.5z" />
    <glyph glyph-name="q" unicode="q" horiz-adv-x="414" 
d="M285 -190v231q-17 -19 -41.5 -34.5t-57.5 -15.5q-74 0 -106.5 56t-32.5 186v107q0 76 11 131t40.5 85.5t85.5 30.5q33 0 58.5 -15.5t42.5 -35.5v42h73v-768h-73zM201 49q24 0 45.5 11t38.5 28v400q-15 15 -37 28.5t-49 13.5q-48 0 -63.5 -42.5t-15.5 -123.5v-137
q0 -58 6.5 -98t24 -60t50.5 -20z" />
    <glyph glyph-name="r" unicode="r" horiz-adv-x="297" 
d="M61 0v578h74v-79q28 46 64 65.5t69 19.5h6t7 -1v-78q-7 3 -17 4.5t-19 1.5q-34 0 -61.5 -16t-48.5 -51v-444h-74z" />
    <glyph glyph-name="s" unicode="s" horiz-adv-x="363" 
d="M188 -9q-69 0 -110 44.5t-47 119.5l61 19q6 -67 31 -97.5t70 -30.5q38 0 58.5 21.5t20.5 60.5q0 28 -17 56.5t-53 59.5l-79 68q-39 33 -59 66t-20 79q0 42 17.5 70.5t48.5 44t72 15.5q66 0 100 -42.5t37 -109.5l-52 -17q-2 39 -12 64.5t-27.5 37.5t-42.5 12
q-33 0 -53.5 -18.5t-20.5 -51.5q0 -26 10 -46t37 -45l82 -73q24 -21 46 -45t36 -53.5t14 -69.5q0 -45 -18.5 -75.5t-51.5 -47t-78 -16.5z" />
    <glyph glyph-name="t" unicode="t" horiz-adv-x="280" 
d="M193 -7q-42 0 -64.5 16.5t-31 45t-8.5 65.5v410h-71v48h71v179h73v-179h96v-48h-96v-403q0 -42 9.5 -59.5t41.5 -17.5q9 0 20.5 1.5t21.5 3.5v-56q-15 -3 -31 -4.5t-31 -1.5z" />
    <glyph glyph-name="u" unicode="u" horiz-adv-x="412" 
d="M141 -9q-29 0 -49 15t-30.5 42t-10.5 66v464h74v-448q0 -45 13.5 -63t41.5 -18q26 0 52.5 16t49.5 41v472h73v-578h-73v64q-28 -32 -64 -52.5t-77 -20.5z" />
    <glyph glyph-name="v" unicode="v" horiz-adv-x="368" 
d="M143 0l-125 578h74l94 -494l93 494h71l-121 -578h-86z" />
    <glyph glyph-name="w" unicode="w" horiz-adv-x="574" 
d="M125 0l-94 578h63l72 -483l91 483h63l92 -481l69 481h63l-94 -578h-68l-93 470l-90 -470h-74z" />
    <glyph glyph-name="x" unicode="x" horiz-adv-x="380" 
d="M16 0l137 302l-130 276h72l99 -212l95 212h74l-135 -284l137 -294h-70l-108 227l-101 -227h-70z" />
    <glyph glyph-name="y" unicode="y" horiz-adv-x="381" 
d="M40 -144v57q50 0 75.5 7.5t34 21t8.5 31.5q0 16 -6 42t-13 54l-119 509h73l100 -492l97 492h74l-140 -619q-8 -37 -28.5 -59.5t-54 -33t-82.5 -10.5h-19z" />
    <glyph glyph-name="z" unicode="z" horiz-adv-x="333" 
d="M32 0v51l197 471h-176v56h253v-44l-196 -478h193v-56h-271z" />
    <glyph glyph-name="braceleft" unicode="{" horiz-adv-x="258" 
d="M238 -165q-51 0 -79.5 7t-42 27.5t-17 60.5t-3.5 107v129q0 55 -4.5 83.5t-16.5 39.5t-37 11v56q25 0 37 11.5t16.5 40.5t4.5 83v125q0 67 3.5 107t17 60.5t42 27t79.5 6.5v-55q-25 0 -39 -4t-20 -18t-7 -43.5t-1 -80.5v-141q0 -75 -14 -106.5t-45 -40.5q31 -8 45 -39.5
t14 -107.5v-144q0 -51 1 -81t7 -44t20 -17.5t39 -3.5v-56z" />
    <glyph glyph-name="bar" unicode="|" horiz-adv-x="217" 
d="M74 -144l1 954h68v-954h-69z" />
    <glyph glyph-name="braceright" unicode="}" horiz-adv-x="269" 
d="M31 -165v56q25 0 39 3.5t20 17.5t7 44t1 81v144q0 76 14 107.5t45 39.5q-31 9 -45 40.5t-14 106.5v141q0 51 -1 80.5t-7 43.5t-20 18t-39 4v55q51 0 79.5 -6.5t42.5 -27t17 -60.5t3 -107v-125q0 -54 4.5 -83t17 -40.5t36.5 -11.5v-56q-24 0 -36.5 -11t-17 -39.5
t-4.5 -83.5v-129q0 -67 -3 -107t-17 -60.5t-42.5 -27.5t-79.5 -7z" />
    <glyph glyph-name="asciitilde" unicode="~" horiz-adv-x="406" 
d="M272 374q-22 0 -47 14.5t-49 28t-42 13.5q-12 0 -30 -10t-39 -30l-26 34q14 17 31.5 31.5t35.5 23t32 8.5q22 0 46.5 -13.5t49 -27.5t41.5 -14q14 0 29.5 10t37.5 28l26 -34q-14 -15 -30.5 -29t-33.5 -23.5t-32 -9.5z" />
    <glyph glyph-name="uni00A0" unicode="&#xa0;" horiz-adv-x="204" 
 />
    <glyph glyph-name="exclamdown" unicode="&#xa1;" horiz-adv-x="201" 
d="M61 -194l27 636h26l25 -636h-78zM62 529v87h78v-87h-78z" />
    <glyph glyph-name="cent" unicode="&#xa2;" horiz-adv-x="382" 
d="M173 -100v93q-55 6 -83 36.5t-36.5 79.5t-8.5 110v135q0 76 11.5 125.5t40 76t80.5 30.5v90h30v-89q58 -2 88 -25.5t41 -64.5t11 -95v-28h-68v28q0 51 -7.5 79t-25 39.5t-46.5 11.5q-34 0 -52 -16t-24 -52.5t-6 -97.5v-162q0 -87 17 -122.5t66 -35.5q34 0 51 15.5
t22 46.5t5 77v32h68v-28q0 -58 -10.5 -102t-41 -69t-92.5 -27v-91h-30z" />
    <glyph glyph-name="sterling" unicode="&#xa3;" horiz-adv-x="375" 
d="M11 0v37l61 17v324h-61v55h61v114q0 59 4.5 108.5t20.5 86t47 56.5t83 20q51 0 79 -21t39 -58.5t11 -85.5v-14.5v-10.5h-56q0 41 -5 70.5t-20.5 45.5t-48.5 16q-38 0 -55 -23t-21.5 -61.5t-5.5 -88.5v-154h133v-55h-133v-323h210v-55h-343z" />
    <glyph glyph-name="currency" unicode="&#xa4;" horiz-adv-x="526" 
d="M42 186l-15 15l80 79q-25 28 -40 65t-15 78t15 78t40 65l-80 79l15 15l79 -79q28 26 64.5 41t78.5 15t78.5 -15t64.5 -41l79 79l15 -15l-79 -79q25 -28 39 -65t14 -78t-14 -78t-40 -65l80 -79l-15 -15l-79 79q-28 -26 -64.5 -41.5t-78.5 -14.5q-42 -1 -78.5 14.5
t-64.5 41.5zM264 243q49 0 89 24.5t63 65.5t23 90q0 50 -23 90.5t-63 65t-89 24.5t-88.5 -24.5t-62.5 -65.5t-23 -90t23 -90t62.5 -65.5t88.5 -24.5z" />
    <glyph glyph-name="yen" unicode="&#xa5;" horiz-adv-x="434" 
d="M188 0v110h-100v49h100v90h-100v48h90l-173 513h74l146 -450l140 450h75l-169 -513h89v-48h-99v-90h99v-49h-99v-110h-73z" />
    <glyph glyph-name="brokenbar" unicode="&#xa6;" horiz-adv-x="202" 
d="M71 394v416h61v-416h-61zM71 -170v415h61v-415h-61z" />
    <glyph glyph-name="section" unicode="&#xa7;" horiz-adv-x="400" 
d="M203 -9q-46 0 -78 22t-52 57t-30 76l56 18q8 -28 21.5 -54t34 -42.5t48.5 -16.5q37 0 59.5 19.5t23.5 54.5q2 15 -2.5 30.5t-19.5 37t-48 51.5l-112 92q-30 24 -48 51.5t-18 63.5q0 48 27 77.5t62 42.5q-27 24 -50 53.5t-23 66.5q0 38 18 66.5t51 44.5t78 16t75 -22
t48.5 -55t27.5 -68l-56 -18q-7 21 -19 45t-30.5 41t-47.5 17q-31 0 -52 -18.5t-21 -54.5q0 -15 7.5 -30.5t20.5 -30t27 -27.5l113 -85q36 -28 56.5 -63.5t17.5 -83.5q-2 -45 -25 -71.5t-53 -42.5q23 -24 43 -52t21 -68q1 -66 -41.5 -103t-109.5 -37zM243 291
q20 10 39.5 28.5t21.5 45.5q3 28 -10 52.5t-44 50.5l-78 64q-26 -9 -44 -29.5t-18 -49.5q0 -18 9 -35t25 -32z" />
    <glyph glyph-name="dieresis" unicode="&#xa8;" horiz-adv-x="383" 
d="M232 721v89h76v-89h-76zM69 721v89h74v-89h-74z" />
    <glyph glyph-name="copyright" unicode="&#xa9;" horiz-adv-x="862" 
d="M431 -11q-107 0 -183 37t-124.5 98t-71.5 136.5t-23 151.5t23 151t71.5 136t124.5 98t183 37t183 -37t124.5 -98t71.5 -136t23 -151t-22.5 -151.5t-71 -136.5t-125 -98t-183.5 -37zM423 122q-56 0 -90 17.5t-51.5 49.5t-23.5 76t-6 97v113q0 87 14.5 141.5t52 79.5
t104.5 25q68 0 103 -23t47 -65.5t12 -102.5v-27h-71v27q0 55 -9.5 84t-29 39.5t-51.5 10.5q-38 0 -58 -16.5t-27.5 -55t-7.5 -104.5v-142q0 -63 8.5 -99t28.5 -51.5t57 -15.5q38 0 57 14t25.5 45t6.5 82v29h71v-25q0 -62 -11 -108t-45.5 -70.5t-105.5 -24.5zM433 24
q94 0 162 33t112 88.5t65.5 124.5t21.5 143q0 73 -21.5 142t-65.5 124t-112 87.5t-162 32.5q-95 0 -163 -32.5t-112.5 -87.5t-65.5 -124t-21 -142q0 -74 21 -143t65.5 -124.5t112.5 -88.5t163 -33z" />
    <glyph glyph-name="ordfeminine" unicode="&#xaa;" horiz-adv-x="411" 
d="M175 340q-45 0 -73.5 28.5t-28.5 74.5q0 33 12 56.5t36.5 42t63 36t92.5 38.5v43q0 59 -12.5 85t-46.5 26q-20 0 -35.5 -9t-24.5 -28.5t-9 -51.5h-61q2 68 35 104t95 36q49 0 76 -19.5t37 -58.5t10 -98v-299h-57l-2 61q-14 -29 -43 -48t-64 -19zM194 394q29 0 50 17
t33 41v131q-49 -22 -80 -39.5t-45 -37.5t-14 -51q0 -34 17.5 -47.5t38.5 -13.5z" />
    <glyph glyph-name="guillemotleft" unicode="&#xab;" horiz-adv-x="426" 
d="M367 86l-167 216v32l167 216v-94l-106 -138l106 -139v-93zM203 86l-166 216v32l166 216v-94l-105 -137l105 -140v-93z" />
    <glyph glyph-name="logicalnot" unicode="&#xac;" horiz-adv-x="363" 
d="M291 274v112h-250v57h293v-169h-43z" />
    <glyph glyph-name="uni00AD" unicode="&#xad;" horiz-adv-x="334" 
d="M57 370v57h224v-57h-224z" />
    <glyph glyph-name="registered" unicode="&#xae;" horiz-adv-x="876" 
d="M438 -12q-106 0 -182 36.5t-124 97.5t-70.5 136t-22.5 150q0 76 22.5 150.5t70.5 135.5t124 97.5t182 36.5q107 0 182.5 -36.5t123.5 -97.5t71 -135.5t23 -150.5t-23 -150.5t-70.5 -135.5t-123 -97.5t-183.5 -36.5zM439 27q92 0 158.5 32t110 87t64 123t20.5 139
q0 72 -20.5 140t-64 122t-110 86t-159.5 32q-92 0 -159 -32t-110.5 -86t-64 -122t-20.5 -140q0 -71 20.5 -139t64 -123t110.5 -87t160 -32zM299 123v579h163q57 0 89.5 -20.5t46 -55t13.5 -78.5q0 -51 -21.5 -88.5t-71.5 -51.5l101 -285h-68l-93 274h-94v-274h-65zM364 436
h82q62 0 80.5 28.5t18.5 84.5q0 51 -18 79t-71 28h-92v-220z" />
    <glyph glyph-name="macron" unicode="&#xaf;" horiz-adv-x="326" 
d="M74 763v47h178v-47h-178z" />
    <glyph glyph-name="degree" unicode="&#xb0;" horiz-adv-x="413" 
d="M207 524q-40 0 -73.5 16t-53.5 49t-20 83t20 82t53.5 48t73.5 16t73.5 -16t53.5 -48t20 -82t-20 -83t-53.5 -49t-73.5 -16zM207 574q37 0 63 24.5t26 72.5q0 50 -26.5 74.5t-63.5 24.5t-63 -24.5t-26 -74.5q0 -48 26 -72.5t64 -24.5z" />
    <glyph glyph-name="plusminus" unicode="&#xb1;" horiz-adv-x="339" 
d="M142 180v90h-90v61h90v89h62v-89h90v-61h-90v-90h-62zM52 0v61h242v-61h-242z" />
    <glyph glyph-name="uni00B2" unicode="&#xb2;" horiz-adv-x="373" 
d="M48 433v47l124 133q33 36 52.5 61t27.5 46t8 44q0 37 -17 59t-56 22q-46 0 -64.5 -28.5t-18.5 -82.5h-55v9q0 43 14.5 78.5t45 56t79.5 20.5q60 0 94.5 -35t34.5 -96q0 -49 -23 -86.5t-73 -89.5l-100 -107h207v-51h-280z" />
    <glyph glyph-name="uni00B3" unicode="&#xb3;" horiz-adv-x="366" 
d="M184 423q-44 0 -74.5 17t-46 47.5t-15.5 71.5v10h56v-4q0 -43 20 -66t62 -23q36 0 54.5 22t18.5 57q0 39 -19 61t-62 22h-19v50h16q38 0 58.5 19.5t20.5 60.5q0 34 -18 55.5t-52 21.5q-43 0 -61 -24.5t-18 -64.5v-4h-56v10q0 67 36.5 101.5t98.5 34.5q60 0 93.5 -33.5
t33.5 -89.5q0 -45 -20 -73t-48 -38q28 -10 50.5 -36.5t22.5 -75.5q0 -61 -37 -95t-95 -34z" />
    <glyph glyph-name="acute" unicode="&#xb4;" horiz-adv-x="233" 
d="M47 615l63 195h74l-98 -195h-39z" />
    <glyph glyph-name="uni00B5" unicode="&#xb5;" horiz-adv-x="420" 
d="M52 -173l-1 751h74v-448q0 -45 13.5 -63t41.5 -18q26 0 52.5 16t49.5 41v472h73v-578h-73v64q-23 -28 -52 -46.5t-62 -21.5q-11 -1 -22 0.5t-21 7.5v-177h-73z" />
    <glyph glyph-name="paragraph" unicode="&#xb6;" horiz-adv-x="485" 
d="M200 -95v625q-78 -1 -124.5 35t-46.5 104q0 44 19 75.5t59 48.5t99 17h208v-905h-54v863h-106v-863h-54z" />
    <glyph glyph-name="periodcentered" unicode="&#xb7;" horiz-adv-x="188" 
d="M64 333v88h75v-88h-75z" />
    <glyph glyph-name="cedilla" unicode="&#xb8;" horiz-adv-x="314" 
d="M123 -204q-10 0 -21 1.5t-22 3.5v38q8 -2 16.5 -3t16.5 -1q31 0 48 9.5t17 31.5q0 16 -8.5 26t-25 16.5t-40.5 9.5v72h38v-50q46 -2 69 -22t23 -53q0 -26 -13.5 -44t-38.5 -26.5t-59 -8.5z" />
    <glyph glyph-name="uni00B9" unicode="&#xb9;" horiz-adv-x="269" 
d="M135 433v387l-92 -48v50l117 66h32v-455h-57z" />
    <glyph glyph-name="ordmasculine" unicode="&#xba;" horiz-adv-x="411" 
d="M206 339q-55 0 -86 20t-43 56.5t-12 84.5v160q0 73 30 117t111 44q78 0 109 -44.5t31 -116.5v-160q0 -46 -12.5 -82.5t-43 -57.5t-84.5 -21zM204 389q35 0 51.5 15.5t22.5 42t6 58.5v150q0 33 -6 59t-22.5 41.5t-51.5 15.5q-33 0 -50 -15.5t-23.5 -41.5t-6.5 -59v-150
q0 -32 6 -58.5t23.5 -42t50.5 -15.5z" />
    <glyph glyph-name="guillemotright" unicode="&#xbb;" horiz-adv-x="440" 
d="M54 86v93l110 139l-110 138v94l172 -216v-32zM218 86v93l110 138l-110 139v94l171 -216v-32z" />
    <glyph glyph-name="onequarter" unicode="&#xbc;" horiz-adv-x="785" 
d="M140 355v387l-92 -48v50l117 66h32v-455h-57zM154 0l377 810h62l-376 -810h-63zM606 0v120h-172v46l191 289h37v-287h44v-48h-44v-120h-56zM492 168h114l-1 174z" />
    <glyph glyph-name="onehalf" unicode="&#xbd;" horiz-adv-x="795" 
d="M95 355v387l-92 -48v50l117 66h32v-455h-57zM109 0l377 810h62l-376 -810h-63zM453 0v47l124 133q33 36 52.5 61t27.5 46t8 44q0 37 -17 59t-56 22q-46 0 -64.5 -28.5t-18.5 -82.5h-55v9q0 43 14.5 78.5t45 56t79.5 20.5q60 0 94.5 -35t34.5 -96q0 -49 -23 -86.5
t-73 -89.5l-100 -107h207v-51h-280z" />
    <glyph glyph-name="threequarters" unicode="&#xbe;" horiz-adv-x="870" 
d="M183 343q-44 0 -74.5 17t-46 47.5t-15.5 71.5v10h56v-4q0 -43 20 -66t62 -23q36 0 54.5 22t18.5 57q0 39 -19 61t-62 22h-19v50h16q38 0 58.5 19.5t20.5 60.5q0 34 -18 55.5t-52 21.5q-43 0 -61 -24.5t-18 -64.5v-4h-56v10q0 67 36.5 101.5t98.5 34.5q60 0 93.5 -33.5
t33.5 -89.5q0 -45 -20 -73t-48 -38q28 -10 50.5 -36.5t22.5 -75.5q0 -61 -37 -95t-95 -34zM217 0l377 810h62l-376 -810h-63zM669 0v120h-172v46l191 289h37v-287h44v-48h-44v-120h-56zM555 168h114l-1 174z" />
    <glyph glyph-name="questiondown" unicode="&#xbf;" horiz-adv-x="474" 
d="M289 411v-124q-61 -44 -101.5 -88.5t-60.5 -93t-20 -104.5q0 -71 32 -107t88 -36q48 0 78 26t30 72q0 14 -2.5 26.5t-7.5 28.5l67 15q7 -18 10.5 -34.5t3.5 -34.5q0 -75 -49.5 -119t-129.5 -44q-88 0 -139.5 55t-51.5 154q0 66 22.5 118.5t65 97t101.5 88.5v104h64z
M292 612v-87h-72v87h72z" />
    <glyph glyph-name="Agrave" unicode="&#xc0;" horiz-adv-x="477" 
d="M27 0l171 810h80l172 -810h-75l-40 217h-193l-41 -217h-74zM153 272h172l-86 437zM220 858l-92 196h74l55 -196h-37z" />
    <glyph glyph-name="Aacute" unicode="&#xc1;" horiz-adv-x="477" 
d="M27 0l171 810h80l172 -810h-75l-40 217h-193l-41 -217h-74zM153 272h172l-86 437zM220 858l63 196h73l-98 -196h-38z" />
    <glyph glyph-name="Acircumflex" unicode="&#xc2;" horiz-adv-x="477" 
d="M27 0l171 810h80l172 -810h-75l-40 217h-193l-41 -217h-74zM153 272h172l-86 437zM112 864l86 178h82l85 -178h-54l-73 141l-72 -141h-54z" />
    <glyph glyph-name="Atilde" unicode="&#xc3;" horiz-adv-x="477" 
d="M27 0l171 810h80l172 -810h-75l-40 217h-193l-41 -217h-74zM153 272h172l-86 437zM300 924q-24 0 -43 12t-35.5 24t-34.5 12q-16 0 -24.5 -10t-8.5 -30h-45q0 17 5.5 37.5t20.5 35.5t43 15q24 0 43 -11.5t36 -23.5t35 -12q17 0 25 9.5t8 33.5h44q0 -18 -4.5 -39.5
t-19.5 -37t-45 -15.5z" />
    <glyph glyph-name="Adieresis" unicode="&#xc4;" horiz-adv-x="477" 
d="M27 0l171 810h80l172 -810h-75l-40 217h-193l-41 -217h-74zM153 272h172l-86 437zM284 953v89h75v-89h-75zM119 953v89h75v-89h-75z" />
    <glyph glyph-name="Aring" unicode="&#xc5;" horiz-adv-x="477" 
d="M27 0l171 810h80l172 -810h-75l-40 217h-193l-41 -217h-74zM153 272h172l-86 437zM239 861q-38 0 -67 24t-29 71q0 48 29 71.5t67 23.5q39 0 67.5 -23.5t28.5 -71.5q0 -47 -28.5 -71t-67.5 -24zM239 901q22 0 38.5 13.5t16.5 41.5q0 30 -16.5 43t-38.5 13q-23 0 -39 -13
t-16 -43q0 -28 16 -41.5t39 -13.5z" />
    <glyph glyph-name="AE" unicode="&#xc6;" horiz-adv-x="631" 
d="M-28 0l324 810h303v-61h-216v-298h155v-58h-155v-333h216v-60h-293v217h-170l-84 -217h-80zM157 275h149v406z" />
    <glyph glyph-name="Ccedilla" unicode="&#xc7;" horiz-adv-x="499" 
d="M259 -10q-82 0 -126.5 34t-61.5 91.5t-17 127.5v322q0 75 17.5 132t62.5 89t125 32q73 0 114.5 -28t59.5 -79.5t18 -122.5v-49h-72v47q0 53 -8.5 91t-34.5 59t-76 21q-55 0 -82.5 -22.5t-37 -63.5t-9.5 -95v-345q0 -60 11.5 -100t39.5 -60t78 -20q51 0 76.5 22t34 61.5
t8.5 92.5v53h72v-48q0 -71 -16.5 -125.5t-58 -85.5t-117.5 -31zM250 -204q-10 0 -21 1.5t-22 3.5v38q8 -2 16.5 -3t16.5 -1q31 0 48 9.5t17 31.5q0 16 -8.5 26t-25 16.5t-40.5 9.5v72h38v-50q46 -2 69 -22t23 -53q0 -26 -13.5 -44t-38.5 -26.5t-59 -8.5z" />
    <glyph glyph-name="Egrave" unicode="&#xc8;" horiz-adv-x="398" 
d="M70 0v810h293v-59h-216v-304h176v-56h-176v-334h218v-57h-295zM201 858l-92 196h74l55 -196h-37z" />
    <glyph glyph-name="Eacute" unicode="&#xc9;" horiz-adv-x="398" 
d="M70 0v810h293v-59h-216v-304h176v-56h-176v-334h218v-57h-295zM201 858l63 196h73l-98 -196h-38z" />
    <glyph glyph-name="Ecircumflex" unicode="&#xca;" horiz-adv-x="398" 
d="M70 0v810h293v-59h-216v-304h176v-56h-176v-334h218v-57h-295zM93 864l86 178h82l85 -178h-54l-73 141l-72 -141h-54z" />
    <glyph glyph-name="Edieresis" unicode="&#xcb;" horiz-adv-x="398" 
d="M70 0v810h293v-59h-216v-304h176v-56h-176v-334h218v-57h-295zM265 953v89h75v-89h-75zM100 953v89h75v-89h-75z" />
    <glyph glyph-name="Igrave" unicode="&#xcc;" horiz-adv-x="222" 
d="M73 0v810h76v-810h-76zM92 858l-92 196h74l55 -196h-37z" />
    <glyph glyph-name="Iacute" unicode="&#xcd;" horiz-adv-x="222" 
d="M73 0v810h76v-810h-76zM92 858l63 196h73l-98 -196h-38z" />
    <glyph glyph-name="Icircumflex" unicode="&#xce;" horiz-adv-x="222" 
d="M73 0v810h76v-810h-76zM-16 864l86 178h82l85 -178h-54l-73 141l-72 -141h-54z" />
    <glyph glyph-name="Idieresis" unicode="&#xcf;" horiz-adv-x="222" 
d="M73 0v810h76v-810h-76zM157 953v89h75v-89h-75zM-8 953v89h75v-89h-75z" />
    <glyph glyph-name="Eth" unicode="&#xd0;" horiz-adv-x="545" 
d="M71 0v401h-60v47h60v362h176q85 0 132.5 -29.5t67.5 -83.5t20 -125v-322q0 -75 -20 -131.5t-66 -87.5t-127 -31h-183zM147 57h102q64 0 94 26.5t38 73t8 105.5v302q0 61 -10.5 102.5t-41 63t-91.5 21.5h-99v-303h81v-47h-81v-344z" />
    <glyph glyph-name="Ntilde" unicode="&#xd1;" horiz-adv-x="520" 
d="M71 0v810h55l258 -629v629h66v-810h-54l-259 636v-636h-66zM321 924q-24 0 -43 12t-35.5 24t-34.5 12q-16 0 -24.5 -10t-8.5 -30h-45q0 17 5.5 37.5t20.5 35.5t43 15q24 0 43 -11.5t36 -23.5t35 -12q17 0 25 9.5t8 33.5h44q0 -18 -4.5 -39.5t-19.5 -37t-45 -15.5z" />
    <glyph glyph-name="Ograve" unicode="&#xd2;" horiz-adv-x="525" 
d="M263 -10q-81 0 -126.5 31.5t-64 88t-18.5 129.5v336q0 74 19.5 128.5t65 84.5t124.5 30q78 0 123.5 -30t64.5 -84.5t19 -128.5v-337q0 -73 -18.5 -128.5t-63.5 -87.5t-125 -32zM263 51q53 0 81 21.5t38.5 60t10.5 89.5v367q0 51 -10.5 89t-38.5 58.5t-81 20.5
q-54 0 -82.5 -20.5t-39 -58.5t-10.5 -89v-367q0 -51 10.5 -89.5t39 -60t82.5 -21.5zM244 858l-92 196h74l55 -196h-37z" />
    <glyph glyph-name="Oacute" unicode="&#xd3;" horiz-adv-x="525" 
d="M263 -10q-81 0 -126.5 31.5t-64 88t-18.5 129.5v336q0 74 19.5 128.5t65 84.5t124.5 30q78 0 123.5 -30t64.5 -84.5t19 -128.5v-337q0 -73 -18.5 -128.5t-63.5 -87.5t-125 -32zM263 51q53 0 81 21.5t38.5 60t10.5 89.5v367q0 51 -10.5 89t-38.5 58.5t-81 20.5
q-54 0 -82.5 -20.5t-39 -58.5t-10.5 -89v-367q0 -51 10.5 -89.5t39 -60t82.5 -21.5zM244 858l63 196h73l-98 -196h-38z" />
    <glyph glyph-name="Ocircumflex" unicode="&#xd4;" horiz-adv-x="525" 
d="M263 -10q-81 0 -126.5 31.5t-64 88t-18.5 129.5v336q0 74 19.5 128.5t65 84.5t124.5 30q78 0 123.5 -30t64.5 -84.5t19 -128.5v-337q0 -73 -18.5 -128.5t-63.5 -87.5t-125 -32zM263 51q53 0 81 21.5t38.5 60t10.5 89.5v367q0 51 -10.5 89t-38.5 58.5t-81 20.5
q-54 0 -82.5 -20.5t-39 -58.5t-10.5 -89v-367q0 -51 10.5 -89.5t39 -60t82.5 -21.5zM136 864l86 178h82l85 -178h-54l-73 141l-72 -141h-54z" />
    <glyph glyph-name="Otilde" unicode="&#xd5;" horiz-adv-x="525" 
d="M263 -10q-81 0 -126.5 31.5t-64 88t-18.5 129.5v336q0 74 19.5 128.5t65 84.5t124.5 30q78 0 123.5 -30t64.5 -84.5t19 -128.5v-337q0 -73 -18.5 -128.5t-63.5 -87.5t-125 -32zM263 51q53 0 81 21.5t38.5 60t10.5 89.5v367q0 51 -10.5 89t-38.5 58.5t-81 20.5
q-54 0 -82.5 -20.5t-39 -58.5t-10.5 -89v-367q0 -51 10.5 -89.5t39 -60t82.5 -21.5zM324 924q-24 0 -43 12t-35.5 24t-34.5 12q-16 0 -24.5 -10t-8.5 -30h-45q0 17 5.5 37.5t20.5 35.5t43 15q24 0 43 -11.5t36 -23.5t35 -12q17 0 25 9.5t8 33.5h44q0 -18 -4.5 -39.5
t-19.5 -37t-45 -15.5z" />
    <glyph glyph-name="Odieresis" unicode="&#xd6;" horiz-adv-x="525" 
d="M263 -10q-81 0 -126.5 31.5t-64 88t-18.5 129.5v336q0 74 19.5 128.5t65 84.5t124.5 30q78 0 123.5 -30t64.5 -84.5t19 -128.5v-337q0 -73 -18.5 -128.5t-63.5 -87.5t-125 -32zM263 51q53 0 81 21.5t38.5 60t10.5 89.5v367q0 51 -10.5 89t-38.5 58.5t-81 20.5
q-54 0 -82.5 -20.5t-39 -58.5t-10.5 -89v-367q0 -51 10.5 -89.5t39 -60t82.5 -21.5zM308 953v89h75v-89h-75zM143 953v89h75v-89h-75z" />
    <glyph glyph-name="multiply" unicode="&#xd7;" horiz-adv-x="353" 
d="M79 255l-38 39l98 98l-98 98l38 38l98 -98l97 98l39 -38l-99 -98l99 -98l-39 -39l-97 99z" />
    <glyph glyph-name="Oslash" unicode="&#xd8;" horiz-adv-x="529" 
d="M141 -87l-31 9l272 968l31 -8zM263 -10q-81 0 -126.5 31.5t-64 88t-18.5 129.5v336q0 74 19.5 128.5t65 84.5t124.5 30q78 0 123.5 -30t64.5 -84.5t19 -128.5v-337q0 -73 -18.5 -128.5t-63.5 -87.5t-125 -32zM263 51q53 0 81 21.5t38.5 60t10.5 89.5v367q0 51 -10.5 89
t-38.5 58.5t-81 20.5q-54 0 -82.5 -20.5t-39 -58.5t-10.5 -89v-367q0 -51 10.5 -89.5t39 -60t82.5 -21.5z" />
    <glyph glyph-name="Ugrave" unicode="&#xd9;" horiz-adv-x="537" 
d="M269 -10q-82 0 -127.5 29.5t-62.5 82t-17 119.5v589h74v-591q0 -47 10.5 -85.5t39.5 -60.5t83 -22q52 0 81 22.5t40.5 60.5t11.5 85v591h73v-589q0 -67 -18 -119.5t-63 -82t-125 -29.5zM250 858l-92 196h74l55 -196h-37z" />
    <glyph glyph-name="Uacute" unicode="&#xda;" horiz-adv-x="537" 
d="M269 -10q-82 0 -127.5 29.5t-62.5 82t-17 119.5v589h74v-591q0 -47 10.5 -85.5t39.5 -60.5t83 -22q52 0 81 22.5t40.5 60.5t11.5 85v591h73v-589q0 -67 -18 -119.5t-63 -82t-125 -29.5zM250 858l63 196h73l-98 -196h-38z" />
    <glyph glyph-name="Ucircumflex" unicode="&#xdb;" horiz-adv-x="537" 
d="M269 -10q-82 0 -127.5 29.5t-62.5 82t-17 119.5v589h74v-591q0 -47 10.5 -85.5t39.5 -60.5t83 -22q52 0 81 22.5t40.5 60.5t11.5 85v591h73v-589q0 -67 -18 -119.5t-63 -82t-125 -29.5zM142 864l86 178h82l85 -178h-54l-73 141l-72 -141h-54z" />
    <glyph glyph-name="Udieresis" unicode="&#xdc;" horiz-adv-x="537" 
d="M269 -10q-82 0 -127.5 29.5t-62.5 82t-17 119.5v589h74v-591q0 -47 10.5 -85.5t39.5 -60.5t83 -22q52 0 81 22.5t40.5 60.5t11.5 85v591h73v-589q0 -67 -18 -119.5t-63 -82t-125 -29.5zM315 953v89h75v-89h-75zM150 953v89h75v-89h-75z" />
    <glyph glyph-name="Yacute" unicode="&#xdd;" horiz-adv-x="469" 
d="M200 0v269l-183 541h74l146 -450l140 450h75l-178 -541v-269h-74zM216 858l63 196h73l-98 -196h-38z" />
    <glyph glyph-name="Thorn" unicode="&#xde;" horiz-adv-x="504" 
d="M71 0v810h76v-105h139q70 0 112 -30t60.5 -81t18.5 -115q0 -46 -10 -88.5t-33 -75.5t-62 -52t-97 -19h-128v-244h-76zM147 308h113q72 0 106.5 38.5t34.5 131.5q0 88 -34.5 125.5t-99.5 37.5h-120v-333z" />
    <glyph glyph-name="germandbls" unicode="&#xdf;" horiz-adv-x="496" 
d="M190 -10v61q58 0 94.5 15.5t56 41.5t26.5 59t7 68q0 47 -14 86.5t-45.5 63.5t-85.5 24l1 62q41 0 64.5 22t33 57t9.5 75q0 67 -22.5 104t-79.5 37q-33 0 -55.5 -13.5t-33.5 -46.5t-11 -94v-612h-73v611q0 77 19.5 124t58 68.5t94.5 21.5q83 0 128.5 -50t45.5 -150
q0 -71 -24 -115.5t-73 -63.5q49 -12 78.5 -43t43 -74t13.5 -92t-12 -93.5t-40.5 -79.5t-78.5 -54.5t-125 -19.5z" />
    <glyph glyph-name="agrave" unicode="&#xe0;" horiz-adv-x="397" 
d="M156 -9q-35 0 -61 17.5t-40.5 47t-14.5 64.5q0 44 12.5 75t40 55.5t72 48t108.5 52.5v41q0 53 -6.5 83.5t-22 43.5t-43.5 13q-23 0 -41 -9t-29 -30.5t-11 -59.5v-20l-72 1q1 88 37.5 130.5t119.5 42.5q78 0 109.5 -46.5t31.5 -144.5v-281q0 -15 1 -38.5t2 -44.5t2 -32
h-65q-2 19 -6 42.5t-5 37.5q-12 -35 -42.5 -62t-76.5 -27zM179 53q22 0 40 11t32 26.5t22 31.5v180q-43 -22 -73.5 -40t-49.5 -35t-28 -38.5t-9 -50.5q0 -46 20 -65.5t46 -19.5zM185 626l-92 196h74l55 -196h-37z" />
    <glyph glyph-name="aacute" unicode="&#xe1;" horiz-adv-x="397" 
d="M156 -9q-35 0 -61 17.5t-40.5 47t-14.5 64.5q0 44 12.5 75t40 55.5t72 48t108.5 52.5v41q0 53 -6.5 83.5t-22 43.5t-43.5 13q-23 0 -41 -9t-29 -30.5t-11 -59.5v-20l-72 1q1 88 37.5 130.5t119.5 42.5q78 0 109.5 -46.5t31.5 -144.5v-281q0 -15 1 -38.5t2 -44.5t2 -32
h-65q-2 19 -6 42.5t-5 37.5q-12 -35 -42.5 -62t-76.5 -27zM179 53q22 0 40 11t32 26.5t22 31.5v180q-43 -22 -73.5 -40t-49.5 -35t-28 -38.5t-9 -50.5q0 -46 20 -65.5t46 -19.5zM185 626l63 196h73l-98 -196h-38z" />
    <glyph glyph-name="acircumflex" unicode="&#xe2;" horiz-adv-x="397" 
d="M156 -9q-35 0 -61 17.5t-40.5 47t-14.5 64.5q0 44 12.5 75t40 55.5t72 48t108.5 52.5v41q0 53 -6.5 83.5t-22 43.5t-43.5 13q-23 0 -41 -9t-29 -30.5t-11 -59.5v-20l-72 1q1 88 37.5 130.5t119.5 42.5q78 0 109.5 -46.5t31.5 -144.5v-281q0 -15 1 -38.5t2 -44.5t2 -32
h-65q-2 19 -6 42.5t-5 37.5q-12 -35 -42.5 -62t-76.5 -27zM179 53q22 0 40 11t32 26.5t22 31.5v180q-43 -22 -73.5 -40t-49.5 -35t-28 -38.5t-9 -50.5q0 -46 20 -65.5t46 -19.5zM77 632l86 178h82l85 -178h-54l-73 141l-72 -141h-54z" />
    <glyph glyph-name="atilde" unicode="&#xe3;" horiz-adv-x="397" 
d="M156 -9q-35 0 -61 17.5t-40.5 47t-14.5 64.5q0 44 12.5 75t40 55.5t72 48t108.5 52.5v41q0 53 -6.5 83.5t-22 43.5t-43.5 13q-23 0 -41 -9t-29 -30.5t-11 -59.5v-20l-72 1q1 88 37.5 130.5t119.5 42.5q78 0 109.5 -46.5t31.5 -144.5v-281q0 -15 1 -38.5t2 -44.5t2 -32
h-65q-2 19 -6 42.5t-5 37.5q-12 -35 -42.5 -62t-76.5 -27zM179 53q22 0 40 11t32 26.5t22 31.5v180q-43 -22 -73.5 -40t-49.5 -35t-28 -38.5t-9 -50.5q0 -46 20 -65.5t46 -19.5zM265 692q-24 0 -43 12t-35.5 24t-34.5 12q-16 0 -24.5 -10t-8.5 -30h-45q0 17 5.5 37.5
t20.5 35.5t43 15q24 0 43 -11.5t36 -23.5t35 -12q17 0 25 9.5t8 33.5h44q0 -18 -4.5 -39.5t-19.5 -37t-45 -15.5z" />
    <glyph glyph-name="adieresis" unicode="&#xe4;" horiz-adv-x="397" 
d="M156 -9q-35 0 -61 17.5t-40.5 47t-14.5 64.5q0 44 12.5 75t40 55.5t72 48t108.5 52.5v41q0 53 -6.5 83.5t-22 43.5t-43.5 13q-23 0 -41 -9t-29 -30.5t-11 -59.5v-20l-72 1q1 88 37.5 130.5t119.5 42.5q78 0 109.5 -46.5t31.5 -144.5v-281q0 -15 1 -38.5t2 -44.5t2 -32
h-65q-2 19 -6 42.5t-5 37.5q-12 -35 -42.5 -62t-76.5 -27zM179 53q22 0 40 11t32 26.5t22 31.5v180q-43 -22 -73.5 -40t-49.5 -35t-28 -38.5t-9 -50.5q0 -46 20 -65.5t46 -19.5zM250 721v89h75v-89h-75zM85 721v89h75v-89h-75z" />
    <glyph glyph-name="aring" unicode="&#xe5;" horiz-adv-x="397" 
d="M156 -9q-35 0 -61 17.5t-40.5 47t-14.5 64.5q0 44 12.5 75t40 55.5t72 48t108.5 52.5v41q0 53 -6.5 83.5t-22 43.5t-43.5 13q-23 0 -41 -9t-29 -30.5t-11 -59.5v-20l-72 1q1 88 37.5 130.5t119.5 42.5q78 0 109.5 -46.5t31.5 -144.5v-281q0 -15 1 -38.5t2 -44.5t2 -32
h-65q-2 19 -6 42.5t-5 37.5q-12 -35 -42.5 -62t-76.5 -27zM179 53q22 0 40 11t32 26.5t22 31.5v180q-43 -22 -73.5 -40t-49.5 -35t-28 -38.5t-9 -50.5q0 -46 20 -65.5t46 -19.5zM204 629q-38 0 -67 24t-29 71q0 48 29 71.5t67 23.5q39 0 67.5 -23.5t28.5 -71.5
q0 -47 -28.5 -71t-67.5 -24zM204 669q22 0 38.5 13.5t16.5 41.5q0 30 -16.5 43t-38.5 13q-23 0 -39 -13t-16 -43q0 -28 16 -41.5t39 -13.5z" />
    <glyph glyph-name="ae" unicode="&#xe6;" horiz-adv-x="622" 
d="M164 -9q-59 0 -91.5 36.5t-32.5 92.5q0 42 12.5 75t45.5 58.5t92 44.5l84 27v81q0 68 -17.5 96t-61.5 28q-22 0 -39.5 -10.5t-27.5 -33.5t-10 -62l-71 1q0 79 38.5 120.5t108.5 41.5q55 0 87.5 -32t34.5 -89h-10q2 42 21.5 69t50 39.5t65.5 12.5q66 0 98.5 -34.5
t32.5 -88.5q0 -44 -16.5 -71t-46 -43t-67.5 -27l-96 -30v-95q0 -77 18 -112.5t62 -35.5q23 0 40 9.5t27.5 34t10.5 69.5v34h73v-32q0 -53 -14 -91.5t-46 -60.5t-86 -22q-35 0 -62.5 12t-45 38t-23.5 67q-10 -41 -31 -67t-48.5 -38t-58.5 -12zM181 48q25 0 46 14.5t34 47.5
t13 90v79l-63 -23q-42 -16 -63.5 -34t-28.5 -40t-7 -50q0 -29 10 -48t25.5 -27.5t33.5 -8.5zM348 337l84 27q41 13 58 32.5t17 58.5q0 28 -16 50.5t-57 22.5q-29 0 -48 -13.5t-28.5 -44t-9.5 -81.5v-52z" />
    <glyph glyph-name="ccedilla" unicode="&#xe7;" horiz-adv-x="389" 
d="M200 -9q-68 0 -101 30t-43.5 81.5t-10.5 116.5v135q0 80 13 131.5t46.5 76.5t95.5 25q61 0 93 -23t43 -65t11 -97v-28h-68v28q0 51 -7.5 79t-25 39.5t-46.5 11.5q-34 0 -52 -16t-24 -52.5t-6 -97.5v-162q0 -87 17 -122.5t66 -35.5q34 0 51 15.5t22 46.5t5 77v32h68v-28
q0 -58 -10.5 -102.5t-42.5 -70t-94 -25.5zM195 -204q-10 0 -21 1.5t-22 3.5v38q8 -2 16.5 -3t16.5 -1q31 0 48 9.5t17 31.5q0 16 -8.5 26t-25 16.5t-40.5 9.5v72h38v-50q46 -2 69 -22t23 -53q0 -26 -13.5 -44t-38.5 -26.5t-59 -8.5z" />
    <glyph glyph-name="egrave" unicode="&#xe8;" horiz-adv-x="395" 
d="M201 -9q-54 0 -88.5 21.5t-51 71.5t-16.5 133v146q0 86 17 134.5t52 69t88 20.5q61 0 93 -26t44.5 -78.5t12.5 -134.5v-52h-234v-101q0 -56 8.5 -88.5t27 -46.5t47.5 -14q22 0 40 8.5t28.5 33t10.5 69.5v40h71v-32q0 -79 -32.5 -126.5t-117.5 -47.5zM118 338h162v48
q0 46 -5 78.5t-21.5 50t-52.5 17.5q-30 0 -48.5 -13t-26.5 -46.5t-8 -95.5v-39zM179 626l-92 196h74l55 -196h-37z" />
    <glyph glyph-name="eacute" unicode="&#xe9;" horiz-adv-x="395" 
d="M201 -9q-54 0 -88.5 21.5t-51 71.5t-16.5 133v146q0 86 17 134.5t52 69t88 20.5q61 0 93 -26t44.5 -78.5t12.5 -134.5v-52h-234v-101q0 -56 8.5 -88.5t27 -46.5t47.5 -14q22 0 40 8.5t28.5 33t10.5 69.5v40h71v-32q0 -79 -32.5 -126.5t-117.5 -47.5zM118 338h162v48
q0 46 -5 78.5t-21.5 50t-52.5 17.5q-30 0 -48.5 -13t-26.5 -46.5t-8 -95.5v-39zM179 626l63 196h73l-98 -196h-38z" />
    <glyph glyph-name="ecircumflex" unicode="&#xea;" horiz-adv-x="395" 
d="M201 -9q-54 0 -88.5 21.5t-51 71.5t-16.5 133v146q0 86 17 134.5t52 69t88 20.5q61 0 93 -26t44.5 -78.5t12.5 -134.5v-52h-234v-101q0 -56 8.5 -88.5t27 -46.5t47.5 -14q22 0 40 8.5t28.5 33t10.5 69.5v40h71v-32q0 -79 -32.5 -126.5t-117.5 -47.5zM118 338h162v48
q0 46 -5 78.5t-21.5 50t-52.5 17.5q-30 0 -48.5 -13t-26.5 -46.5t-8 -95.5v-39zM71 632l86 178h82l85 -178h-54l-73 141l-72 -141h-54z" />
    <glyph glyph-name="edieresis" unicode="&#xeb;" horiz-adv-x="395" 
d="M201 -9q-54 0 -88.5 21.5t-51 71.5t-16.5 133v146q0 86 17 134.5t52 69t88 20.5q61 0 93 -26t44.5 -78.5t12.5 -134.5v-52h-234v-101q0 -56 8.5 -88.5t27 -46.5t47.5 -14q22 0 40 8.5t28.5 33t10.5 69.5v40h71v-32q0 -79 -32.5 -126.5t-117.5 -47.5zM118 338h162v48
q0 46 -5 78.5t-21.5 50t-52.5 17.5q-30 0 -48.5 -13t-26.5 -46.5t-8 -95.5v-39zM244 721v89h75v-89h-75zM79 721v89h75v-89h-75z" />
    <glyph glyph-name="igrave" unicode="&#xec;" horiz-adv-x="198" 
d="M64 0v578h73v-578h-73zM82 626l-92 196h74l55 -196h-37z" />
    <glyph glyph-name="iacute" unicode="&#xed;" horiz-adv-x="198" 
d="M64 0v578h73v-578h-73zM82 626l63 196h73l-98 -196h-38z" />
    <glyph glyph-name="icircumflex" unicode="&#xee;" horiz-adv-x="198" 
d="M64 0v578h73v-578h-73zM-26 632l86 178h82l85 -178h-54l-73 141l-72 -141h-54z" />
    <glyph glyph-name="idieresis" unicode="&#xef;" horiz-adv-x="198" 
d="M64 0v578h73v-578h-73zM146 721v89h75v-89h-75zM-19 721v89h75v-89h-75z" />
    <glyph glyph-name="eth" unicode="&#xf0;" horiz-adv-x="445" 
d="M223 -10q-60 0 -97.5 28.5t-54.5 81t-17 124.5v74q1 83 16 140.5t49 87.5t89 30q30 0 54.5 -9t43.5 -21q-5 37 -13.5 75t-21.5 61l-109 -31v40l89 25q-21 37 -62 56t-109 23l3 50q83 -3 138.5 -28t87.5 -82l94 26v-41l-75 -20q14 -30 27.5 -78.5t22.5 -112t9 -140.5v-105
q0 -80 -14.5 -137t-50.5 -87t-99 -30zM225 49q38 0 57 22t25.5 68.5t6.5 119.5q0 23 -0.5 53.5t-1.5 62t-2 57t-2 37.5q-17 11 -37.5 19.5t-44.5 8.5q-34 0 -56 -22.5t-32.5 -73t-10.5 -134.5q0 -73 8.5 -122t30 -72.5t59.5 -23.5z" />
    <glyph glyph-name="ntilde" unicode="&#xf1;" horiz-adv-x="409" 
d="M56 0v578h73v-60q28 30 63 49.5t76 19.5q29 0 49 -14.5t30 -42t10 -66.5v-464h-73v448q0 45 -13.5 63.5t-41.5 18.5q-25 0 -51 -15t-49 -39v-476h-73zM266 692q-24 0 -43 12t-35.5 24t-34.5 12q-16 0 -24.5 -10t-8.5 -30h-45q0 17 5.5 37.5t20.5 35.5t43 15
q24 0 43 -11.5t36 -23.5t35 -12q17 0 25 9.5t8 33.5h44q0 -18 -4.5 -39.5t-19.5 -37t-45 -15.5z" />
    <glyph glyph-name="ograve" unicode="&#xf2;" horiz-adv-x="399" 
d="M199 -9q-59 0 -92.5 25.5t-47.5 74t-14 118.5v160q0 70 14 118.5t47.5 74t92.5 25.5q61 0 94 -25.5t47 -74t14 -118.5v-160q0 -70 -14 -118.5t-47 -74t-94 -25.5zM199 46q38 0 55.5 20t21.5 56.5t4 82.5v168q0 47 -4 82.5t-21.5 56t-55.5 20.5t-55 -20.5t-21 -56
t-4 -82.5v-168q0 -46 4 -82.5t21 -56.5t55 -20zM181 626l-92 196h74l55 -196h-37z" />
    <glyph glyph-name="oacute" unicode="&#xf3;" horiz-adv-x="399" 
d="M199 -9q-59 0 -92.5 25.5t-47.5 74t-14 118.5v160q0 70 14 118.5t47.5 74t92.5 25.5q61 0 94 -25.5t47 -74t14 -118.5v-160q0 -70 -14 -118.5t-47 -74t-94 -25.5zM199 46q38 0 55.5 20t21.5 56.5t4 82.5v168q0 47 -4 82.5t-21.5 56t-55.5 20.5t-55 -20.5t-21 -56
t-4 -82.5v-168q0 -46 4 -82.5t21 -56.5t55 -20zM181 626l63 196h73l-98 -196h-38z" />
    <glyph glyph-name="ocircumflex" unicode="&#xf4;" horiz-adv-x="399" 
d="M199 -9q-59 0 -92.5 25.5t-47.5 74t-14 118.5v160q0 70 14 118.5t47.5 74t92.5 25.5q61 0 94 -25.5t47 -74t14 -118.5v-160q0 -70 -14 -118.5t-47 -74t-94 -25.5zM199 46q38 0 55.5 20t21.5 56.5t4 82.5v168q0 47 -4 82.5t-21.5 56t-55.5 20.5t-55 -20.5t-21 -56
t-4 -82.5v-168q0 -46 4 -82.5t21 -56.5t55 -20zM73 632l86 178h82l85 -178h-54l-73 141l-72 -141h-54z" />
    <glyph glyph-name="otilde" unicode="&#xf5;" horiz-adv-x="399" 
d="M199 -9q-59 0 -92.5 25.5t-47.5 74t-14 118.5v160q0 70 14 118.5t47.5 74t92.5 25.5q61 0 94 -25.5t47 -74t14 -118.5v-160q0 -70 -14 -118.5t-47 -74t-94 -25.5zM199 46q38 0 55.5 20t21.5 56.5t4 82.5v168q0 47 -4 82.5t-21.5 56t-55.5 20.5t-55 -20.5t-21 -56
t-4 -82.5v-168q0 -46 4 -82.5t21 -56.5t55 -20zM261 692q-24 0 -43 12t-35.5 24t-34.5 12q-16 0 -24.5 -10t-8.5 -30h-45q0 17 5.5 37.5t20.5 35.5t43 15q24 0 43 -11.5t36 -23.5t35 -12q17 0 25 9.5t8 33.5h44q0 -18 -4.5 -39.5t-19.5 -37t-45 -15.5z" />
    <glyph glyph-name="odieresis" unicode="&#xf6;" horiz-adv-x="399" 
d="M199 -9q-59 0 -92.5 25.5t-47.5 74t-14 118.5v160q0 70 14 118.5t47.5 74t92.5 25.5q61 0 94 -25.5t47 -74t14 -118.5v-160q0 -70 -14 -118.5t-47 -74t-94 -25.5zM199 46q38 0 55.5 20t21.5 56.5t4 82.5v168q0 47 -4 82.5t-21.5 56t-55.5 20.5t-55 -20.5t-21 -56
t-4 -82.5v-168q0 -46 4 -82.5t21 -56.5t55 -20zM246 721v89h75v-89h-75zM81 721v89h75v-89h-75z" />
    <glyph glyph-name="divide" unicode="&#xf7;" horiz-adv-x="337" 
d="M26 387v56h285v-56h-285zM137 196v91h62v-91h-62zM137 533v90h62v-90h-62z" />
    <glyph glyph-name="oslash" unicode="&#xf8;" horiz-adv-x="398" 
d="M85 -76l-25 8l260 715l27 -10zM199 -9q-59 0 -92.5 25.5t-47.5 74t-14 118.5v160q0 70 14 118.5t47.5 74t92.5 25.5q61 0 94 -25.5t47 -74t14 -118.5v-160q0 -70 -14 -118.5t-47 -74t-94 -25.5zM199 46q38 0 55.5 20t21.5 56.5t4 82.5v168q0 47 -4 82.5t-21.5 56
t-55.5 20.5t-55 -20.5t-21 -56t-4 -82.5v-168q0 -46 4 -82.5t21 -56.5t55 -20z" />
    <glyph glyph-name="ugrave" unicode="&#xf9;" horiz-adv-x="412" 
d="M141 -9q-29 0 -49 15t-30.5 42t-10.5 66v464h74v-448q0 -45 13.5 -63t41.5 -18q26 0 52.5 16t49.5 41v472h73v-578h-73v64q-28 -32 -64 -52.5t-77 -20.5zM187 626l-92 196h74l55 -196h-37z" />
    <glyph glyph-name="uacute" unicode="&#xfa;" horiz-adv-x="412" 
d="M141 -9q-29 0 -49 15t-30.5 42t-10.5 66v464h74v-448q0 -45 13.5 -63t41.5 -18q26 0 52.5 16t49.5 41v472h73v-578h-73v64q-28 -32 -64 -52.5t-77 -20.5zM187 626l63 196h73l-98 -196h-38z" />
    <glyph glyph-name="ucircumflex" unicode="&#xfb;" horiz-adv-x="412" 
d="M141 -9q-29 0 -49 15t-30.5 42t-10.5 66v464h74v-448q0 -45 13.5 -63t41.5 -18q26 0 52.5 16t49.5 41v472h73v-578h-73v64q-28 -32 -64 -52.5t-77 -20.5zM80 632l86 178h82l85 -178h-54l-73 141l-72 -141h-54z" />
    <glyph glyph-name="udieresis" unicode="&#xfc;" horiz-adv-x="412" 
d="M141 -9q-29 0 -49 15t-30.5 42t-10.5 66v464h74v-448q0 -45 13.5 -63t41.5 -18q26 0 52.5 16t49.5 41v472h73v-578h-73v64q-28 -32 -64 -52.5t-77 -20.5zM252 721v89h75v-89h-75zM87 721v89h75v-89h-75z" />
    <glyph glyph-name="yacute" unicode="&#xfd;" horiz-adv-x="381" 
d="M40 -144v57q50 0 75.5 7.5t34 21t8.5 31.5q0 16 -6 42t-13 54l-119 509h73l100 -492l97 492h74l-140 -619q-8 -37 -28.5 -59.5t-54 -33t-82.5 -10.5h-19zM172 626l63 196h73l-98 -196h-38z" />
    <glyph glyph-name="thorn" unicode="&#xfe;" horiz-adv-x="416" 
d="M57 -190v1000h73v-280q17 22 44.5 39.5t66.5 17.5q42 0 67.5 -19.5t39.5 -52.5t19 -74t5 -84v-122q0 -74 -12.5 -128.5t-43 -85t-83.5 -30.5q-35 0 -60.5 18t-42.5 37v-236h-73zM221 49q33 0 49.5 21t22 62.5t5.5 100.5v124q0 56 -5.5 94.5t-22 58.5t-50.5 20
q-29 0 -52 -15t-38 -30v-394q16 -17 39.5 -29.5t51.5 -12.5z" />
    <glyph glyph-name="ydieresis" unicode="&#xff;" horiz-adv-x="381" 
d="M40 -144v57q50 0 75.5 7.5t34 21t8.5 31.5q0 16 -6 42t-13 54l-119 509h73l100 -492l97 492h74l-140 -619q-8 -37 -28.5 -59.5t-54 -33t-82.5 -10.5h-19zM237 721v89h75v-89h-75zM72 721v89h75v-89h-75z" />
    <glyph glyph-name="Amacron" unicode="&#x100;" horiz-adv-x="477" 
d="M27 0l171 810h80l172 -810h-75l-40 217h-193l-41 -217h-74zM153 272h172l-86 437zM149 926v50h180v-50h-180z" />
    <glyph glyph-name="amacron" unicode="&#x101;" horiz-adv-x="397" 
d="M156 -9q-35 0 -61 17.5t-40.5 47t-14.5 64.5q0 44 12.5 75t40 55.5t72 48t108.5 52.5v41q0 53 -6.5 83.5t-22 43.5t-43.5 13q-23 0 -41 -9t-29 -30.5t-11 -59.5v-20l-72 1q1 88 37.5 130.5t119.5 42.5q78 0 109.5 -46.5t31.5 -144.5v-281q0 -15 1 -38.5t2 -44.5t2 -32
h-65q-2 19 -6 42.5t-5 37.5q-12 -35 -42.5 -62t-76.5 -27zM179 53q22 0 40 11t32 26.5t22 31.5v180q-43 -22 -73.5 -40t-49.5 -35t-28 -38.5t-9 -50.5q0 -46 20 -65.5t46 -19.5zM114 694v50h180v-50h-180z" />
    <glyph glyph-name="Abreve" unicode="&#x102;" horiz-adv-x="477" 
d="M27 0l171 810h80l172 -810h-75l-40 217h-193l-41 -217h-74zM153 272h172l-86 437zM238 872q-58 0 -88 31.5t-32 88.5h47q1 -40 20.5 -58t52.5 -18q34 0 53.5 18t21.5 58h46q-1 -57 -31.5 -88.5t-89.5 -31.5z" />
    <glyph glyph-name="abreve" unicode="&#x103;" horiz-adv-x="397" 
d="M156 -9q-35 0 -61 17.5t-40.5 47t-14.5 64.5q0 44 12.5 75t40 55.5t72 48t108.5 52.5v41q0 53 -6.5 83.5t-22 43.5t-43.5 13q-23 0 -41 -9t-29 -30.5t-11 -59.5v-20l-72 1q1 88 37.5 130.5t119.5 42.5q78 0 109.5 -46.5t31.5 -144.5v-281q0 -15 1 -38.5t2 -44.5t2 -32
h-65q-2 19 -6 42.5t-5 37.5q-12 -35 -42.5 -62t-76.5 -27zM179 53q22 0 40 11t32 26.5t22 31.5v180q-43 -22 -73.5 -40t-49.5 -35t-28 -38.5t-9 -50.5q0 -46 20 -65.5t46 -19.5zM203 640q-58 0 -88 31.5t-32 88.5h47q1 -40 20.5 -58t52.5 -18q34 0 53.5 18t21.5 58h46
q-1 -57 -31.5 -88.5t-89.5 -31.5z" />
    <glyph glyph-name="Aogonek" unicode="&#x104;" horiz-adv-x="477" 
d="M27 0l171 810h80l172 -810h-75l-40 217h-193l-41 -217h-74zM153 272h172l-86 437zM423 -212q-24 0 -45 4.5t-37 14t-24.5 25.5t-8.5 38q0 27 13 52t33.5 45.5t44.5 32.5h39q-19 -18 -35.5 -38t-27 -41t-10.5 -42q0 -30 22.5 -41t52.5 -11q6 0 12 0.5t11 1.5l-11 -39
q-5 -1 -13 -1.5t-16 -0.5z" />
    <glyph glyph-name="aogonek" unicode="&#x105;" horiz-adv-x="397" 
d="M156 -9q-35 0 -61 17.5t-40.5 47t-14.5 64.5q0 44 12.5 75t40 55.5t72 48t108.5 52.5v41q0 53 -6.5 83.5t-22 43.5t-43.5 13q-23 0 -41 -9t-29 -30.5t-11 -59.5v-20l-72 1q1 88 37.5 130.5t119.5 42.5q78 0 109.5 -46.5t31.5 -144.5v-281q0 -15 1 -38.5t2 -44.5t2 -32
h-65q-2 19 -6 42.5t-5 37.5q-12 -35 -42.5 -62t-76.5 -27zM179 53q22 0 40 11t32 26.5t22 31.5v180q-43 -22 -73.5 -40t-49.5 -35t-28 -38.5t-9 -50.5q0 -46 20 -65.5t46 -19.5zM326 -212q-24 0 -45 4.5t-37 14t-24.5 25.5t-8.5 38q0 27 13 52t33.5 45.5t44.5 32.5h39
q-19 -18 -35.5 -38t-27 -41t-10.5 -42q0 -30 22.5 -41t52.5 -11q6 0 12 0.5t11 1.5l-11 -39q-5 -1 -13 -1.5t-16 -0.5z" />
    <glyph glyph-name="Cacute" unicode="&#x106;" horiz-adv-x="499" 
d="M259 -10q-82 0 -126.5 34t-61.5 91.5t-17 127.5v322q0 75 17.5 132t62.5 89t125 32q73 0 114.5 -28t59.5 -79.5t18 -122.5v-49h-72v47q0 53 -8.5 91t-34.5 59t-76 21q-55 0 -82.5 -22.5t-37 -63.5t-9.5 -95v-345q0 -60 11.5 -100t39.5 -60t78 -20q51 0 76.5 22t34 61.5
t8.5 92.5v53h72v-48q0 -71 -16.5 -125.5t-58 -85.5t-117.5 -31zM231 858l63 196h73l-98 -196h-38z" />
    <glyph glyph-name="cacute" unicode="&#x107;" horiz-adv-x="389" 
d="M200 -9q-68 0 -101 30t-43.5 81.5t-10.5 116.5v135q0 80 13 131.5t46.5 76.5t95.5 25q61 0 93 -23t43 -65t11 -97v-28h-68v28q0 51 -7.5 79t-25 39.5t-46.5 11.5q-34 0 -52 -16t-24 -52.5t-6 -97.5v-162q0 -87 17 -122.5t66 -35.5q34 0 51 15.5t22 46.5t5 77v32h68v-28
q0 -58 -10.5 -102.5t-42.5 -70t-94 -25.5zM176 626l63 196h73l-98 -196h-38z" />
    <glyph glyph-name="Ccircumflex" unicode="&#x108;" horiz-adv-x="499" 
d="M259 -10q-82 0 -126.5 34t-61.5 91.5t-17 127.5v322q0 75 17.5 132t62.5 89t125 32q73 0 114.5 -28t59.5 -79.5t18 -122.5v-49h-72v47q0 53 -8.5 91t-34.5 59t-76 21q-55 0 -82.5 -22.5t-37 -63.5t-9.5 -95v-345q0 -60 11.5 -100t39.5 -60t78 -20q51 0 76.5 22t34 61.5
t8.5 92.5v53h72v-48q0 -71 -16.5 -125.5t-58 -85.5t-117.5 -31zM123 864l86 178h82l85 -178h-54l-73 141l-72 -141h-54z" />
    <glyph glyph-name="ccircumflex" unicode="&#x109;" horiz-adv-x="389" 
d="M200 -9q-68 0 -101 30t-43.5 81.5t-10.5 116.5v135q0 80 13 131.5t46.5 76.5t95.5 25q61 0 93 -23t43 -65t11 -97v-28h-68v28q0 51 -7.5 79t-25 39.5t-46.5 11.5q-34 0 -52 -16t-24 -52.5t-6 -97.5v-162q0 -87 17 -122.5t66 -35.5q34 0 51 15.5t22 46.5t5 77v32h68v-28
q0 -58 -10.5 -102.5t-42.5 -70t-94 -25.5zM68 632l86 178h82l85 -178h-54l-73 141l-72 -141h-54z" />
    <glyph glyph-name="Cdotaccent" unicode="&#x10a;" horiz-adv-x="499" 
d="M259 -10q-82 0 -126.5 34t-61.5 91.5t-17 127.5v322q0 75 17.5 132t62.5 89t125 32q73 0 114.5 -28t59.5 -79.5t18 -122.5v-49h-72v47q0 53 -8.5 91t-34.5 59t-76 21q-55 0 -82.5 -22.5t-37 -63.5t-9.5 -95v-345q0 -60 11.5 -100t39.5 -60t78 -20q51 0 76.5 22t34 61.5
t8.5 92.5v53h72v-48q0 -71 -16.5 -125.5t-58 -85.5t-117.5 -31zM211 906v110h78v-110h-78z" />
    <glyph glyph-name="cdotaccent" unicode="&#x10b;" horiz-adv-x="389" 
d="M200 -9q-68 0 -101 30t-43.5 81.5t-10.5 116.5v135q0 80 13 131.5t46.5 76.5t95.5 25q61 0 93 -23t43 -65t11 -97v-28h-68v28q0 51 -7.5 79t-25 39.5t-46.5 11.5q-34 0 -52 -16t-24 -52.5t-6 -97.5v-162q0 -87 17 -122.5t66 -35.5q34 0 51 15.5t22 46.5t5 77v32h68v-28
q0 -58 -10.5 -102.5t-42.5 -70t-94 -25.5zM156 674v110h78v-110h-78z" />
    <glyph glyph-name="Ccaron" unicode="&#x10c;" horiz-adv-x="499" 
d="M259 -10q-82 0 -126.5 34t-61.5 91.5t-17 127.5v322q0 75 17.5 132t62.5 89t125 32q73 0 114.5 -28t59.5 -79.5t18 -122.5v-49h-72v47q0 53 -8.5 91t-34.5 59t-76 21q-55 0 -82.5 -22.5t-37 -63.5t-9.5 -95v-345q0 -60 11.5 -100t39.5 -60t78 -20q51 0 76.5 22t34 61.5
t8.5 92.5v53h72v-48q0 -71 -16.5 -125.5t-58 -85.5t-117.5 -31zM217 875l-85 167h59l59 -120l59 120h59l-86 -167h-65z" />
    <glyph glyph-name="ccaron" unicode="&#x10d;" horiz-adv-x="389" 
d="M200 -9q-68 0 -101 30t-43.5 81.5t-10.5 116.5v135q0 80 13 131.5t46.5 76.5t95.5 25q61 0 93 -23t43 -65t11 -97v-28h-68v28q0 51 -7.5 79t-25 39.5t-46.5 11.5q-34 0 -52 -16t-24 -52.5t-6 -97.5v-162q0 -87 17 -122.5t66 -35.5q34 0 51 15.5t22 46.5t5 77v32h68v-28
q0 -58 -10.5 -102.5t-42.5 -70t-94 -25.5zM162 643l-85 167h59l59 -120l59 120h59l-86 -167h-65z" />
    <glyph glyph-name="Dcaron" unicode="&#x10e;" horiz-adv-x="521" 
d="M71 0v810h176q85 0 132.5 -29.5t67.5 -83.5t20 -125v-322q0 -75 -20 -131.5t-66 -87.5t-127 -31h-183zM147 57h102q64 0 94 26.5t38 73t8 105.5v302q0 61 -10.5 102.5t-41 63t-91.5 21.5h-99v-694zM228 875l-85 167h59l59 -120l59 120h59l-86 -167h-65z" />
    <glyph glyph-name="dcaron" unicode="&#x10f;" horiz-adv-x="476" 
d="M184 -9q-74 0 -106.5 56t-32.5 186v107q0 76 11 131t40.5 85.5t84.5 30.5q34 0 59.5 -15.5t42.5 -34.5v273h73v-810h-73v41q-17 -19 -41.5 -34.5t-57.5 -15.5zM199 49q24 0 45.5 11t38.5 27v402q-15 14 -37 27.5t-49 13.5q-48 0 -63.5 -42.5t-15.5 -123.5v-137
q0 -58 6.5 -98t24 -60t50.5 -20zM420 585l-15 32q26 15 37 34.5t11 49.5h-44v109h81v-101q0 -49 -16 -77t-54 -47z" />
    <glyph glyph-name="Dcroat" unicode="&#x110;" horiz-adv-x="522" 
d="M71 0v401h-58v47h58v362h178q84 0 132 -29.5t67.5 -83.5t19.5 -125v-322q0 -75 -19.5 -131.5t-66 -87.5t-127.5 -31h-184zM148 57h102q65 0 94.5 26.5t38 73t8.5 105.5v302q0 61 -10.5 102.5t-41.5 63t-92 21.5h-99v-303h82v-47h-82v-344z" />
    <glyph glyph-name="dcroat" unicode="&#x111;" horiz-adv-x="427" 
d="M184 -9q-74 0 -106.5 56t-32.5 186v107q0 76 11 131t40.5 85.5t84.5 30.5q34 0 59.5 -15.5t42.5 -34.5v149h-95v44h95v80h73v-80h58v-44h-58v-686h-73v41q-17 -19 -41.5 -34.5t-57.5 -15.5zM199 49q24 0 45.5 11t38.5 27v402q-15 14 -37 27.5t-49 13.5q-48 0 -63.5 -42.5
t-15.5 -123.5v-137q0 -58 6.5 -98t24 -60t50.5 -20z" />
    <glyph glyph-name="Emacron" unicode="&#x112;" horiz-adv-x="398" 
d="M70 0v810h293v-59h-216v-304h176v-56h-176v-334h218v-57h-295zM130 926v50h180v-50h-180z" />
    <glyph glyph-name="emacron" unicode="&#x113;" horiz-adv-x="395" 
d="M201 -9q-54 0 -88.5 21.5t-51 71.5t-16.5 133v146q0 86 17 134.5t52 69t88 20.5q61 0 93 -26t44.5 -78.5t12.5 -134.5v-52h-234v-101q0 -56 8.5 -88.5t27 -46.5t47.5 -14q22 0 40 8.5t28.5 33t10.5 69.5v40h71v-32q0 -79 -32.5 -126.5t-117.5 -47.5zM118 338h162v48
q0 46 -5 78.5t-21.5 50t-52.5 17.5q-30 0 -48.5 -13t-26.5 -46.5t-8 -95.5v-39zM108 694v50h180v-50h-180z" />
    <glyph glyph-name="Ebreve" unicode="&#x114;" horiz-adv-x="398" 
d="M70 0v810h293v-59h-216v-304h176v-56h-176v-334h218v-57h-295zM219 872q-58 0 -88 31.5t-32 88.5h47q1 -40 20.5 -58t52.5 -18q34 0 53.5 18t21.5 58h46q-1 -57 -31.5 -88.5t-89.5 -31.5z" />
    <glyph glyph-name="ebreve" unicode="&#x115;" horiz-adv-x="395" 
d="M201 -9q-54 0 -88.5 21.5t-51 71.5t-16.5 133v146q0 86 17 134.5t52 69t88 20.5q61 0 93 -26t44.5 -78.5t12.5 -134.5v-52h-234v-101q0 -56 8.5 -88.5t27 -46.5t47.5 -14q22 0 40 8.5t28.5 33t10.5 69.5v40h71v-32q0 -79 -32.5 -126.5t-117.5 -47.5zM118 338h162v48
q0 46 -5 78.5t-21.5 50t-52.5 17.5q-30 0 -48.5 -13t-26.5 -46.5t-8 -95.5v-39zM197 640q-58 0 -88 31.5t-32 88.5h47q1 -40 20.5 -58t52.5 -18q34 0 53.5 18t21.5 58h46q-1 -57 -31.5 -88.5t-89.5 -31.5z" />
    <glyph glyph-name="Edotaccent" unicode="&#x116;" horiz-adv-x="398" 
d="M70 0v810h293v-59h-216v-304h176v-56h-176v-334h218v-57h-295zM181 906v110h78v-110h-78z" />
    <glyph glyph-name="edotaccent" unicode="&#x117;" horiz-adv-x="395" 
d="M201 -9q-54 0 -88.5 21.5t-51 71.5t-16.5 133v146q0 86 17 134.5t52 69t88 20.5q61 0 93 -26t44.5 -78.5t12.5 -134.5v-52h-234v-101q0 -56 8.5 -88.5t27 -46.5t47.5 -14q22 0 40 8.5t28.5 33t10.5 69.5v40h71v-32q0 -79 -32.5 -126.5t-117.5 -47.5zM118 338h162v48
q0 46 -5 78.5t-21.5 50t-52.5 17.5q-30 0 -48.5 -13t-26.5 -46.5t-8 -95.5v-39zM159 674v110h78v-110h-78z" />
    <glyph glyph-name="Eogonek" unicode="&#x118;" horiz-adv-x="398" 
d="M70 0v810h293v-59h-216v-304h176v-56h-176v-334h218v-57h-295zM320 -212q-24 0 -45 4.5t-37 14t-24.5 25.5t-8.5 38q0 27 13 52t33.5 45.5t44.5 32.5h39q-19 -18 -35.5 -38t-27 -41t-10.5 -42q0 -30 22.5 -41t52.5 -11q6 0 12 0.5t11 1.5l-11 -39q-5 -1 -13 -1.5
t-16 -0.5z" />
    <glyph glyph-name="eogonek" unicode="&#x119;" horiz-adv-x="395" 
d="M201 -9q-54 0 -88.5 21.5t-51 71.5t-16.5 133v146q0 86 17 134.5t52 69t88 20.5q61 0 93 -26t44.5 -78.5t12.5 -134.5v-52h-234v-101q0 -56 8.5 -88.5t27 -46.5t47.5 -14q22 0 40 8.5t28.5 33t10.5 69.5v40h71v-32q0 -79 -32.5 -126.5t-117.5 -47.5zM118 338h162v48
q0 46 -5 78.5t-21.5 50t-52.5 17.5q-30 0 -48.5 -13t-26.5 -46.5t-8 -95.5v-39zM243 -202q-24 0 -45 4.5t-37 14t-24.5 25.5t-8.5 38q0 27 13 52t33.5 45.5t44.5 32.5h39q-19 -18 -35.5 -38t-27 -41t-10.5 -42q0 -30 22.5 -41t52.5 -11q6 0 12 0.5t11 1.5l-11 -39
q-5 -1 -13 -1.5t-16 -0.5z" />
    <glyph glyph-name="Ecaron" unicode="&#x11a;" horiz-adv-x="398" 
d="M70 0v810h293v-59h-216v-304h176v-56h-176v-334h218v-57h-295zM187 875l-85 167h59l59 -120l59 120h59l-86 -167h-65z" />
    <glyph glyph-name="ecaron" unicode="&#x11b;" horiz-adv-x="395" 
d="M201 -9q-54 0 -88.5 21.5t-51 71.5t-16.5 133v146q0 86 17 134.5t52 69t88 20.5q61 0 93 -26t44.5 -78.5t12.5 -134.5v-52h-234v-101q0 -56 8.5 -88.5t27 -46.5t47.5 -14q22 0 40 8.5t28.5 33t10.5 69.5v40h71v-32q0 -79 -32.5 -126.5t-117.5 -47.5zM118 338h162v48
q0 46 -5 78.5t-21.5 50t-52.5 17.5q-30 0 -48.5 -13t-26.5 -46.5t-8 -95.5v-39zM165 643l-85 167h59l59 -120l59 120h59l-86 -167h-65z" />
    <glyph glyph-name="Gcircumflex" unicode="&#x11c;" horiz-adv-x="519" 
d="M254 -11q-77 0 -120.5 32t-61.5 90.5t-18 135.5v316q0 78 17.5 135t62 88.5t125.5 31.5q73 0 115.5 -27t61.5 -79t19 -127v-28h-72v28q0 58 -10.5 96t-36.5 57t-76 19q-56 0 -84 -24t-36.5 -66t-8.5 -96v-333q0 -59 10.5 -100.5t39 -64t80.5 -22.5q51 0 78 22.5t38 64.5
t11 102v95h-120v57h190v-392h-49l-9 92q-15 -46 -49.5 -74.5t-96.5 -28.5zM133 864l86 178h82l85 -178h-54l-73 141l-72 -141h-54z" />
    <glyph glyph-name="gcircumflex" unicode="&#x11d;" horiz-adv-x="431" 
d="M203 -190q-57 0 -99 11t-64.5 34.5t-22.5 59.5q0 29 14 53t36 42.5t45 30.5q-33 9 -48.5 25t-15.5 38q0 30 18.5 54t50.5 51q-40 28 -56.5 72t-16.5 104q0 56 17.5 101.5t53 73t91.5 27.5q51 0 80 -21t44 -51q9 14 31 34.5t47 30.5l15 5l20 -51q-16 -3 -35 -11.5
t-35.5 -18.5t-24.5 -20q7 -18 12.5 -49t5.5 -52q0 -57 -15.5 -103t-50 -72.5t-93.5 -26.5q-15 0 -31.5 3t-27.5 6q-14 -15 -26.5 -32.5t-12.5 -33.5q0 -14 11.5 -21.5t36.5 -10.5l92 -14q70 -10 107.5 -42t37.5 -92q0 -45 -24.5 -75t-67 -44.5t-99.5 -14.5zM206 -131
q58 0 94 17.5t36 56.5q0 20 -8.5 35t-32 25.5t-68.5 17.5l-74 10q-15 -10 -32 -24.5t-29.5 -32.5t-12.5 -41q0 -33 31.5 -48.5t95.5 -15.5zM207 234q32 0 50.5 13.5t28 35.5t13 49t3.5 53t-4 52t-14 48.5t-28.5 36t-48.5 13.5t-49.5 -14t-30 -36.5t-14 -48.5t-3.5 -51
q0 -24 3 -51t13.5 -49.5t30 -36.5t50.5 -14zM89 632l86 178h82l85 -178h-54l-73 141l-72 -141h-54z" />
    <glyph glyph-name="Gbreve" unicode="&#x11e;" horiz-adv-x="519" 
d="M254 -11q-77 0 -120.5 32t-61.5 90.5t-18 135.5v316q0 78 17.5 135t62 88.5t125.5 31.5q73 0 115.5 -27t61.5 -79t19 -127v-28h-72v28q0 58 -10.5 96t-36.5 57t-76 19q-56 0 -84 -24t-36.5 -66t-8.5 -96v-333q0 -59 10.5 -100.5t39 -64t80.5 -22.5q51 0 78 22.5t38 64.5
t11 102v95h-120v57h190v-392h-49l-9 92q-15 -46 -49.5 -74.5t-96.5 -28.5zM259 872q-58 0 -88 31.5t-32 88.5h47q1 -40 20.5 -58t52.5 -18q34 0 53.5 18t21.5 58h46q-1 -57 -31.5 -88.5t-89.5 -31.5z" />
    <glyph glyph-name="gbreve" unicode="&#x11f;" horiz-adv-x="431" 
d="M203 -190q-57 0 -99 11t-64.5 34.5t-22.5 59.5q0 29 14 53t36 42.5t45 30.5q-33 9 -48.5 25t-15.5 38q0 30 18.5 54t50.5 51q-40 28 -56.5 72t-16.5 104q0 56 17.5 101.5t53 73t91.5 27.5q51 0 80 -21t44 -51q9 14 31 34.5t47 30.5l15 5l20 -51q-16 -3 -35 -11.5
t-35.5 -18.5t-24.5 -20q7 -18 12.5 -49t5.5 -52q0 -57 -15.5 -103t-50 -72.5t-93.5 -26.5q-15 0 -31.5 3t-27.5 6q-14 -15 -26.5 -32.5t-12.5 -33.5q0 -14 11.5 -21.5t36.5 -10.5l92 -14q70 -10 107.5 -42t37.5 -92q0 -45 -24.5 -75t-67 -44.5t-99.5 -14.5zM206 -131
q58 0 94 17.5t36 56.5q0 20 -8.5 35t-32 25.5t-68.5 17.5l-74 10q-15 -10 -32 -24.5t-29.5 -32.5t-12.5 -41q0 -33 31.5 -48.5t95.5 -15.5zM207 234q32 0 50.5 13.5t28 35.5t13 49t3.5 53t-4 52t-14 48.5t-28.5 36t-48.5 13.5t-49.5 -14t-30 -36.5t-14 -48.5t-3.5 -51
q0 -24 3 -51t13.5 -49.5t30 -36.5t50.5 -14zM216 640q-58 0 -88 31.5t-32 88.5h47q1 -40 20.5 -58t52.5 -18q34 0 53.5 18t21.5 58h46q-1 -57 -31.5 -88.5t-89.5 -31.5z" />
    <glyph glyph-name="Gdotaccent" unicode="&#x120;" horiz-adv-x="519" 
d="M254 -11q-77 0 -120.5 32t-61.5 90.5t-18 135.5v316q0 78 17.5 135t62 88.5t125.5 31.5q73 0 115.5 -27t61.5 -79t19 -127v-28h-72v28q0 58 -10.5 96t-36.5 57t-76 19q-56 0 -84 -24t-36.5 -66t-8.5 -96v-333q0 -59 10.5 -100.5t39 -64t80.5 -22.5q51 0 78 22.5t38 64.5
t11 102v95h-120v57h190v-392h-49l-9 92q-15 -46 -49.5 -74.5t-96.5 -28.5zM221 906v110h78v-110h-78z" />
    <glyph glyph-name="gdotaccent" unicode="&#x121;" horiz-adv-x="431" 
d="M203 -190q-57 0 -99 11t-64.5 34.5t-22.5 59.5q0 29 14 53t36 42.5t45 30.5q-33 9 -48.5 25t-15.5 38q0 30 18.5 54t50.5 51q-40 28 -56.5 72t-16.5 104q0 56 17.5 101.5t53 73t91.5 27.5q51 0 80 -21t44 -51q9 14 31 34.5t47 30.5l15 5l20 -51q-16 -3 -35 -11.5
t-35.5 -18.5t-24.5 -20q7 -18 12.5 -49t5.5 -52q0 -57 -15.5 -103t-50 -72.5t-93.5 -26.5q-15 0 -31.5 3t-27.5 6q-14 -15 -26.5 -32.5t-12.5 -33.5q0 -14 11.5 -21.5t36.5 -10.5l92 -14q70 -10 107.5 -42t37.5 -92q0 -45 -24.5 -75t-67 -44.5t-99.5 -14.5zM206 -131
q58 0 94 17.5t36 56.5q0 20 -8.5 35t-32 25.5t-68.5 17.5l-74 10q-15 -10 -32 -24.5t-29.5 -32.5t-12.5 -41q0 -33 31.5 -48.5t95.5 -15.5zM207 234q32 0 50.5 13.5t28 35.5t13 49t3.5 53t-4 52t-14 48.5t-28.5 36t-48.5 13.5t-49.5 -14t-30 -36.5t-14 -48.5t-3.5 -51
q0 -24 3 -51t13.5 -49.5t30 -36.5t50.5 -14zM177 674v110h78v-110h-78z" />
    <glyph glyph-name="uni0122" unicode="&#x122;" horiz-adv-x="519" 
d="M254 -11q-77 0 -120.5 32t-61.5 90.5t-18 135.5v316q0 78 17.5 135t62 88.5t125.5 31.5q73 0 115.5 -27t61.5 -79t19 -127v-28h-72v28q0 58 -10.5 96t-36.5 57t-76 19q-56 0 -84 -24t-36.5 -66t-8.5 -96v-333q0 -59 10.5 -100.5t39 -64t80.5 -22.5q51 0 78 22.5t38 64.5
t11 102v95h-120v57h190v-392h-49l-9 92q-15 -46 -49.5 -74.5t-96.5 -28.5zM235 -258l-18 33q28 12 37.5 33.5t9.5 42.5h-43v88h82l-1 -77q0 -49 -13 -78.5t-54 -41.5z" />
    <glyph glyph-name="uni0123" unicode="&#x123;" horiz-adv-x="431" 
d="M203 -190q-57 0 -99 11t-64.5 34.5t-22.5 59.5q0 29 14 53t36 42.5t45 30.5q-33 9 -48.5 25t-15.5 38q0 30 18.5 54t50.5 51q-40 28 -56.5 72t-16.5 104q0 56 17.5 101.5t53 73t91.5 27.5q51 0 80 -21t44 -51q9 14 31 34.5t47 30.5l15 5l20 -51q-16 -3 -35 -11.5
t-35.5 -18.5t-24.5 -20q7 -18 12.5 -49t5.5 -52q0 -57 -15.5 -103t-50 -72.5t-93.5 -26.5q-15 0 -31.5 3t-27.5 6q-14 -15 -26.5 -32.5t-12.5 -33.5q0 -14 11.5 -21.5t36.5 -10.5l92 -14q70 -10 107.5 -42t37.5 -92q0 -45 -24.5 -75t-67 -44.5t-99.5 -14.5zM206 -131
q58 0 94 17.5t36 56.5q0 20 -8.5 35t-32 25.5t-68.5 17.5l-74 10q-15 -10 -32 -24.5t-29.5 -32.5t-12.5 -41q0 -33 31.5 -48.5t95.5 -15.5zM207 234q32 0 50.5 13.5t28 35.5t13 49t3.5 53t-4 52t-14 48.5t-28.5 36t-48.5 13.5t-49.5 -14t-30 -36.5t-14 -48.5t-3.5 -51
q0 -24 3 -51t13.5 -49.5t30 -36.5t50.5 -14zM241 837l18 -33q-28 -12 -37.5 -33.5t-9.5 -42.5h43v-88h-82l1 77q0 49 13 78.5t54 41.5z" />
    <glyph glyph-name="Hcircumflex" unicode="&#x124;" horiz-adv-x="549" 
d="M70 0v810h77v-359h255v359h76v-810h-76v394h-255v-394h-77zM148 864l86 178h82l85 -178h-54l-73 141l-72 -141h-54z" />
    <glyph glyph-name="hcircumflex" unicode="&#x125;" horiz-adv-x="412" 
d="M57 0v810h73v-293q29 31 64 50.5t77 19.5q29 0 48.5 -14.5t30 -42t10.5 -66.5v-464h-74v448q0 45 -13.5 63.5t-41.5 18.5q-25 0 -51.5 -15.5t-49.5 -39.5v-475h-73zM-33 864l86 178h82l85 -178h-54l-73 141l-72 -141h-54z" />
    <glyph glyph-name="Hbar" unicode="&#x126;" horiz-adv-x="549" 
d="M70 0v632h-41v42h41v136h77v-136h255v136h76v-136h42v-42h-42v-632h-76v394h-255v-394h-77zM147 451h255v181h-255v-181z" />
    <glyph glyph-name="hbar" unicode="&#x127;" horiz-adv-x="411" 
d="M57 0v697h-65v44h65v69h73v-69h120v-44h-120v-180q28 31 63.5 50.5t76.5 19.5q29 0 49 -14.5t30 -42t10 -66.5v-464h-73v448q0 45 -13.5 63.5t-41.5 18.5q-25 0 -51.5 -15.5t-49.5 -39.5v-475h-73z" />
    <glyph glyph-name="Itilde" unicode="&#x128;" horiz-adv-x="222" 
d="M73 0v810h76v-810h-76zM172 924q-24 0 -43 12t-35.5 24t-34.5 12q-16 0 -24.5 -10t-8.5 -30h-45q0 17 5.5 37.5t20.5 35.5t43 15q24 0 43 -11.5t36 -23.5t35 -12q17 0 25 9.5t8 33.5h44q0 -18 -4.5 -39.5t-19.5 -37t-45 -15.5z" />
    <glyph glyph-name="itilde" unicode="&#x129;" horiz-adv-x="198" 
d="M64 0v578h73v-578h-73zM162 692q-24 0 -43 12t-35.5 24t-34.5 12q-16 0 -24.5 -10t-8.5 -30h-45q0 17 5.5 37.5t20.5 35.5t43 15q24 0 43 -11.5t36 -23.5t35 -12q17 0 25 9.5t8 33.5h44q0 -18 -4.5 -39.5t-19.5 -37t-45 -15.5z" />
    <glyph glyph-name="Imacron" unicode="&#x12a;" horiz-adv-x="222" 
d="M73 0v810h76v-810h-76zM21 926v50h180v-50h-180z" />
    <glyph glyph-name="imacron" unicode="&#x12b;" horiz-adv-x="198" 
d="M64 0v578h73v-578h-73zM11 694v50h180v-50h-180z" />
    <glyph glyph-name="Ibreve" unicode="&#x12c;" horiz-adv-x="222" 
d="M73 0v810h76v-810h-76zM110 872q-58 0 -88 31.5t-32 88.5h47q1 -40 20.5 -58t52.5 -18q34 0 53.5 18t21.5 58h46q-1 -57 -31.5 -88.5t-89.5 -31.5z" />
    <glyph glyph-name="ibreve" unicode="&#x12d;" horiz-adv-x="198" 
d="M64 0v578h73v-578h-73zM100 640q-58 0 -88 31.5t-32 88.5h47q1 -40 20.5 -58t52.5 -18q34 0 53.5 18t21.5 58h46q-1 -57 -31.5 -88.5t-89.5 -31.5z" />
    <glyph glyph-name="Iogonek" unicode="&#x12e;" horiz-adv-x="222" 
d="M73 0v810h76v-810h-76zM116 -212q-24 0 -45 4.5t-37 14t-24.5 25.5t-8.5 38q0 27 13 52t33.5 45.5t44.5 32.5h39q-19 -18 -35.5 -38t-27 -41t-10.5 -42q0 -30 22.5 -41t52.5 -11q6 0 12 0.5t11 1.5l-11 -39q-5 -1 -13 -1.5t-16 -0.5z" />
    <glyph glyph-name="iogonek" unicode="&#x12f;" horiz-adv-x="204" 
d="M64 0v578h73v-578h-73zM64 658v99h73v-99h-73zM106 -212q-24 0 -45 4.5t-37 14t-24.5 25.5t-8.5 38q0 27 13 52t33.5 45.5t44.5 32.5h39q-19 -18 -35.5 -38t-27 -41t-10.5 -42q0 -30 22.5 -41t52.5 -11q6 0 12 0.5t11 1.5l-11 -39q-5 -1 -13 -1.5t-16 -0.5z" />
    <glyph glyph-name="Idotaccent" unicode="&#x130;" horiz-adv-x="222" 
d="M73 0v810h76v-810h-76zM72 906v110h78v-110h-78z" />
    <glyph glyph-name="dotlessi" unicode="&#x131;" horiz-adv-x="198" 
d="M64 0v578h73v-578h-73z" />
    <glyph glyph-name="IJ" unicode="&#x132;" horiz-adv-x="500" 
d="M73 0v810h76v-810h-76zM230 -35v57q42 0 66.5 5.5t37 20.5t16.5 43t4 72v647h76v-651q0 -67 -12 -110t-47 -63.5t-104 -20.5h-37z" />
    <glyph glyph-name="ij" unicode="&#x133;" horiz-adv-x="417" 
d="M64 0v578h73v-578h-73zM64 658v99h73v-99h-73zM226 -152q-7 0 -20 1t-19 3v56q3 -1 12.5 -1.5t12.5 -0.5q31 0 45.5 11.5t19 30t4.5 38.5v592h73v-598q0 -69 -34 -100.5t-94 -31.5zM281 658v99h73v-99h-73z" />
    <glyph glyph-name="Jcircumflex" unicode="&#x134;" horiz-adv-x="279" 
d="M8 -35v57q42 0 66.5 5.5t37 20.5t16.5 43t4 72v647h76v-651q0 -67 -12 -110t-47 -63.5t-104 -20.5h-37zM43 864l86 178h82l85 -178h-54l-73 141l-72 -141h-54z" />
    <glyph glyph-name="jcircumflex" unicode="&#x135;" horiz-adv-x="213" 
d="M22 -152q-7 0 -20 1t-19 3v56q3 -1 12.5 -1.5t12.5 -0.5q31 0 45.5 11.5t19 30t4.5 38.5v592h73v-598q0 -69 -34 -100.5t-94 -31.5zM-13 632l86 178h82l85 -178h-54l-73 141l-72 -141h-54z" />
    <glyph glyph-name="uni0136" unicode="&#x136;" horiz-adv-x="473" 
d="M70 0v810h77v-428l216 428h73l-166 -348l202 -462h-75l-178 405l-72 -132v-273h-77zM212 -258l-18 33q28 12 37.5 33.5t9.5 42.5h-43v88h82l-1 -77q0 -49 -13 -78.5t-54 -41.5z" />
    <glyph glyph-name="uni0137" unicode="&#x137;" horiz-adv-x="400" 
d="M57 0v810h73v-514l193 282h77l-146 -223l140 -355h-74l-122 314l-68 -95v-219h-73zM176 -258l-18 33q28 12 37.5 33.5t9.5 42.5h-43v88h82l-1 -77q0 -49 -13 -78.5t-54 -41.5z" />
    <glyph glyph-name="kgreenlandic" unicode="&#x138;" horiz-adv-x="418" 
d="M62 0v578h73v-284l183 284h76l-142 -224l144 -354h-74l-121 304l-66 -95v-209h-73z" />
    <glyph glyph-name="Lacute" unicode="&#x139;" horiz-adv-x="382" 
d="M71 0v810h76v-753h230v-57h-306zM90 858l63 196h73l-98 -196h-38z" />
    <glyph glyph-name="lacute" unicode="&#x13a;" horiz-adv-x="202" 
d="M66 0v810h73v-810h-73zM84 858l63 196h73l-98 -196h-38z" />
    <glyph glyph-name="uni013B" unicode="&#x13b;" horiz-adv-x="382" 
d="M71 0v810h76v-753h230v-57h-306zM199 -258l-18 33q28 12 37.5 33.5t9.5 42.5h-43v88h82l-1 -77q0 -49 -13 -78.5t-54 -41.5z" />
    <glyph glyph-name="uni013C" unicode="&#x13c;" horiz-adv-x="202" 
d="M66 0v810h73v-810h-73zM78 -258l-18 33q28 12 37.5 33.5t9.5 42.5h-43v88h82l-1 -77q0 -49 -13 -78.5t-54 -41.5z" />
    <glyph glyph-name="Lcaron" unicode="&#x13d;" horiz-adv-x="382" 
d="M71 0v810h76v-753h230v-57h-306zM307 585l-15 32q26 15 37 34.5t11 49.5h-44v109h81v-101q0 -49 -16 -77t-54 -47z" />
    <glyph glyph-name="lcaron" unicode="&#x13e;" horiz-adv-x="259" 
d="M66 0v810h73v-810h-73zM203 585l-15 32q26 15 37 34.5t11 49.5h-44v109h81v-101q0 -49 -16 -77t-54 -47z" />
    <glyph glyph-name="Ldot" unicode="&#x13f;" horiz-adv-x="382" 
d="M71 0v810h76v-753h230v-57h-306zM270 386v88h59v-88h-59z" />
    <glyph glyph-name="ldot" unicode="&#x140;" horiz-adv-x="243" 
d="M66 0v810h73v-810h-73zM195 396v88h59v-88h-59z" />
    <glyph glyph-name="Lslash" unicode="&#x141;" horiz-adv-x="382" 
d="M71 0v396l-71 -37v60l71 38v353h76v-312l115 61v-60l-115 -61v-381h230v-57h-306z" />
    <glyph glyph-name="lslash" unicode="&#x142;" horiz-adv-x="255" 
d="M93 0v444l-65 -34v61l65 32v307h73v-271l60 32v-60l-60 -32v-479h-73z" />
    <glyph glyph-name="Nacute" unicode="&#x143;" horiz-adv-x="520" 
d="M71 0v810h55l258 -629v629h66v-810h-54l-259 636v-636h-66zM241 858l63 196h73l-98 -196h-38z" />
    <glyph glyph-name="nacute" unicode="&#x144;" horiz-adv-x="409" 
d="M56 0v578h73v-60q28 30 63 49.5t76 19.5q29 0 49 -14.5t30 -42t10 -66.5v-464h-73v448q0 45 -13.5 63.5t-41.5 18.5q-25 0 -51 -15t-49 -39v-476h-73zM186 626l63 196h73l-98 -196h-38z" />
    <glyph glyph-name="uni0145" unicode="&#x145;" horiz-adv-x="520" 
d="M71 0v810h55l258 -629v629h66v-810h-54l-259 636v-636h-66zM235 -258l-18 33q28 12 37.5 33.5t9.5 42.5h-43v88h82l-1 -77q0 -49 -13 -78.5t-54 -41.5z" />
    <glyph glyph-name="uni0146" unicode="&#x146;" horiz-adv-x="409" 
d="M56 0v578h73v-60q28 30 63 49.5t76 19.5q29 0 49 -14.5t30 -42t10 -66.5v-464h-73v448q0 45 -13.5 63.5t-41.5 18.5q-25 0 -51 -15t-49 -39v-476h-73zM180 -258l-18 33q28 12 37.5 33.5t9.5 42.5h-43v88h82l-1 -77q0 -49 -13 -78.5t-54 -41.5z" />
    <glyph glyph-name="Ncaron" unicode="&#x147;" horiz-adv-x="520" 
d="M71 0v810h55l258 -629v629h66v-810h-54l-259 636v-636h-66zM228 875l-85 167h59l59 -120l59 120h59l-86 -167h-65z" />
    <glyph glyph-name="ncaron" unicode="&#x148;" horiz-adv-x="409" 
d="M56 0v578h73v-60q28 30 63 49.5t76 19.5q29 0 49 -14.5t30 -42t10 -66.5v-464h-73v448q0 45 -13.5 63.5t-41.5 18.5q-25 0 -51 -15t-49 -39v-476h-73zM172 643l-85 167h59l59 -120l59 120h59l-86 -167h-65z" />
    <glyph glyph-name="napostrophe" unicode="&#x149;" horiz-adv-x="465" 
d="M29 608l-16 32q27 15 37.5 34.5t10.5 49.5h-43v109h81v-101q0 -49 -16 -77t-54 -47zM118 0v578h73v-60q28 30 63 49.5t76 19.5q29 0 49 -14.5t30 -42t10 -66.5v-464h-73v448q0 45 -13.5 63.5t-41.5 18.5q-25 0 -51 -15t-49 -39v-476h-73z" />
    <glyph glyph-name="Eng" unicode="&#x14a;" horiz-adv-x="535" 
d="M279 -157v53q47 0 70 9t30 31t7 59v28l-253 613v-636h-62v810h55l262 -629v629h62v-810q0 -51 -11.5 -86t-41 -53t-85.5 -18h-33z" />
    <glyph glyph-name="eng" unicode="&#x14b;" horiz-adv-x="388" 
d="M160 -166v57q50 0 75 12.5t34 35.5t9 56v453q0 45 -13.5 63.5t-41.5 18.5q-25 0 -50.5 -15t-48.5 -39v-476h-74v578h74v-60q28 30 62.5 49.5t75.5 19.5q29 0 49 -14.5t30.5 -42t10.5 -66.5v-470q0 -59 -23 -94.5t-62 -50.5t-87 -15h-20z" />
    <glyph glyph-name="Omacron" unicode="&#x14c;" horiz-adv-x="525" 
d="M263 -10q-81 0 -126.5 31.5t-64 88t-18.5 129.5v336q0 74 19.5 128.5t65 84.5t124.5 30q78 0 123.5 -30t64.5 -84.5t19 -128.5v-337q0 -73 -18.5 -128.5t-63.5 -87.5t-125 -32zM263 51q53 0 81 21.5t38.5 60t10.5 89.5v367q0 51 -10.5 89t-38.5 58.5t-81 20.5
q-54 0 -82.5 -20.5t-39 -58.5t-10.5 -89v-367q0 -51 10.5 -89.5t39 -60t82.5 -21.5zM173 926v50h180v-50h-180z" />
    <glyph glyph-name="omacron" unicode="&#x14d;" horiz-adv-x="399" 
d="M199 -9q-59 0 -92.5 25.5t-47.5 74t-14 118.5v160q0 70 14 118.5t47.5 74t92.5 25.5q61 0 94 -25.5t47 -74t14 -118.5v-160q0 -70 -14 -118.5t-47 -74t-94 -25.5zM199 46q38 0 55.5 20t21.5 56.5t4 82.5v168q0 47 -4 82.5t-21.5 56t-55.5 20.5t-55 -20.5t-21 -56
t-4 -82.5v-168q0 -46 4 -82.5t21 -56.5t55 -20zM110 694v50h180v-50h-180z" />
    <glyph glyph-name="Obreve" unicode="&#x14e;" horiz-adv-x="525" 
d="M263 -10q-81 0 -126.5 31.5t-64 88t-18.5 129.5v336q0 74 19.5 128.5t65 84.5t124.5 30q78 0 123.5 -30t64.5 -84.5t19 -128.5v-337q0 -73 -18.5 -128.5t-63.5 -87.5t-125 -32zM263 51q53 0 81 21.5t38.5 60t10.5 89.5v367q0 51 -10.5 89t-38.5 58.5t-81 20.5
q-54 0 -82.5 -20.5t-39 -58.5t-10.5 -89v-367q0 -51 10.5 -89.5t39 -60t82.5 -21.5zM262 872q-58 0 -88 31.5t-32 88.5h47q1 -40 20.5 -58t52.5 -18q34 0 53.5 18t21.5 58h46q-1 -57 -31.5 -88.5t-89.5 -31.5z" />
    <glyph glyph-name="obreve" unicode="&#x14f;" horiz-adv-x="399" 
d="M199 -9q-59 0 -92.5 25.5t-47.5 74t-14 118.5v160q0 70 14 118.5t47.5 74t92.5 25.5q61 0 94 -25.5t47 -74t14 -118.5v-160q0 -70 -14 -118.5t-47 -74t-94 -25.5zM199 46q38 0 55.5 20t21.5 56.5t4 82.5v168q0 47 -4 82.5t-21.5 56t-55.5 20.5t-55 -20.5t-21 -56
t-4 -82.5v-168q0 -46 4 -82.5t21 -56.5t55 -20zM199 640q-58 0 -88 31.5t-32 88.5h47q1 -40 20.5 -58t52.5 -18q34 0 53.5 18t21.5 58h46q-1 -57 -31.5 -88.5t-89.5 -31.5z" />
    <glyph glyph-name="Ohungarumlaut" unicode="&#x150;" horiz-adv-x="525" 
d="M263 -10q-81 0 -126.5 31.5t-64 88t-18.5 129.5v336q0 74 19.5 128.5t65 84.5t124.5 30q78 0 123.5 -30t64.5 -84.5t19 -128.5v-337q0 -73 -18.5 -128.5t-63.5 -87.5t-125 -32zM263 51q53 0 81 21.5t38.5 60t10.5 89.5v367q0 51 -10.5 89t-38.5 58.5t-81 20.5
q-54 0 -82.5 -20.5t-39 -58.5t-10.5 -89v-367q0 -51 10.5 -89.5t39 -60t82.5 -21.5zM301 889l55 160h79l-94 -160h-40zM198 889l39 160h66l-66 -160h-39z" />
    <glyph glyph-name="ohungarumlaut" unicode="&#x151;" horiz-adv-x="399" 
d="M199 -9q-59 0 -92.5 25.5t-47.5 74t-14 118.5v160q0 70 14 118.5t47.5 74t92.5 25.5q61 0 94 -25.5t47 -74t14 -118.5v-160q0 -70 -14 -118.5t-47 -74t-94 -25.5zM199 46q38 0 55.5 20t21.5 56.5t4 82.5v168q0 47 -4 82.5t-21.5 56t-55.5 20.5t-55 -20.5t-21 -56
t-4 -82.5v-168q0 -46 4 -82.5t21 -56.5t55 -20zM238 657l55 160h79l-94 -160h-40zM135 657l39 160h66l-66 -160h-39z" />
    <glyph glyph-name="OE" unicode="&#x152;" horiz-adv-x="644" 
d="M275 0q-84 0 -132.5 29t-68.5 82t-20 125v329q0 76 20.5 131t68 84.5t127.5 29.5h343v-60h-196v-300h163v-57h-163v-334h198v-59h-340zM276 60h64v692h-65q-62 0 -93 -23.5t-41 -67.5t-10 -105v-316q0 -58 11 -98t42.5 -61t91.5 -21z" />
    <glyph glyph-name="oe" unicode="&#x153;" horiz-adv-x="649" 
d="M207 -9q-60 0 -93.5 25t-47 73.5t-13.5 117.5v164q0 69 13.5 117t46.5 73.5t92 25.5q32 0 56.5 -10t40 -28t24.5 -43q11 30 29.5 47.5t43 25.5t53.5 8q57 0 89 -25t44.5 -77t12.5 -133v-53h-236v-64q0 -60 7.5 -101.5t27 -62t53.5 -20.5q37 0 56 24t19 80v42h73v-41
q0 -79 -33 -122t-110 -43q-46 0 -80 20.5t-49 64.5q-12 -41 -41.5 -63t-77.5 -22zM207 51q38 0 55 20t22 55t5 81v164q0 47 -5 82t-22 55t-55 20t-55 -20t-21.5 -55t-4.5 -82v-164q0 -46 4.5 -81t21.5 -55t55 -20zM362 338h163v34q0 43 -4.5 78.5t-21 56.5t-54.5 21
q-31 0 -49 -16.5t-26 -50.5t-8 -86v-37z" />
    <glyph glyph-name="Racute" unicode="&#x154;" horiz-adv-x="512" 
d="M71 0v810h183q76 0 119.5 -24.5t62.5 -71t19 -110.5q0 -45 -10 -85t-34 -68t-68 -37l124 -414h-74l-119 398h-127v-398h-76zM147 454h103q51 0 79 17t40 50t12 83q0 75 -26 112t-103 37h-105v-299zM237 858l63 196h73l-98 -196h-38z" />
    <glyph glyph-name="racute" unicode="&#x155;" horiz-adv-x="297" 
d="M61 0v578h74v-79q28 46 64 65.5t69 19.5h6t7 -1v-78q-7 3 -17 4.5t-19 1.5q-34 0 -61.5 -16t-48.5 -51v-444h-74zM151 626l63 196h73l-98 -196h-38z" />
    <glyph glyph-name="uni0156" unicode="&#x156;" horiz-adv-x="512" 
d="M71 0v810h183q76 0 119.5 -24.5t62.5 -71t19 -110.5q0 -45 -10 -85t-34 -68t-68 -37l124 -414h-74l-119 398h-127v-398h-76zM147 454h103q51 0 79 17t40 50t12 83q0 75 -26 112t-103 37h-105v-299zM231 -258l-18 33q28 12 37.5 33.5t9.5 42.5h-43v88h82l-1 -77
q0 -49 -13 -78.5t-54 -41.5z" />
    <glyph glyph-name="uni0157" unicode="&#x157;" horiz-adv-x="297" 
d="M61 0v578h74v-79q28 46 64 65.5t69 19.5h6t7 -1v-78q-7 3 -17 4.5t-19 1.5q-34 0 -61.5 -16t-48.5 -51v-444h-74zM74 -258l-18 33q28 12 37.5 33.5t9.5 42.5h-43v88h82l-1 -77q0 -49 -13 -78.5t-54 -41.5z" />
    <glyph glyph-name="Rcaron" unicode="&#x158;" horiz-adv-x="512" 
d="M71 0v810h183q76 0 119.5 -24.5t62.5 -71t19 -110.5q0 -45 -10 -85t-34 -68t-68 -37l124 -414h-74l-119 398h-127v-398h-76zM147 454h103q51 0 79 17t40 50t12 83q0 75 -26 112t-103 37h-105v-299zM224 875l-85 167h59l59 -120l59 120h59l-86 -167h-65z" />
    <glyph glyph-name="rcaron" unicode="&#x159;" horiz-adv-x="297" 
d="M61 0v578h74v-79q28 46 64 65.5t69 19.5h6t7 -1v-78q-7 3 -17 4.5t-19 1.5q-34 0 -61.5 -16t-48.5 -51v-444h-74zM138 643l-85 167h59l59 -120l59 120h59l-86 -167h-65z" />
    <glyph glyph-name="Sacute" unicode="&#x15a;" horiz-adv-x="460" 
d="M243 -10q-66 0 -109.5 27.5t-65.5 77t-27 115.5l67 20q5 -50 18 -90.5t41 -64t77 -23.5q54 0 84 28t30 89q0 54 -26.5 93t-72.5 82l-143 137q-38 37 -56 76.5t-18 86.5q0 84 50 129t133 45q43 0 77.5 -11t59 -35.5t38.5 -63.5t19 -95l-65 -17q-4 51 -16.5 87.5t-39 55.5
t-73.5 19q-50 0 -82 -26t-32 -81q0 -33 12.5 -60t44.5 -58l143 -135q48 -45 83 -100t35 -124q0 -61 -23.5 -102t-65.5 -61.5t-97 -20.5zM211 858l63 196h73l-98 -196h-38z" />
    <glyph glyph-name="sacute" unicode="&#x15b;" horiz-adv-x="363" 
d="M188 -9q-69 0 -110 44.5t-47 119.5l61 19q6 -67 31 -97.5t70 -30.5q38 0 58.5 21.5t20.5 60.5q0 28 -17 56.5t-53 59.5l-79 68q-39 33 -59 66t-20 79q0 42 17.5 70.5t48.5 44t72 15.5q66 0 100 -42.5t37 -109.5l-52 -17q-2 39 -12 64.5t-27.5 37.5t-42.5 12
q-33 0 -53.5 -18.5t-20.5 -51.5q0 -26 10 -46t37 -45l82 -73q24 -21 46 -45t36 -53.5t14 -69.5q0 -45 -18.5 -75.5t-51.5 -47t-78 -16.5zM162 626l63 196h73l-98 -196h-38z" />
    <glyph glyph-name="Scircumflex" unicode="&#x15c;" horiz-adv-x="460" 
d="M243 -10q-66 0 -109.5 27.5t-65.5 77t-27 115.5l67 20q5 -50 18 -90.5t41 -64t77 -23.5q54 0 84 28t30 89q0 54 -26.5 93t-72.5 82l-143 137q-38 37 -56 76.5t-18 86.5q0 84 50 129t133 45q43 0 77.5 -11t59 -35.5t38.5 -63.5t19 -95l-65 -17q-4 51 -16.5 87.5t-39 55.5
t-73.5 19q-50 0 -82 -26t-32 -81q0 -33 12.5 -60t44.5 -58l143 -135q48 -45 83 -100t35 -124q0 -61 -23.5 -102t-65.5 -61.5t-97 -20.5zM103 864l86 178h82l85 -178h-54l-73 141l-72 -141h-54z" />
    <glyph glyph-name="scircumflex" unicode="&#x15d;" horiz-adv-x="363" 
d="M188 -9q-69 0 -110 44.5t-47 119.5l61 19q6 -67 31 -97.5t70 -30.5q38 0 58.5 21.5t20.5 60.5q0 28 -17 56.5t-53 59.5l-79 68q-39 33 -59 66t-20 79q0 42 17.5 70.5t48.5 44t72 15.5q66 0 100 -42.5t37 -109.5l-52 -17q-2 39 -12 64.5t-27.5 37.5t-42.5 12
q-33 0 -53.5 -18.5t-20.5 -51.5q0 -26 10 -46t37 -45l82 -73q24 -21 46 -45t36 -53.5t14 -69.5q0 -45 -18.5 -75.5t-51.5 -47t-78 -16.5zM55 632l86 178h82l85 -178h-54l-73 141l-72 -141h-54z" />
    <glyph glyph-name="Scedilla" unicode="&#x15e;" horiz-adv-x="460" 
d="M243 -10q-66 0 -109.5 27.5t-65.5 77t-27 115.5l67 20q5 -50 18 -90.5t41 -64t77 -23.5q54 0 84 28t30 89q0 54 -26.5 93t-72.5 82l-143 137q-38 37 -56 76.5t-18 86.5q0 84 50 129t133 45q43 0 77.5 -11t59 -35.5t38.5 -63.5t19 -95l-65 -17q-4 51 -16.5 87.5t-39 55.5
t-73.5 19q-50 0 -82 -26t-32 -81q0 -33 12.5 -60t44.5 -58l143 -135q48 -45 83 -100t35 -124q0 -61 -23.5 -102t-65.5 -61.5t-97 -20.5zM230 -204q-10 0 -21 1.5t-22 3.5v38q8 -2 16.5 -3t16.5 -1q31 0 48 9.5t17 31.5q0 16 -8.5 26t-25 16.5t-40.5 9.5v72h38v-50
q46 -2 69 -22t23 -53q0 -26 -13.5 -44t-38.5 -26.5t-59 -8.5z" />
    <glyph glyph-name="scedilla" unicode="&#x15f;" horiz-adv-x="363" 
d="M188 -9q-69 0 -110 44.5t-47 119.5l61 19q6 -67 31 -97.5t70 -30.5q38 0 58.5 21.5t20.5 60.5q0 28 -17 56.5t-53 59.5l-79 68q-39 33 -59 66t-20 79q0 42 17.5 70.5t48.5 44t72 15.5q66 0 100 -42.5t37 -109.5l-52 -17q-2 39 -12 64.5t-27.5 37.5t-42.5 12
q-33 0 -53.5 -18.5t-20.5 -51.5q0 -26 10 -46t37 -45l82 -73q24 -21 46 -45t36 -53.5t14 -69.5q0 -45 -18.5 -75.5t-51.5 -47t-78 -16.5zM181 -204q-10 0 -21 1.5t-22 3.5v38q8 -2 16.5 -3t16.5 -1q31 0 48 9.5t17 31.5q0 16 -8.5 26t-25 16.5t-40.5 9.5v72h38v-50
q46 -2 69 -22t23 -53q0 -26 -13.5 -44t-38.5 -26.5t-59 -8.5z" />
    <glyph glyph-name="Scaron" unicode="&#x160;" horiz-adv-x="460" 
d="M243 -10q-66 0 -109.5 27.5t-65.5 77t-27 115.5l67 20q5 -50 18 -90.5t41 -64t77 -23.5q54 0 84 28t30 89q0 54 -26.5 93t-72.5 82l-143 137q-38 37 -56 76.5t-18 86.5q0 84 50 129t133 45q43 0 77.5 -11t59 -35.5t38.5 -63.5t19 -95l-65 -17q-4 51 -16.5 87.5t-39 55.5
t-73.5 19q-50 0 -82 -26t-32 -81q0 -33 12.5 -60t44.5 -58l143 -135q48 -45 83 -100t35 -124q0 -61 -23.5 -102t-65.5 -61.5t-97 -20.5zM197 875l-85 167h59l59 -120l59 120h59l-86 -167h-65z" />
    <glyph glyph-name="scaron" unicode="&#x161;" horiz-adv-x="363" 
d="M188 -9q-69 0 -110 44.5t-47 119.5l61 19q6 -67 31 -97.5t70 -30.5q38 0 58.5 21.5t20.5 60.5q0 28 -17 56.5t-53 59.5l-79 68q-39 33 -59 66t-20 79q0 42 17.5 70.5t48.5 44t72 15.5q66 0 100 -42.5t37 -109.5l-52 -17q-2 39 -12 64.5t-27.5 37.5t-42.5 12
q-33 0 -53.5 -18.5t-20.5 -51.5q0 -26 10 -46t37 -45l82 -73q24 -21 46 -45t36 -53.5t14 -69.5q0 -45 -18.5 -75.5t-51.5 -47t-78 -16.5zM149 643l-85 167h59l59 -120l59 120h59l-86 -167h-65z" />
    <glyph glyph-name="uni0162" unicode="&#x162;" horiz-adv-x="409" 
d="M171 0v751h-153v59h378v-59h-149v-751h-76zM204 -204q-10 0 -21 1.5t-22 3.5v38q8 -2 16.5 -3t16.5 -1q31 0 48 9.5t17 31.5q0 16 -8.5 26t-25 16.5t-40.5 9.5v72h38v-50q46 -2 69 -22t23 -53q0 -26 -13.5 -44t-38.5 -26.5t-59 -8.5z" />
    <glyph glyph-name="uni0163" unicode="&#x163;" horiz-adv-x="280" 
d="M193 -7q-42 0 -64.5 16.5t-31 45t-8.5 65.5v410h-71v48h71v179h73v-179h96v-48h-96v-403q0 -42 9.5 -59.5t41.5 -17.5q9 0 20.5 1.5t21.5 3.5v-56q-15 -3 -31 -4.5t-31 -1.5zM193 -204q-10 0 -21 1.5t-22 3.5v38q8 -2 16.5 -3t16.5 -1q31 0 48 9.5t17 31.5q0 16 -8.5 26
t-25 16.5t-40.5 9.5v72h38v-50q46 -2 69 -22t23 -53q0 -26 -13.5 -44t-38.5 -26.5t-59 -8.5z" />
    <glyph glyph-name="Tcaron" unicode="&#x164;" horiz-adv-x="409" 
d="M171 0v751h-153v59h378v-59h-149v-751h-76zM172 875l-85 167h59l59 -120l59 120h59l-86 -167h-65z" />
    <glyph glyph-name="tcaron" unicode="&#x165;" horiz-adv-x="274" 
d="M193 -7q-42 0 -64.5 16.5t-31 45t-8.5 65.5v410h-71v48h71v179h73v-179h96v-48h-96v-403q0 -42 9.5 -59.5t41.5 -17.5q9 0 20.5 1.5t21.5 3.5v-56q-15 -3 -31 -4.5t-31 -1.5zM214 618l-15 32q26 15 37 34.5t11 49.5h-44v109h81v-101q0 -49 -16 -77t-54 -47z" />
    <glyph glyph-name="Tbar" unicode="&#x166;" horiz-adv-x="388" 
d="M42 407v47h302v-47h-302zM171 0v751h-153v59h378v-59h-149v-751h-76z" />
    <glyph glyph-name="tbar" unicode="&#x167;" horiz-adv-x="244" 
d="M28 354v41h226v-41h-226zM193 -7q-42 0 -64.5 16.5t-31 45t-8.5 65.5v410h-71v48h71v179h73v-179h96v-48h-96v-403q0 -42 9.5 -59.5t41.5 -17.5q9 0 20.5 1.5t21.5 3.5v-56q-15 -3 -31 -4.5t-31 -1.5z" />
    <glyph glyph-name="Utilde" unicode="&#x168;" horiz-adv-x="537" 
d="M269 -10q-82 0 -127.5 29.5t-62.5 82t-17 119.5v589h74v-591q0 -47 10.5 -85.5t39.5 -60.5t83 -22q52 0 81 22.5t40.5 60.5t11.5 85v591h73v-589q0 -67 -18 -119.5t-63 -82t-125 -29.5zM330 924q-24 0 -43 12t-35.5 24t-34.5 12q-16 0 -24.5 -10t-8.5 -30h-45
q0 17 5.5 37.5t20.5 35.5t43 15q24 0 43 -11.5t36 -23.5t35 -12q17 0 25 9.5t8 33.5h44q0 -18 -4.5 -39.5t-19.5 -37t-45 -15.5z" />
    <glyph glyph-name="utilde" unicode="&#x169;" horiz-adv-x="412" 
d="M141 -9q-29 0 -49 15t-30.5 42t-10.5 66v464h74v-448q0 -45 13.5 -63t41.5 -18q26 0 52.5 16t49.5 41v472h73v-578h-73v64q-28 -32 -64 -52.5t-77 -20.5zM267 692q-24 0 -43 12t-35.5 24t-34.5 12q-16 0 -24.5 -10t-8.5 -30h-45q0 17 5.5 37.5t20.5 35.5t43 15
q24 0 43 -11.5t36 -23.5t35 -12q17 0 25 9.5t8 33.5h44q0 -18 -4.5 -39.5t-19.5 -37t-45 -15.5z" />
    <glyph glyph-name="Umacron" unicode="&#x16a;" horiz-adv-x="537" 
d="M269 -10q-82 0 -127.5 29.5t-62.5 82t-17 119.5v589h74v-591q0 -47 10.5 -85.5t39.5 -60.5t83 -22q52 0 81 22.5t40.5 60.5t11.5 85v591h73v-589q0 -67 -18 -119.5t-63 -82t-125 -29.5zM179 926v50h180v-50h-180z" />
    <glyph glyph-name="umacron" unicode="&#x16b;" horiz-adv-x="412" 
d="M141 -9q-29 0 -49 15t-30.5 42t-10.5 66v464h74v-448q0 -45 13.5 -63t41.5 -18q26 0 52.5 16t49.5 41v472h73v-578h-73v64q-28 -32 -64 -52.5t-77 -20.5zM116 694v50h180v-50h-180z" />
    <glyph glyph-name="Ubreve" unicode="&#x16c;" horiz-adv-x="537" 
d="M269 -10q-82 0 -127.5 29.5t-62.5 82t-17 119.5v589h74v-591q0 -47 10.5 -85.5t39.5 -60.5t83 -22q52 0 81 22.5t40.5 60.5t11.5 85v591h73v-589q0 -67 -18 -119.5t-63 -82t-125 -29.5zM268 872q-58 0 -88 31.5t-32 88.5h47q1 -40 20.5 -58t52.5 -18q34 0 53.5 18
t21.5 58h46q-1 -57 -31.5 -88.5t-89.5 -31.5z" />
    <glyph glyph-name="ubreve" unicode="&#x16d;" horiz-adv-x="412" 
d="M141 -9q-29 0 -49 15t-30.5 42t-10.5 66v464h74v-448q0 -45 13.5 -63t41.5 -18q26 0 52.5 16t49.5 41v472h73v-578h-73v64q-28 -32 -64 -52.5t-77 -20.5zM206 640q-58 0 -88 31.5t-32 88.5h47q1 -40 20.5 -58t52.5 -18q34 0 53.5 18t21.5 58h46q-1 -57 -31.5 -88.5
t-89.5 -31.5z" />
    <glyph glyph-name="Uring" unicode="&#x16e;" horiz-adv-x="537" 
d="M269 -10q-82 0 -127.5 29.5t-62.5 82t-17 119.5v589h74v-591q0 -47 10.5 -85.5t39.5 -60.5t83 -22q52 0 81 22.5t40.5 60.5t11.5 85v591h73v-589q0 -67 -18 -119.5t-63 -82t-125 -29.5zM269 861q-38 0 -67 24t-29 71q0 48 29 71.5t67 23.5q39 0 67.5 -23.5t28.5 -71.5
q0 -47 -28.5 -71t-67.5 -24zM269 901q22 0 38.5 13.5t16.5 41.5q0 30 -16.5 43t-38.5 13q-23 0 -39 -13t-16 -43q0 -28 16 -41.5t39 -13.5z" />
    <glyph glyph-name="uring" unicode="&#x16f;" horiz-adv-x="412" 
d="M141 -9q-29 0 -49 15t-30.5 42t-10.5 66v464h74v-448q0 -45 13.5 -63t41.5 -18q26 0 52.5 16t49.5 41v472h73v-578h-73v64q-28 -32 -64 -52.5t-77 -20.5zM206 629q-38 0 -67 24t-29 71q0 48 29 71.5t67 23.5q39 0 67.5 -23.5t28.5 -71.5q0 -47 -28.5 -71t-67.5 -24z
M206 669q22 0 38.5 13.5t16.5 41.5q0 30 -16.5 43t-38.5 13q-23 0 -39 -13t-16 -43q0 -28 16 -41.5t39 -13.5z" />
    <glyph glyph-name="Uhungarumlaut" unicode="&#x170;" horiz-adv-x="537" 
d="M269 -10q-82 0 -127.5 29.5t-62.5 82t-17 119.5v589h74v-591q0 -47 10.5 -85.5t39.5 -60.5t83 -22q52 0 81 22.5t40.5 60.5t11.5 85v591h73v-589q0 -67 -18 -119.5t-63 -82t-125 -29.5zM307 889l55 160h79l-94 -160h-40zM204 889l39 160h66l-66 -160h-39z" />
    <glyph glyph-name="uhungarumlaut" unicode="&#x171;" horiz-adv-x="412" 
d="M141 -9q-29 0 -49 15t-30.5 42t-10.5 66v464h74v-448q0 -45 13.5 -63t41.5 -18q26 0 52.5 16t49.5 41v472h73v-578h-73v64q-28 -32 -64 -52.5t-77 -20.5zM244 657l55 160h79l-94 -160h-40zM141 657l39 160h66l-66 -160h-39z" />
    <glyph glyph-name="Uogonek" unicode="&#x172;" horiz-adv-x="537" 
d="M269 -10q-82 0 -127.5 29.5t-62.5 82t-17 119.5v589h74v-591q0 -47 10.5 -85.5t39.5 -60.5t83 -22q52 0 81 22.5t40.5 60.5t11.5 85v591h73v-589q0 -67 -18 -119.5t-63 -82t-125 -29.5zM320 -212q-24 0 -45 4.5t-37 14t-24.5 25.5t-8.5 38q0 27 13 52t33.5 45.5
t44.5 32.5h39q-19 -18 -35.5 -38t-27 -41t-10.5 -42q0 -30 22.5 -41t52.5 -11q6 0 12 0.5t11 1.5l-11 -39q-5 -1 -13 -1.5t-16 -0.5z" />
    <glyph glyph-name="uogonek" unicode="&#x173;" horiz-adv-x="412" 
d="M141 -9q-29 0 -49 15t-30.5 42t-10.5 66v464h74v-448q0 -45 13.5 -63t41.5 -18q26 0 52.5 16t49.5 41v472h73v-578h-73v64q-28 -32 -64 -52.5t-77 -20.5zM324 -212q-24 0 -45 4.5t-37 14t-24.5 25.5t-8.5 38q0 27 13 52t33.5 45.5t44.5 32.5h39q-19 -18 -35.5 -38
t-27 -41t-10.5 -42q0 -30 22.5 -41t52.5 -11q6 0 12 0.5t11 1.5l-11 -39q-5 -1 -13 -1.5t-16 -0.5z" />
    <glyph glyph-name="Wcircumflex" unicode="&#x174;" horiz-adv-x="715" 
d="M172 0l-137 810h65l107 -658l122 646h63l125 -647l99 659h64l-131 -810h-59l-129 668l-127 -668h-62zM231 864l86 178h82l85 -178h-54l-73 141l-72 -141h-54z" />
    <glyph glyph-name="wcircumflex" unicode="&#x175;" horiz-adv-x="574" 
d="M125 0l-94 578h63l72 -483l91 483h63l92 -481l69 481h63l-94 -578h-68l-93 470l-90 -470h-74zM160 632l86 178h82l85 -178h-54l-73 141l-72 -141h-54z" />
    <glyph glyph-name="Ycircumflex" unicode="&#x176;" horiz-adv-x="469" 
d="M200 0v269l-183 541h74l146 -450l140 450h75l-178 -541v-269h-74zM108 864l86 178h82l85 -178h-54l-73 141l-72 -141h-54z" />
    <glyph glyph-name="ycircumflex" unicode="&#x177;" horiz-adv-x="381" 
d="M40 -144v57q50 0 75.5 7.5t34 21t8.5 31.5q0 16 -6 42t-13 54l-119 509h73l100 -492l97 492h74l-140 -619q-8 -37 -28.5 -59.5t-54 -33t-82.5 -10.5h-19zM64 632l86 178h82l85 -178h-54l-73 141l-72 -141h-54z" />
    <glyph glyph-name="Ydieresis" unicode="&#x178;" horiz-adv-x="469" 
d="M200 0v269l-183 541h74l146 -450l140 450h75l-178 -541v-269h-74zM280 953v89h75v-89h-75zM115 953v89h75v-89h-75z" />
    <glyph glyph-name="Zacute" unicode="&#x179;" horiz-adv-x="407" 
d="M34 0v57l271 696h-249v57h331v-40l-278 -713h278v-57h-353zM185 858l63 196h73l-98 -196h-38z" />
    <glyph glyph-name="zacute" unicode="&#x17a;" horiz-adv-x="333" 
d="M32 0v51l197 471h-176v56h253v-44l-196 -478h193v-56h-271zM148 626l63 196h73l-98 -196h-38z" />
    <glyph glyph-name="Zdotaccent" unicode="&#x17b;" horiz-adv-x="407" 
d="M34 0v57l271 696h-249v57h331v-40l-278 -713h278v-57h-353zM165 906v110h78v-110h-78z" />
    <glyph glyph-name="zdotaccent" unicode="&#x17c;" horiz-adv-x="333" 
d="M32 0v51l197 471h-176v56h253v-44l-196 -478h193v-56h-271zM128 674v110h78v-110h-78z" />
    <glyph glyph-name="Zcaron" unicode="&#x17d;" horiz-adv-x="407" 
d="M34 0v57l271 696h-249v57h331v-40l-278 -713h278v-57h-353zM171 875l-85 167h59l59 -120l59 120h59l-86 -167h-65z" />
    <glyph glyph-name="zcaron" unicode="&#x17e;" horiz-adv-x="333" 
d="M32 0v51l197 471h-176v56h253v-44l-196 -478h193v-56h-271zM134 643l-85 167h59l59 -120l59 120h59l-86 -167h-65z" />
    <glyph glyph-name="longs" unicode="&#x17f;" horiz-adv-x="266" 
d="M92 0v525h-74v53h74v60q0 43 7 76t29.5 52t69.5 19q16 0 30.5 -1.5t28.5 -5.5v-54q-9 2 -20.5 3.5t-20.5 1.5q-33 0 -41.5 -20.5t-8.5 -63.5v-645h-74z" />
    <glyph glyph-name="uni018F" unicode="&#x18f;" horiz-adv-x="521" 
d="M259 -10q-81 0 -126.5 31.5t-64 88t-18.5 129.5v182h339v168q0 51 -10.5 89t-38 58.5t-81.5 20.5t-82.5 -20.5t-39 -58.5t-10.5 -89v-75h-77v61q0 74 19.5 128.5t64.5 84.5t125 30q78 0 123.5 -30t64.5 -84.5t19 -128.5v-337q0 -73 -18.5 -128.5t-63.5 -87.5t-125 -32z
M259 51q53 0 81 21.5t38.5 60t10.5 89.5v138h-262v-138q0 -51 10.5 -89.5t39 -60t82.5 -21.5z" />
    <glyph glyph-name="florin" unicode="&#x192;" horiz-adv-x="374" 
d="M51 -131q-15 0 -29 1.5t-29 4.5l7 55q9 -2 20 -4t20 -2q34 0 45.5 21t16.5 63l69 517h-73v53h80l9 64q5 42 15.5 74.5t35.5 50.5t72 18q16 0 30 -1.5t28 -4.5l-6 -55q-10 1 -20.5 3t-19.5 2q-33 0 -44.5 -20.5t-18.5 -63.5l-8 -67h85v-53h-92l-69 -513q-5 -42 -16 -74.5
t-35.5 -50.5t-72.5 -18z" />
    <glyph glyph-name="Ohorn" unicode="&#x1a0;" horiz-adv-x="525" 
d="M263 -10q-81 0 -126.5 31.5t-64 88t-18.5 129.5v336q0 74 19.5 128.5t65 84.5t124.5 30q78 0 123.5 -30t64.5 -84.5t19 -128.5v-337q0 -73 -18.5 -128.5t-63.5 -87.5t-125 -32zM263 51q53 0 81 21.5t38.5 60t10.5 89.5v367q0 51 -10.5 89t-38.5 58.5t-81 20.5
q-54 0 -82.5 -20.5t-39 -58.5t-10.5 -89v-367q0 -51 10.5 -89.5t39 -60t82.5 -21.5zM313 768v42h20q30 0 42 17t12 50h57q0 -55 -28.5 -82t-80.5 -27h-22z" />
    <glyph glyph-name="ohorn" unicode="&#x1a1;" horiz-adv-x="399" 
d="M199 -9q-59 0 -92.5 25.5t-47.5 74t-14 118.5v160q0 70 14 118.5t47.5 74t92.5 25.5q61 0 94 -25.5t47 -74t14 -118.5v-160q0 -70 -14 -118.5t-47 -74t-94 -25.5zM199 46q38 0 55.5 20t21.5 56.5t4 82.5v168q0 47 -4 82.5t-21.5 56t-55.5 20.5t-55 -20.5t-21 -56
t-4 -82.5v-168q0 -46 4 -82.5t21 -56.5t55 -20zM233 536v42h10q30 0 42 17t12 50h57q0 -55 -28.5 -82t-80.5 -27h-12z" />
    <glyph glyph-name="Uhorn" unicode="&#x1af;" horiz-adv-x="537" 
d="M269 -10q-82 0 -127.5 29.5t-62.5 82t-17 119.5v589h74v-591q0 -47 10.5 -85.5t39.5 -60.5t83 -22q52 0 81 22.5t40.5 60.5t11.5 85v591h73v-589q0 -67 -18 -119.5t-63 -82t-125 -29.5zM421 768v42h10q30 0 42 17t12 50h57q0 -55 -28.5 -82t-80.5 -27h-12z" />
    <glyph glyph-name="uhorn" unicode="&#x1b0;" horiz-adv-x="412" 
d="M141 -9q-29 0 -49 15t-30.5 42t-10.5 66v464h74v-448q0 -45 13.5 -63t41.5 -18q26 0 52.5 16t49.5 41v472h73v-578h-73v64q-28 -32 -64 -52.5t-77 -20.5zM291 536v42h10q30 0 42 17t12 50h57q0 -55 -28.5 -82t-80.5 -27h-12z" />
    <glyph glyph-name="uni01B7" unicode="&#x1b7;" horiz-adv-x="469" 
d="M231 -10q-64 0 -104 24t-59 68.5t-19 104.5v20h71v-8.5v-8.5q0 -65 24.5 -102.5t85.5 -37.5q39 0 62.5 14.5t35 40t15.5 58.5t4 69q0 75 -16.5 122t-52.5 69.5t-93 22.5h-82v52l189 255h-225v57h316v-40l-227 -310l-18 36h68q75 0 122.5 -28.5t70.5 -85.5t23 -145
q0 -76 -18.5 -132t-60.5 -85.5t-112 -29.5z" />
    <glyph glyph-name="uni01C4" unicode="&#x1c4;" horiz-adv-x="928" 
d="M71 0v810h176q85 0 132.5 -29.5t67.5 -83.5t20 -125v-322q0 -75 -20 -131.5t-66 -87.5t-127 -31h-183zM147 57h102q64 0 94 26.5t38 73t8 105.5v302q0 61 -10.5 102.5t-41 63t-91.5 21.5h-99v-694zM555 0v57l271 696h-249v57h331v-40l-278 -713h278v-57h-353zM692 875
l-85 167h59l59 -120l59 120h59l-86 -167h-65z" />
    <glyph glyph-name="uni01C5" unicode="&#x1c5;" horiz-adv-x="854" 
d="M71 0v810h176q85 0 132.5 -29.5t67.5 -83.5t20 -125v-322q0 -75 -20 -131.5t-66 -87.5t-127 -31h-183zM147 57h102q64 0 94 26.5t38 73t8 105.5v302q0 61 -10.5 102.5t-41 63t-91.5 21.5h-99v-694zM553 0v51l197 471h-176v56h253v-44l-196 -478h193v-56h-271zM655 643
l-85 167h59l59 -120l59 120h59l-86 -167h-65z" />
    <glyph glyph-name="uni01C6" unicode="&#x1c6;" horiz-adv-x="746" 
d="M184 -9q-74 0 -106.5 56t-32.5 186v107q0 76 11 131t40.5 85.5t84.5 30.5q34 0 59.5 -15.5t42.5 -34.5v273h73v-810h-73v41q-17 -19 -41.5 -34.5t-57.5 -15.5zM199 49q24 0 45.5 11t38.5 27v402q-15 14 -37 27.5t-49 13.5q-48 0 -63.5 -42.5t-15.5 -123.5v-137
q0 -58 6.5 -98t24 -60t50.5 -20zM445 0v51l197 471h-176v56h253v-44l-196 -478h193v-56h-271zM547 643l-85 167h59l59 -120l59 120h59l-86 -167h-65z" />
    <glyph glyph-name="uni01C7" unicode="&#x1c7;" horiz-adv-x="661" 
d="M71 0v810h76v-753h230v-57h-306zM390 -35v57q42 0 66.5 5.5t37 20.5t16.5 43t4 72v647h76v-651q0 -67 -12 -110t-47 -63.5t-104 -20.5h-37z" />
    <glyph glyph-name="uni01C8" unicode="&#x1c8;" horiz-adv-x="595" 
d="M71 0v810h76v-753h230v-57h-306zM404 -152q-7 0 -20 1t-19 3v56q3 -1 12.5 -1.5t12.5 -0.5q31 0 45.5 11.5t19 30t4.5 38.5v592h73v-598q0 -69 -34 -100.5t-94 -31.5zM459 658v99h73v-99h-73z" />
    <glyph glyph-name="uni01C9" unicode="&#x1c9;" horiz-adv-x="415" 
d="M66 0v810h73v-810h-73zM224 -152q-7 0 -20 1t-19 3v56q3 -1 12.5 -1.5t12.5 -0.5q31 0 45.5 11.5t19 30t4.5 38.5v592h73v-598q0 -69 -34 -100.5t-94 -31.5zM279 658v99h73v-99h-73z" />
    <glyph glyph-name="uni01CA" unicode="&#x1ca;" horiz-adv-x="798" 
d="M71 0v810h55l258 -629v629h66v-810h-54l-259 636v-636h-66zM528 -35v57q42 0 66.5 5.5t37 20.5t16.5 43t4 72v647h76v-651q0 -67 -12 -110t-47 -63.5t-104 -20.5h-37z" />
    <glyph glyph-name="uni01CB" unicode="&#x1cb;" horiz-adv-x="732" 
d="M71 0v810h55l258 -629v629h66v-810h-54l-259 636v-636h-66zM542 -152q-7 0 -20 1t-19 3v56q3 -1 12.5 -1.5t12.5 -0.5q31 0 45.5 11.5t19 30t4.5 38.5v592h73v-598q0 -69 -34 -100.5t-94 -31.5zM597 658v99h73v-99h-73z" />
    <glyph glyph-name="uni01CC" unicode="&#x1cc;" horiz-adv-x="622" 
d="M56 0v578h73v-60q28 30 63 49.5t76 19.5q29 0 49 -14.5t30 -42t10 -66.5v-464h-73v448q0 45 -13.5 63.5t-41.5 18.5q-25 0 -51 -15t-49 -39v-476h-73zM431 -152q-7 0 -20 1t-19 3v56q3 -1 12.5 -1.5t12.5 -0.5q31 0 45.5 11.5t19 30t4.5 38.5v592h73v-598
q0 -69 -34 -100.5t-94 -31.5zM486 658v99h73v-99h-73z" />
    <glyph glyph-name="uni01CD" unicode="&#x1cd;" horiz-adv-x="477" 
d="M27 0l171 810h80l172 -810h-75l-40 217h-193l-41 -217h-74zM153 272h172l-86 437zM206 875l-85 167h59l59 -120l59 120h59l-86 -167h-65z" />
    <glyph glyph-name="uni01CE" unicode="&#x1ce;" horiz-adv-x="397" 
d="M156 -9q-35 0 -61 17.5t-40.5 47t-14.5 64.5q0 44 12.5 75t40 55.5t72 48t108.5 52.5v41q0 53 -6.5 83.5t-22 43.5t-43.5 13q-23 0 -41 -9t-29 -30.5t-11 -59.5v-20l-72 1q1 88 37.5 130.5t119.5 42.5q78 0 109.5 -46.5t31.5 -144.5v-281q0 -15 1 -38.5t2 -44.5t2 -32
h-65q-2 19 -6 42.5t-5 37.5q-12 -35 -42.5 -62t-76.5 -27zM179 53q22 0 40 11t32 26.5t22 31.5v180q-43 -22 -73.5 -40t-49.5 -35t-28 -38.5t-9 -50.5q0 -46 20 -65.5t46 -19.5zM171 643l-85 167h59l59 -120l59 120h59l-86 -167h-65z" />
    <glyph glyph-name="uni01D3" unicode="&#x1d3;" horiz-adv-x="537" 
d="M269 -10q-82 0 -127.5 29.5t-62.5 82t-17 119.5v589h74v-591q0 -47 10.5 -85.5t39.5 -60.5t83 -22q52 0 81 22.5t40.5 60.5t11.5 85v591h73v-589q0 -67 -18 -119.5t-63 -82t-125 -29.5zM236 875l-85 167h59l59 -120l59 120h59l-86 -167h-65z" />
    <glyph glyph-name="uni01D4" unicode="&#x1d4;" horiz-adv-x="412" 
d="M141 -9q-29 0 -49 15t-30.5 42t-10.5 66v464h74v-448q0 -45 13.5 -63t41.5 -18q26 0 52.5 16t49.5 41v472h73v-578h-73v64q-28 -32 -64 -52.5t-77 -20.5zM174 643l-85 167h59l59 -120l59 120h59l-86 -167h-65z" />
    <glyph glyph-name="uni01E4" unicode="&#x1e4;" horiz-adv-x="519" 
d="M309 221v48h217v-48h-217zM254 -11q-77 0 -120.5 32t-61.5 90.5t-18 135.5v316q0 78 17.5 135t62 88.5t125.5 31.5q73 0 115.5 -27t61.5 -79t19 -127v-28h-72v28q0 58 -10.5 96t-36.5 57t-76 19q-56 0 -84 -24t-36.5 -66t-8.5 -96v-333q0 -59 10.5 -100.5t39 -64
t80.5 -22.5q51 0 78 22.5t38 64.5t11 102v95h-120v57h190v-392h-49l-9 92q-15 -46 -49.5 -74.5t-96.5 -28.5z" />
    <glyph glyph-name="uni01E5" unicode="&#x1e5;" horiz-adv-x="431" 
d="M203 -190q-57 0 -99 11t-64.5 34.5t-22.5 59.5q0 29 14 53t36 42.5t45 30.5q-33 9 -48.5 25t-15.5 38q0 30 18.5 54t50.5 51q-40 28 -56.5 72t-16.5 104q0 56 17.5 101.5t53 73t91.5 27.5q51 0 80 -21t44 -51q9 14 31 34.5t47 30.5l15 5l20 -51q-16 -3 -35 -11.5
t-35.5 -18.5t-24.5 -20q7 -18 12.5 -49t5.5 -52q0 -57 -15.5 -103t-50 -72.5t-93.5 -26.5q-15 0 -31.5 3t-27.5 6q-14 -15 -26.5 -32.5t-12.5 -33.5q0 -14 11.5 -21.5t36.5 -10.5l92 -14q70 -10 107.5 -42t37.5 -92q0 -45 -24.5 -75t-67 -44.5t-99.5 -14.5zM-17 -73v43h444
v-43h-444zM206 -131q58 0 94 17.5t36 56.5q0 20 -8.5 35t-32 25.5t-68.5 17.5l-74 10q-15 -10 -32 -24.5t-29.5 -32.5t-12.5 -41q0 -33 31.5 -48.5t95.5 -15.5zM207 234q32 0 50.5 13.5t28 35.5t13 49t3.5 53t-4 52t-14 48.5t-28.5 36t-48.5 13.5t-49.5 -14t-30 -36.5
t-14 -48.5t-3.5 -51q0 -24 3 -51t13.5 -49.5t30 -36.5t50.5 -14z" />
    <glyph glyph-name="Gcaron" unicode="&#x1e6;" horiz-adv-x="519" 
d="M254 -11q-77 0 -120.5 32t-61.5 90.5t-18 135.5v316q0 78 17.5 135t62 88.5t125.5 31.5q73 0 115.5 -27t61.5 -79t19 -127v-28h-72v28q0 58 -10.5 96t-36.5 57t-76 19q-56 0 -84 -24t-36.5 -66t-8.5 -96v-333q0 -59 10.5 -100.5t39 -64t80.5 -22.5q51 0 78 22.5t38 64.5
t11 102v95h-120v57h190v-392h-49l-9 92q-15 -46 -49.5 -74.5t-96.5 -28.5zM227 875l-85 167h59l59 -120l59 120h59l-86 -167h-65z" />
    <glyph glyph-name="gcaron" unicode="&#x1e7;" horiz-adv-x="431" 
d="M203 -190q-57 0 -99 11t-64.5 34.5t-22.5 59.5q0 29 14 53t36 42.5t45 30.5q-33 9 -48.5 25t-15.5 38q0 30 18.5 54t50.5 51q-40 28 -56.5 72t-16.5 104q0 56 17.5 101.5t53 73t91.5 27.5q51 0 80 -21t44 -51q9 14 31 34.5t47 30.5l15 5l20 -51q-16 -3 -35 -11.5
t-35.5 -18.5t-24.5 -20q7 -18 12.5 -49t5.5 -52q0 -57 -15.5 -103t-50 -72.5t-93.5 -26.5q-15 0 -31.5 3t-27.5 6q-14 -15 -26.5 -32.5t-12.5 -33.5q0 -14 11.5 -21.5t36.5 -10.5l92 -14q70 -10 107.5 -42t37.5 -92q0 -45 -24.5 -75t-67 -44.5t-99.5 -14.5zM206 -131
q58 0 94 17.5t36 56.5q0 20 -8.5 35t-32 25.5t-68.5 17.5l-74 10q-15 -10 -32 -24.5t-29.5 -32.5t-12.5 -41q0 -33 31.5 -48.5t95.5 -15.5zM207 234q32 0 50.5 13.5t28 35.5t13 49t3.5 53t-4 52t-14 48.5t-28.5 36t-48.5 13.5t-49.5 -14t-30 -36.5t-14 -48.5t-3.5 -51
q0 -24 3 -51t13.5 -49.5t30 -36.5t50.5 -14zM183 643l-85 167h59l59 -120l59 120h59l-86 -167h-65z" />
    <glyph glyph-name="uni01E8" unicode="&#x1e8;" horiz-adv-x="473" 
d="M70 0v810h77v-428l216 428h73l-166 -348l202 -462h-75l-178 405l-72 -132v-273h-77zM204 875l-85 167h59l59 -120l59 120h59l-86 -167h-65z" />
    <glyph glyph-name="uni01E9" unicode="&#x1e9;" horiz-adv-x="400" 
d="M57 0v810h73v-514l193 282h77l-146 -223l140 -355h-74l-122 314l-68 -95v-219h-73zM218 812l-85 167h59l59 -120l59 120h59l-86 -167h-65z" />
    <glyph glyph-name="uni01EA" unicode="&#x1ea;" horiz-adv-x="525" 
d="M263 -10q-81 0 -126.5 31.5t-64 88t-18.5 129.5v336q0 74 19.5 128.5t65 84.5t124.5 30q78 0 123.5 -30t64.5 -84.5t19 -128.5v-337q0 -73 -18.5 -128.5t-63.5 -87.5t-125 -32zM263 51q53 0 81 21.5t38.5 60t10.5 89.5v367q0 51 -10.5 89t-38.5 58.5t-81 20.5
q-54 0 -82.5 -20.5t-39 -58.5t-10.5 -89v-367q0 -51 10.5 -89.5t39 -60t82.5 -21.5zM310 -212q-24 0 -45 4.5t-37 14t-24.5 25.5t-8.5 38q0 27 13 52t33.5 45.5t44.5 32.5h39q-19 -18 -35.5 -38t-27 -41t-10.5 -42q0 -30 22.5 -41t52.5 -11q6 0 12 0.5t11 1.5l-11 -39
q-5 -1 -13 -1.5t-16 -0.5z" />
    <glyph glyph-name="uni01EB" unicode="&#x1eb;" horiz-adv-x="399" 
d="M199 -9q-59 0 -92.5 25.5t-47.5 74t-14 118.5v160q0 70 14 118.5t47.5 74t92.5 25.5q61 0 94 -25.5t47 -74t14 -118.5v-160q0 -70 -14 -118.5t-47 -74t-94 -25.5zM199 46q38 0 55.5 20t21.5 56.5t4 82.5v168q0 47 -4 82.5t-21.5 56t-55.5 20.5t-55 -20.5t-21 -56
t-4 -82.5v-168q0 -46 4 -82.5t21 -56.5t55 -20zM244 -209q-24 0 -45 4.5t-37 14t-24.5 25.5t-8.5 38q0 27 13 52t33.5 45.5t44.5 32.5h39q-19 -18 -35.5 -38t-27 -41t-10.5 -42q0 -30 22.5 -41t52.5 -11q6 0 12 0.5t11 1.5l-11 -39q-5 -1 -13 -1.5t-16 -0.5z" />
    <glyph glyph-name="uni01EE" unicode="&#x1ee;" horiz-adv-x="469" 
d="M231 -10q-64 0 -104 24t-59 68.5t-19 104.5v20h71v-8.5v-8.5q0 -65 24.5 -102.5t85.5 -37.5q39 0 62.5 14.5t35 40t15.5 58.5t4 69q0 75 -16.5 122t-52.5 69.5t-93 22.5h-82v52l189 255h-225v57h316v-40l-227 -310l-18 36h68q75 0 122.5 -28.5t70.5 -85.5t23 -145
q0 -76 -18.5 -132t-60.5 -85.5t-112 -29.5zM202 875l-85 167h59l59 -120l59 120h59l-86 -167h-65z" />
    <glyph glyph-name="uni01EF" unicode="&#x1ef;" horiz-adv-x="422" 
d="M201 -196q-63 0 -103 24.5t-58.5 69t-18.5 103.5v20h71v-8v-9q0 -64 24.5 -102t84.5 -38q39 0 65 17t39.5 54.5t13.5 99.5q0 60 -11.5 103.5t-39 66.5t-76.5 23h-101v51l205 279l30 -36h-272v56h302v-44l-197 -271l-16 21h52q73 0 116.5 -30.5t63 -86.5t19.5 -132
q0 -68 -19.5 -120.5t-62 -81.5t-111.5 -29zM178 643l-85 167h59l59 -120l59 120h59l-86 -167h-65z" />
    <glyph glyph-name="uni01F1" unicode="&#x1f1;" horiz-adv-x="928" 
d="M71 0v810h176q85 0 132.5 -29.5t67.5 -83.5t20 -125v-322q0 -75 -20 -131.5t-66 -87.5t-127 -31h-183zM147 57h102q64 0 94 26.5t38 73t8 105.5v302q0 61 -10.5 102.5t-41 63t-91.5 21.5h-99v-694zM555 0v57l271 696h-249v57h331v-40l-278 -713h278v-57h-353z" />
    <glyph glyph-name="uni01F2" unicode="&#x1f2;" horiz-adv-x="854" 
d="M71 0v810h176q85 0 132.5 -29.5t67.5 -83.5t20 -125v-322q0 -75 -20 -131.5t-66 -87.5t-127 -31h-183zM147 57h102q64 0 94 26.5t38 73t8 105.5v302q0 61 -10.5 102.5t-41 63t-91.5 21.5h-99v-694zM553 0v51l197 471h-176v56h253v-44l-196 -478h193v-56h-271z" />
    <glyph glyph-name="uni01F3" unicode="&#x1f3;" horiz-adv-x="746" 
d="M184 -9q-74 0 -106.5 56t-32.5 186v107q0 76 11 131t40.5 85.5t84.5 30.5q34 0 59.5 -15.5t42.5 -34.5v273h73v-810h-73v41q-17 -19 -41.5 -34.5t-57.5 -15.5zM199 49q24 0 45.5 11t38.5 27v402q-15 14 -37 27.5t-49 13.5q-48 0 -63.5 -42.5t-15.5 -123.5v-137
q0 -58 6.5 -98t24 -60t50.5 -20zM445 0v51l197 471h-176v56h253v-44l-196 -478h193v-56h-271z" />
    <glyph glyph-name="uni01F4" unicode="&#x1f4;" horiz-adv-x="519" 
d="M254 -11q-77 0 -120.5 32t-61.5 90.5t-18 135.5v316q0 78 17.5 135t62 88.5t125.5 31.5q73 0 115.5 -27t61.5 -79t19 -127v-28h-72v28q0 58 -10.5 96t-36.5 57t-76 19q-56 0 -84 -24t-36.5 -66t-8.5 -96v-333q0 -59 10.5 -100.5t39 -64t80.5 -22.5q51 0 78 22.5t38 64.5
t11 102v95h-120v57h190v-392h-49l-9 92q-15 -46 -49.5 -74.5t-96.5 -28.5zM241 858l63 196h73l-98 -196h-38z" />
    <glyph glyph-name="uni01F5" unicode="&#x1f5;" horiz-adv-x="431" 
d="M203 -190q-57 0 -99 11t-64.5 34.5t-22.5 59.5q0 29 14 53t36 42.5t45 30.5q-33 9 -48.5 25t-15.5 38q0 30 18.5 54t50.5 51q-40 28 -56.5 72t-16.5 104q0 56 17.5 101.5t53 73t91.5 27.5q51 0 80 -21t44 -51q9 14 31 34.5t47 30.5l15 5l20 -51q-16 -3 -35 -11.5
t-35.5 -18.5t-24.5 -20q7 -18 12.5 -49t5.5 -52q0 -57 -15.5 -103t-50 -72.5t-93.5 -26.5q-15 0 -31.5 3t-27.5 6q-14 -15 -26.5 -32.5t-12.5 -33.5q0 -14 11.5 -21.5t36.5 -10.5l92 -14q70 -10 107.5 -42t37.5 -92q0 -45 -24.5 -75t-67 -44.5t-99.5 -14.5zM206 -131
q58 0 94 17.5t36 56.5q0 20 -8.5 35t-32 25.5t-68.5 17.5l-74 10q-15 -10 -32 -24.5t-29.5 -32.5t-12.5 -41q0 -33 31.5 -48.5t95.5 -15.5zM207 234q32 0 50.5 13.5t28 35.5t13 49t3.5 53t-4 52t-14 48.5t-28.5 36t-48.5 13.5t-49.5 -14t-30 -36.5t-14 -48.5t-3.5 -51
q0 -24 3 -51t13.5 -49.5t30 -36.5t50.5 -14zM197 626l63 196h73l-98 -196h-38z" />
    <glyph glyph-name="Aringacute" unicode="&#x1fa;" horiz-adv-x="477" 
d="M27 0l171 810h80l172 -810h-75l-40 217h-193l-41 -217h-74zM153 272h172l-86 437zM239 861q-38 0 -67 24t-29 71q0 48 29 71.5t67 23.5q39 0 67.5 -23.5t28.5 -71.5q0 -47 -28.5 -71t-67.5 -24zM239 901q22 0 38.5 13.5t16.5 41.5q0 30 -16.5 43t-38.5 13q-23 0 -39 -13
t-16 -43q0 -28 16 -41.5t39 -13.5zM220 1099l63 196h73l-98 -196h-38z" />
    <glyph glyph-name="aringacute" unicode="&#x1fb;" horiz-adv-x="397" 
d="M156 -9q-35 0 -61 17.5t-40.5 47t-14.5 64.5q0 44 12.5 75t40 55.5t72 48t108.5 52.5v41q0 53 -6.5 83.5t-22 43.5t-43.5 13q-23 0 -41 -9t-29 -30.5t-11 -59.5v-20l-72 1q1 88 37.5 130.5t119.5 42.5q78 0 109.5 -46.5t31.5 -144.5v-281q0 -15 1 -38.5t2 -44.5t2 -32
h-65q-2 19 -6 42.5t-5 37.5q-12 -35 -42.5 -62t-76.5 -27zM179 53q22 0 40 11t32 26.5t22 31.5v180q-43 -22 -73.5 -40t-49.5 -35t-28 -38.5t-9 -50.5q0 -46 20 -65.5t46 -19.5zM204 629q-38 0 -67 24t-29 71q0 48 29 71.5t67 23.5q39 0 67.5 -23.5t28.5 -71.5
q0 -47 -28.5 -71t-67.5 -24zM204 669q22 0 38.5 13.5t16.5 41.5q0 30 -16.5 43t-38.5 13q-23 0 -39 -13t-16 -43q0 -28 16 -41.5t39 -13.5zM185 867l63 196h73l-98 -196h-38z" />
    <glyph glyph-name="AEacute" unicode="&#x1fc;" horiz-adv-x="631" 
d="M-28 0l324 810h303v-61h-216v-298h155v-58h-155v-333h216v-60h-293v217h-170l-84 -217h-80zM157 275h149v406zM325 858l63 196h73l-98 -196h-38z" />
    <glyph glyph-name="aeacute" unicode="&#x1fd;" horiz-adv-x="622" 
d="M164 -9q-59 0 -91.5 36.5t-32.5 92.5q0 42 12.5 75t45.5 58.5t92 44.5l84 27v81q0 68 -17.5 96t-61.5 28q-22 0 -39.5 -10.5t-27.5 -33.5t-10 -62l-71 1q0 79 38.5 120.5t108.5 41.5q55 0 87.5 -32t34.5 -89h-10q2 42 21.5 69t50 39.5t65.5 12.5q66 0 98.5 -34.5
t32.5 -88.5q0 -44 -16.5 -71t-46 -43t-67.5 -27l-96 -30v-95q0 -77 18 -112.5t62 -35.5q23 0 40 9.5t27.5 34t10.5 69.5v34h73v-32q0 -53 -14 -91.5t-46 -60.5t-86 -22q-35 0 -62.5 12t-45 38t-23.5 67q-10 -41 -31 -67t-48.5 -38t-58.5 -12zM181 48q25 0 46 14.5t34 47.5
t13 90v79l-63 -23q-42 -16 -63.5 -34t-28.5 -40t-7 -50q0 -29 10 -48t25.5 -27.5t33.5 -8.5zM348 337l84 27q41 13 58 32.5t17 58.5q0 28 -16 50.5t-57 22.5q-29 0 -48 -13.5t-28.5 -44t-9.5 -81.5v-52zM289 626l63 196h73l-98 -196h-38z" />
    <glyph glyph-name="Oslashacute" unicode="&#x1fe;" horiz-adv-x="529" 
d="M141 -87l-31 9l272 968l31 -8zM263 -10q-81 0 -126.5 31.5t-64 88t-18.5 129.5v336q0 74 19.5 128.5t65 84.5t124.5 30q78 0 123.5 -30t64.5 -84.5t19 -128.5v-337q0 -73 -18.5 -128.5t-63.5 -87.5t-125 -32zM263 51q53 0 81 21.5t38.5 60t10.5 89.5v367q0 51 -10.5 89
t-38.5 58.5t-81 20.5q-54 0 -82.5 -20.5t-39 -58.5t-10.5 -89v-367q0 -51 10.5 -89.5t39 -60t82.5 -21.5zM246 858l63 196h73l-98 -196h-38z" />
    <glyph glyph-name="oslashacute" unicode="&#x1ff;" horiz-adv-x="398" 
d="M85 -76l-25 8l260 715l27 -10zM199 -9q-59 0 -92.5 25.5t-47.5 74t-14 118.5v160q0 70 14 118.5t47.5 74t92.5 25.5q61 0 94 -25.5t47 -74t14 -118.5v-160q0 -70 -14 -118.5t-47 -74t-94 -25.5zM199 46q38 0 55.5 20t21.5 56.5t4 82.5v168q0 47 -4 82.5t-21.5 56
t-55.5 20.5t-55 -20.5t-21 -56t-4 -82.5v-168q0 -46 4 -82.5t21 -56.5t55 -20zM181 626l63 196h73l-98 -196h-38z" />
    <glyph glyph-name="uni0200" unicode="&#x200;" horiz-adv-x="477" 
d="M27 0l171 810h80l172 -810h-75l-40 217h-193l-41 -217h-74zM153 272h172l-86 437zM164 886l-96 156h78l56 -156h-38zM273 886l-69 156h65l41 -156h-37z" />
    <glyph glyph-name="uni0201" unicode="&#x201;" horiz-adv-x="397" 
d="M156 -9q-35 0 -61 17.5t-40.5 47t-14.5 64.5q0 44 12.5 75t40 55.5t72 48t108.5 52.5v41q0 53 -6.5 83.5t-22 43.5t-43.5 13q-23 0 -41 -9t-29 -30.5t-11 -59.5v-20l-72 1q1 88 37.5 130.5t119.5 42.5q78 0 109.5 -46.5t31.5 -144.5v-281q0 -15 1 -38.5t2 -44.5t2 -32
h-65q-2 19 -6 42.5t-5 37.5q-12 -35 -42.5 -62t-76.5 -27zM179 53q22 0 40 11t32 26.5t22 31.5v180q-43 -22 -73.5 -40t-49.5 -35t-28 -38.5t-9 -50.5q0 -46 20 -65.5t46 -19.5zM129 654l-96 156h78l56 -156h-38zM238 654l-69 156h65l41 -156h-37z" />
    <glyph glyph-name="uni0202" unicode="&#x202;" horiz-adv-x="477" 
d="M27 0l171 810h80l172 -810h-75l-40 217h-193l-41 -217h-74zM153 272h172l-86 437zM118 917q2 39 15 67t39.5 43t66.5 15q41 0 67.5 -15t39.5 -43t14 -67h-47q-1 45 -20.5 62.5t-53.5 17.5q-33 0 -52.5 -18t-21.5 -62h-47z" />
    <glyph glyph-name="uni0203" unicode="&#x203;" horiz-adv-x="397" 
d="M156 -9q-35 0 -61 17.5t-40.5 47t-14.5 64.5q0 44 12.5 75t40 55.5t72 48t108.5 52.5v41q0 53 -6.5 83.5t-22 43.5t-43.5 13q-23 0 -41 -9t-29 -30.5t-11 -59.5v-20l-72 1q1 88 37.5 130.5t119.5 42.5q78 0 109.5 -46.5t31.5 -144.5v-281q0 -15 1 -38.5t2 -44.5t2 -32
h-65q-2 19 -6 42.5t-5 37.5q-12 -35 -42.5 -62t-76.5 -27zM179 53q22 0 40 11t32 26.5t22 31.5v180q-43 -22 -73.5 -40t-49.5 -35t-28 -38.5t-9 -50.5q0 -46 20 -65.5t46 -19.5zM83 685q2 39 15 67t39.5 43t66.5 15q41 0 67.5 -15t39.5 -43t14 -67h-47q-1 45 -20.5 62.5
t-53.5 17.5q-33 0 -52.5 -18t-21.5 -62h-47z" />
    <glyph glyph-name="uni0204" unicode="&#x204;" horiz-adv-x="398" 
d="M70 0v810h293v-59h-216v-304h176v-56h-176v-334h218v-57h-295zM145 886l-96 156h78l56 -156h-38zM254 886l-69 156h65l41 -156h-37z" />
    <glyph glyph-name="uni0205" unicode="&#x205;" horiz-adv-x="395" 
d="M201 -9q-54 0 -88.5 21.5t-51 71.5t-16.5 133v146q0 86 17 134.5t52 69t88 20.5q61 0 93 -26t44.5 -78.5t12.5 -134.5v-52h-234v-101q0 -56 8.5 -88.5t27 -46.5t47.5 -14q22 0 40 8.5t28.5 33t10.5 69.5v40h71v-32q0 -79 -32.5 -126.5t-117.5 -47.5zM118 338h162v48
q0 46 -5 78.5t-21.5 50t-52.5 17.5q-30 0 -48.5 -13t-26.5 -46.5t-8 -95.5v-39zM123 654l-96 156h78l56 -156h-38zM232 654l-69 156h65l41 -156h-37z" />
    <glyph glyph-name="uni0206" unicode="&#x206;" horiz-adv-x="398" 
d="M70 0v810h293v-59h-216v-304h176v-56h-176v-334h218v-57h-295zM99 917q2 39 15 67t39.5 43t66.5 15q41 0 67.5 -15t39.5 -43t14 -67h-47q-1 45 -20.5 62.5t-53.5 17.5q-33 0 -52.5 -18t-21.5 -62h-47z" />
    <glyph glyph-name="uni0207" unicode="&#x207;" horiz-adv-x="395" 
d="M201 -9q-54 0 -88.5 21.5t-51 71.5t-16.5 133v146q0 86 17 134.5t52 69t88 20.5q61 0 93 -26t44.5 -78.5t12.5 -134.5v-52h-234v-101q0 -56 8.5 -88.5t27 -46.5t47.5 -14q22 0 40 8.5t28.5 33t10.5 69.5v40h71v-32q0 -79 -32.5 -126.5t-117.5 -47.5zM118 338h162v48
q0 46 -5 78.5t-21.5 50t-52.5 17.5q-30 0 -48.5 -13t-26.5 -46.5t-8 -95.5v-39zM77 685q2 39 15 67t39.5 43t66.5 15q41 0 67.5 -15t39.5 -43t14 -67h-47q-1 45 -20.5 62.5t-53.5 17.5q-33 0 -52.5 -18t-21.5 -62h-47z" />
    <glyph glyph-name="uni0208" unicode="&#x208;" horiz-adv-x="222" 
d="M73 0v810h76v-810h-76zM36 886l-96 156h78l56 -156h-38zM145 886l-69 156h65l41 -156h-37z" />
    <glyph glyph-name="uni0209" unicode="&#x209;" horiz-adv-x="198" 
d="M64 0v578h73v-578h-73zM26 654l-96 156h78l56 -156h-38zM135 654l-69 156h65l41 -156h-37z" />
    <glyph glyph-name="uni020A" unicode="&#x20a;" horiz-adv-x="222" 
d="M73 0v810h76v-810h-76zM-10 917q2 39 15 67t39.5 43t66.5 15q41 0 67.5 -15t39.5 -43t14 -67h-47q-1 45 -20.5 62.5t-53.5 17.5q-33 0 -52.5 -18t-21.5 -62h-47z" />
    <glyph glyph-name="uni020B" unicode="&#x20b;" horiz-adv-x="198" 
d="M64 0v578h73v-578h-73zM-20 685q2 39 15 67t39.5 43t66.5 15q41 0 67.5 -15t39.5 -43t14 -67h-47q-1 45 -20.5 62.5t-53.5 17.5q-33 0 -52.5 -18t-21.5 -62h-47z" />
    <glyph glyph-name="uni020C" unicode="&#x20c;" horiz-adv-x="525" 
d="M263 -10q-81 0 -126.5 31.5t-64 88t-18.5 129.5v336q0 74 19.5 128.5t65 84.5t124.5 30q78 0 123.5 -30t64.5 -84.5t19 -128.5v-337q0 -73 -18.5 -128.5t-63.5 -87.5t-125 -32zM263 51q53 0 81 21.5t38.5 60t10.5 89.5v367q0 51 -10.5 89t-38.5 58.5t-81 20.5
q-54 0 -82.5 -20.5t-39 -58.5t-10.5 -89v-367q0 -51 10.5 -89.5t39 -60t82.5 -21.5zM188 886l-96 156h78l56 -156h-38zM297 886l-69 156h65l41 -156h-37z" />
    <glyph glyph-name="uni020D" unicode="&#x20d;" horiz-adv-x="399" 
d="M199 -9q-59 0 -92.5 25.5t-47.5 74t-14 118.5v160q0 70 14 118.5t47.5 74t92.5 25.5q61 0 94 -25.5t47 -74t14 -118.5v-160q0 -70 -14 -118.5t-47 -74t-94 -25.5zM199 46q38 0 55.5 20t21.5 56.5t4 82.5v168q0 47 -4 82.5t-21.5 56t-55.5 20.5t-55 -20.5t-21 -56
t-4 -82.5v-168q0 -46 4 -82.5t21 -56.5t55 -20zM125 654l-96 156h78l56 -156h-38zM234 654l-69 156h65l41 -156h-37z" />
    <glyph glyph-name="uni020E" unicode="&#x20e;" horiz-adv-x="525" 
d="M263 -10q-81 0 -126.5 31.5t-64 88t-18.5 129.5v336q0 74 19.5 128.5t65 84.5t124.5 30q78 0 123.5 -30t64.5 -84.5t19 -128.5v-337q0 -73 -18.5 -128.5t-63.5 -87.5t-125 -32zM263 51q53 0 81 21.5t38.5 60t10.5 89.5v367q0 51 -10.5 89t-38.5 58.5t-81 20.5
q-54 0 -82.5 -20.5t-39 -58.5t-10.5 -89v-367q0 -51 10.5 -89.5t39 -60t82.5 -21.5zM142 917q2 39 15 67t39.5 43t66.5 15q41 0 67.5 -15t39.5 -43t14 -67h-47q-1 45 -20.5 62.5t-53.5 17.5q-33 0 -52.5 -18t-21.5 -62h-47z" />
    <glyph glyph-name="uni020F" unicode="&#x20f;" horiz-adv-x="399" 
d="M199 -9q-59 0 -92.5 25.5t-47.5 74t-14 118.5v160q0 70 14 118.5t47.5 74t92.5 25.5q61 0 94 -25.5t47 -74t14 -118.5v-160q0 -70 -14 -118.5t-47 -74t-94 -25.5zM199 46q38 0 55.5 20t21.5 56.5t4 82.5v168q0 47 -4 82.5t-21.5 56t-55.5 20.5t-55 -20.5t-21 -56
t-4 -82.5v-168q0 -46 4 -82.5t21 -56.5t55 -20zM79 685q2 39 15 67t39.5 43t66.5 15q41 0 67.5 -15t39.5 -43t14 -67h-47q-1 45 -20.5 62.5t-53.5 17.5q-33 0 -52.5 -18t-21.5 -62h-47z" />
    <glyph glyph-name="uni0210" unicode="&#x210;" horiz-adv-x="512" 
d="M71 0v810h183q76 0 119.5 -24.5t62.5 -71t19 -110.5q0 -45 -10 -85t-34 -68t-68 -37l124 -414h-74l-119 398h-127v-398h-76zM147 454h103q51 0 79 17t40 50t12 83q0 75 -26 112t-103 37h-105v-299zM181 886l-96 156h78l56 -156h-38zM290 886l-69 156h65l41 -156h-37z" />
    <glyph glyph-name="uni0211" unicode="&#x211;" horiz-adv-x="297" 
d="M61 0v578h74v-79q28 46 64 65.5t69 19.5h6t7 -1v-78q-7 3 -17 4.5t-19 1.5q-34 0 -61.5 -16t-48.5 -51v-444h-74zM95 654l-96 156h78l56 -156h-38zM204 654l-69 156h65l41 -156h-37z" />
    <glyph glyph-name="uni0212" unicode="&#x212;" horiz-adv-x="512" 
d="M71 0v810h183q76 0 119.5 -24.5t62.5 -71t19 -110.5q0 -45 -10 -85t-34 -68t-68 -37l124 -414h-74l-119 398h-127v-398h-76zM147 454h103q51 0 79 17t40 50t12 83q0 75 -26 112t-103 37h-105v-299zM135 917q2 39 15 67t39.5 43t66.5 15q41 0 67.5 -15t39.5 -43t14 -67
h-47q-1 45 -20.5 62.5t-53.5 17.5q-33 0 -52.5 -18t-21.5 -62h-47z" />
    <glyph glyph-name="uni0213" unicode="&#x213;" horiz-adv-x="297" 
d="M61 0v578h74v-79q28 46 64 65.5t69 19.5h6t7 -1v-78q-7 3 -17 4.5t-19 1.5q-34 0 -61.5 -16t-48.5 -51v-444h-74zM49 685q2 39 15 67t39.5 43t66.5 15q41 0 67.5 -15t39.5 -43t14 -67h-47q-1 45 -20.5 62.5t-53.5 17.5q-33 0 -52.5 -18t-21.5 -62h-47z" />
    <glyph glyph-name="uni0214" unicode="&#x214;" horiz-adv-x="537" 
d="M269 -10q-82 0 -127.5 29.5t-62.5 82t-17 119.5v589h74v-591q0 -47 10.5 -85.5t39.5 -60.5t83 -22q52 0 81 22.5t40.5 60.5t11.5 85v591h73v-589q0 -67 -18 -119.5t-63 -82t-125 -29.5zM194 886l-96 156h78l56 -156h-38zM303 886l-69 156h65l41 -156h-37z" />
    <glyph glyph-name="uni0215" unicode="&#x215;" horiz-adv-x="412" 
d="M141 -9q-29 0 -49 15t-30.5 42t-10.5 66v464h74v-448q0 -45 13.5 -63t41.5 -18q26 0 52.5 16t49.5 41v472h73v-578h-73v64q-28 -32 -64 -52.5t-77 -20.5zM131 654l-96 156h78l56 -156h-38zM240 654l-69 156h65l41 -156h-37z" />
    <glyph glyph-name="uni0216" unicode="&#x216;" horiz-adv-x="537" 
d="M269 -10q-82 0 -127.5 29.5t-62.5 82t-17 119.5v589h74v-591q0 -47 10.5 -85.5t39.5 -60.5t83 -22q52 0 81 22.5t40.5 60.5t11.5 85v591h73v-589q0 -67 -18 -119.5t-63 -82t-125 -29.5zM148 917q2 39 15 67t39.5 43t66.5 15q41 0 67.5 -15t39.5 -43t14 -67h-47
q-1 45 -20.5 62.5t-53.5 17.5q-33 0 -52.5 -18t-21.5 -62h-47z" />
    <glyph glyph-name="uni0217" unicode="&#x217;" horiz-adv-x="412" 
d="M141 -9q-29 0 -49 15t-30.5 42t-10.5 66v464h74v-448q0 -45 13.5 -63t41.5 -18q26 0 52.5 16t49.5 41v472h73v-578h-73v64q-28 -32 -64 -52.5t-77 -20.5zM85 685q2 39 15 67t39.5 43t66.5 15q41 0 67.5 -15t39.5 -43t14 -67h-47q-1 45 -20.5 62.5t-53.5 17.5
q-33 0 -52.5 -18t-21.5 -62h-47z" />
    <glyph glyph-name="uni0218" unicode="&#x218;" horiz-adv-x="460" 
d="M243 -10q-66 0 -109.5 27.5t-65.5 77t-27 115.5l67 20q5 -50 18 -90.5t41 -64t77 -23.5q54 0 84 28t30 89q0 54 -26.5 93t-72.5 82l-143 137q-38 37 -56 76.5t-18 86.5q0 84 50 129t133 45q43 0 77.5 -11t59 -35.5t38.5 -63.5t19 -95l-65 -17q-4 51 -16.5 87.5t-39 55.5
t-73.5 19q-50 0 -82 -26t-32 -81q0 -33 12.5 -60t44.5 -58l143 -135q48 -45 83 -100t35 -124q0 -61 -23.5 -102t-65.5 -61.5t-97 -20.5zM205 -258l-18 33q28 12 37.5 33.5t9.5 42.5h-43v88h82l-1 -77q0 -49 -13 -78.5t-54 -41.5z" />
    <glyph glyph-name="uni0219" unicode="&#x219;" horiz-adv-x="363" 
d="M188 -9q-69 0 -110 44.5t-47 119.5l61 19q6 -67 31 -97.5t70 -30.5q38 0 58.5 21.5t20.5 60.5q0 28 -17 56.5t-53 59.5l-79 68q-39 33 -59 66t-20 79q0 42 17.5 70.5t48.5 44t72 15.5q66 0 100 -42.5t37 -109.5l-52 -17q-2 39 -12 64.5t-27.5 37.5t-42.5 12
q-33 0 -53.5 -18.5t-20.5 -51.5q0 -26 10 -46t37 -45l82 -73q24 -21 46 -45t36 -53.5t14 -69.5q0 -45 -18.5 -75.5t-51.5 -47t-78 -16.5zM156 -258l-18 33q28 12 37.5 33.5t9.5 42.5h-43v88h82l-1 -77q0 -49 -13 -78.5t-54 -41.5z" />
    <glyph glyph-name="uni021A" unicode="&#x21a;" horiz-adv-x="409" 
d="M171 0v751h-153v59h378v-59h-149v-751h-76zM179 -258l-18 33q28 12 37.5 33.5t9.5 42.5h-43v88h82l-1 -77q0 -49 -13 -78.5t-54 -41.5z" />
    <glyph glyph-name="uni021B" unicode="&#x21b;" horiz-adv-x="280" 
d="M193 -7q-42 0 -64.5 16.5t-31 45t-8.5 65.5v410h-71v48h71v179h73v-179h96v-48h-96v-403q0 -42 9.5 -59.5t41.5 -17.5q9 0 20.5 1.5t21.5 3.5v-56q-15 -3 -31 -4.5t-31 -1.5zM168 -258l-18 33q28 12 37.5 33.5t9.5 42.5h-43v88h82l-1 -77q0 -49 -13 -78.5t-54 -41.5z" />
    <glyph glyph-name="uni021E" unicode="&#x21e;" horiz-adv-x="549" 
d="M70 0v810h77v-359h255v359h76v-810h-76v394h-255v-394h-77zM242 875l-85 167h59l59 -120l59 120h59l-86 -167h-65z" />
    <glyph glyph-name="uni021F" unicode="&#x21f;" horiz-adv-x="412" 
d="M57 0v810h73v-293q29 31 64 50.5t77 19.5q29 0 48.5 -14.5t30 -42t10.5 -66.5v-464h-74v448q0 45 -13.5 63.5t-41.5 18.5q-25 0 -51.5 -15.5t-49.5 -39.5v-475h-73zM223 809l-85 167h59l59 -120l59 120h59l-86 -167h-65z" />
    <glyph glyph-name="uni022A" unicode="&#x22a;" horiz-adv-x="525" 
d="M263 -10q-81 0 -126.5 31.5t-64 88t-18.5 129.5v336q0 74 19.5 128.5t65 84.5t124.5 30q78 0 123.5 -30t64.5 -84.5t19 -128.5v-337q0 -73 -18.5 -128.5t-63.5 -87.5t-125 -32zM263 51q53 0 81 21.5t38.5 60t10.5 89.5v367q0 51 -10.5 89t-38.5 58.5t-81 20.5
q-54 0 -82.5 -20.5t-39 -58.5t-10.5 -89v-367q0 -51 10.5 -89.5t39 -60t82.5 -21.5zM308 953v89h75v-89h-75zM143 953v89h75v-89h-75zM173 1158v50h180v-50h-180z" />
    <glyph glyph-name="uni022B" unicode="&#x22b;" horiz-adv-x="399" 
d="M199 -9q-59 0 -92.5 25.5t-47.5 74t-14 118.5v160q0 70 14 118.5t47.5 74t92.5 25.5q61 0 94 -25.5t47 -74t14 -118.5v-160q0 -70 -14 -118.5t-47 -74t-94 -25.5zM199 46q38 0 55.5 20t21.5 56.5t4 82.5v168q0 47 -4 82.5t-21.5 56t-55.5 20.5t-55 -20.5t-21 -56
t-4 -82.5v-168q0 -46 4 -82.5t21 -56.5t55 -20zM246 721v89h75v-89h-75zM81 721v89h75v-89h-75zM110 926v50h180v-50h-180z" />
    <glyph glyph-name="uni022C" unicode="&#x22c;" horiz-adv-x="525" 
d="M263 -10q-81 0 -126.5 31.5t-64 88t-18.5 129.5v336q0 74 19.5 128.5t65 84.5t124.5 30q78 0 123.5 -30t64.5 -84.5t19 -128.5v-337q0 -73 -18.5 -128.5t-63.5 -87.5t-125 -32zM263 51q53 0 81 21.5t38.5 60t10.5 89.5v367q0 51 -10.5 89t-38.5 58.5t-81 20.5
q-54 0 -82.5 -20.5t-39 -58.5t-10.5 -89v-367q0 -51 10.5 -89.5t39 -60t82.5 -21.5zM324 924q-24 0 -43 12t-35.5 24t-34.5 12q-16 0 -24.5 -10t-8.5 -30h-45q0 17 5.5 37.5t20.5 35.5t43 15q24 0 43 -11.5t36 -23.5t35 -12q17 0 25 9.5t8 33.5h44q0 -18 -4.5 -39.5
t-19.5 -37t-45 -15.5zM173 1162v50h180v-50h-180z" />
    <glyph glyph-name="uni022D" unicode="&#x22d;" horiz-adv-x="399" 
d="M199 -9q-59 0 -92.5 25.5t-47.5 74t-14 118.5v160q0 70 14 118.5t47.5 74t92.5 25.5q61 0 94 -25.5t47 -74t14 -118.5v-160q0 -70 -14 -118.5t-47 -74t-94 -25.5zM199 46q38 0 55.5 20t21.5 56.5t4 82.5v168q0 47 -4 82.5t-21.5 56t-55.5 20.5t-55 -20.5t-21 -56
t-4 -82.5v-168q0 -46 4 -82.5t21 -56.5t55 -20zM261 692q-24 0 -43 12t-35.5 24t-34.5 12q-16 0 -24.5 -10t-8.5 -30h-45q0 17 5.5 37.5t20.5 35.5t43 15q24 0 43 -11.5t36 -23.5t35 -12q17 0 25 9.5t8 33.5h44q0 -18 -4.5 -39.5t-19.5 -37t-45 -15.5zM110 930v50h180v-50
h-180z" />
    <glyph glyph-name="uni0230" unicode="&#x230;" horiz-adv-x="525" 
d="M263 -10q-81 0 -126.5 31.5t-64 88t-18.5 129.5v336q0 74 19.5 128.5t65 84.5t124.5 30q78 0 123.5 -30t64.5 -84.5t19 -128.5v-337q0 -73 -18.5 -128.5t-63.5 -87.5t-125 -32zM263 51q53 0 81 21.5t38.5 60t10.5 89.5v367q0 51 -10.5 89t-38.5 58.5t-81 20.5
q-54 0 -82.5 -20.5t-39 -58.5t-10.5 -89v-367q0 -51 10.5 -89.5t39 -60t82.5 -21.5zM224 906v110h78v-110h-78zM173 1132v50h180v-50h-180z" />
    <glyph glyph-name="uni0231" unicode="&#x231;" horiz-adv-x="399" 
d="M199 -9q-59 0 -92.5 25.5t-47.5 74t-14 118.5v160q0 70 14 118.5t47.5 74t92.5 25.5q61 0 94 -25.5t47 -74t14 -118.5v-160q0 -70 -14 -118.5t-47 -74t-94 -25.5zM199 46q38 0 55.5 20t21.5 56.5t4 82.5v168q0 47 -4 82.5t-21.5 56t-55.5 20.5t-55 -20.5t-21 -56
t-4 -82.5v-168q0 -46 4 -82.5t21 -56.5t55 -20zM161 674v110h78v-110h-78zM110 900v50h180v-50h-180z" />
    <glyph glyph-name="uni0232" unicode="&#x232;" horiz-adv-x="469" 
d="M200 0v269l-183 541h74l146 -450l140 450h75l-178 -541v-269h-74zM145 926v50h180v-50h-180z" />
    <glyph glyph-name="uni0233" unicode="&#x233;" horiz-adv-x="381" 
d="M40 -144v57q50 0 75.5 7.5t34 21t8.5 31.5q0 16 -6 42t-13 54l-119 509h73l100 -492l97 492h74l-140 -619q-8 -37 -28.5 -59.5t-54 -33t-82.5 -10.5h-19zM101 694v50h180v-50h-180z" />
    <glyph glyph-name="uni0237" unicode="&#x237;" horiz-adv-x="213" 
d="M22 -152q-7 0 -20 1t-19 3v56q3 -1 12.5 -1.5t12.5 -0.5q31 0 45.5 11.5t19 30t4.5 38.5v592h73v-598q0 -69 -34 -100.5t-94 -31.5z" />
    <glyph glyph-name="uni0259" unicode="&#x259;" horiz-adv-x="395" 
d="M193 -10q-60 0 -92.5 25.5t-45 78.5t-12.5 134v52h234v101q0 54 -8 87.5t-25.5 48.5t-49.5 15q-22 0 -40 -8.5t-28.5 -32.5t-10.5 -70v-40h-72v32q0 79 33.5 126.5t117.5 47.5q54 0 88.5 -21.5t51 -71t16.5 -133.5v-148q0 -85 -17 -133.5t-51.5 -69t-88.5 -20.5zM194 44
q30 0 48 13t26.5 47t8.5 95v39h-162v-47q0 -45 5 -78.5t22 -51t52 -17.5z" />
    <glyph glyph-name="uni0292" unicode="&#x292;" horiz-adv-x="422" 
d="M201 -196q-63 0 -103 24.5t-58.5 69t-18.5 103.5v20h71v-8v-9q0 -64 24.5 -102t84.5 -38q39 0 65 17t39.5 54.5t13.5 99.5q0 60 -11.5 103.5t-39 66.5t-76.5 23h-101v51l205 279l30 -36h-272v56h302v-44l-197 -271l-16 21h52q73 0 116.5 -30.5t63 -86.5t19.5 -132
q0 -68 -19.5 -120.5t-62 -81.5t-111.5 -29z" />
    <glyph glyph-name="uni02BC" unicode="&#x2bc;" horiz-adv-x="286" 
d="M19 573v237h71l-31 -237h-40z" />
    <glyph glyph-name="circumflex" unicode="&#x2c6;" horiz-adv-x="329" 
d="M37 625l86 185h82l86 -185h-55l-72 148l-73 -148h-54z" />
    <glyph glyph-name="caron" unicode="&#x2c7;" horiz-adv-x="300" 
d="M118 643l-85 167h59l59 -120l59 120h59l-87 -167h-64z" />
    <glyph glyph-name="uni02C9" unicode="&#x2c9;" horiz-adv-x="326" 
d="M74 763v47h178v-47h-178z" />
    <glyph glyph-name="breve" unicode="&#x2d8;" horiz-adv-x="355" 
d="M178 685q-41 0 -67 15t-39 43t-14 67h46q1 -45 21 -63t53 -18t53 18.5t21 62.5h47q0 -39 -13.5 -67t-40 -43t-67.5 -15z" />
    <glyph glyph-name="dotaccent" unicode="&#x2d9;" horiz-adv-x="169" 
d="M44 651v98h81v-98h-81z" />
    <glyph glyph-name="ring" unicode="&#x2da;" horiz-adv-x="288" 
d="M144 629q-38 0 -66.5 24t-28.5 71q0 48 28.5 71.5t66.5 23.5q39 0 67.5 -23.5t28.5 -71.5q0 -47 -28.5 -71t-67.5 -24zM144 669q23 0 39 13.5t16 41.5q0 30 -16 43t-39 13q-22 0 -38 -13t-16 -43q0 -28 16 -41.5t38 -13.5z" />
    <glyph glyph-name="ogonek" unicode="&#x2db;" horiz-adv-x="315" 
d="M195 -212q-24 0 -45 4.5t-37 14t-24.5 25.5t-8.5 38q0 27 13 52t33.5 45.5t44.5 32.5h39q-19 -18 -35.5 -38t-27 -41t-10.5 -42q0 -30 22.5 -41t52.5 -11q6 0 12 0.5t11 1.5l-11 -39q-5 -1 -13 -1.5t-16 -0.5z" />
    <glyph glyph-name="tilde" unicode="&#x2dc;" horiz-adv-x="386" 
d="M244 718q-20 1 -39 12t-35.5 22.5t-29.5 12.5q-15 3 -24 -6.5t-9 -32.5h-45q0 13 3 28.5t11.5 30t24 23t40.5 5.5q20 -1 39.5 -12t36.5 -22t29 -13q15 -1 23 9t9 35h44q0 -19 -5.5 -41t-22.5 -37.5t-50 -13.5z" />
    <glyph glyph-name="hungarumlaut" unicode="&#x2dd;" horiz-adv-x="345" 
d="M157 657l55 160h79l-94 -160h-40zM54 657l39 160h66l-66 -160h-39z" />
    <glyph glyph-name="gravecomb" unicode="&#x300;" 
d="M-19 626l-92 196h74l55 -196h-37z" />
    <glyph glyph-name="acutecomb" unicode="&#x301;" 
d="M-19 626l63 196h73l-98 -196h-38z" />
    <glyph glyph-name="uni0302" unicode="&#x302;" 
d="M-33 632l86 178h82l85 -178h-54l-73 141l-72 -141h-54z" />
    <glyph glyph-name="tildecomb" unicode="&#x303;" 
d="M61 692q-24 0 -43 12t-35.5 24t-34.5 12q-16 0 -24.5 -10t-8.5 -30h-45q0 17 5.5 37.5t20.5 35.5t43 15q24 0 43 -11.5t36 -23.5t35 -12q17 0 25 9.5t8 33.5h44q0 -18 -4.5 -39.5t-19.5 -37t-45 -15.5z" />
    <glyph glyph-name="uni0304" unicode="&#x304;" 
d="M-90 694v50h180v-50h-180z" />
    <glyph glyph-name="uni0306" unicode="&#x306;" 
d="M-1 640q-58 0 -88 31.5t-32 88.5h47q1 -40 20.5 -58t52.5 -18q34 0 53.5 18t21.5 58h46q-1 -57 -31.5 -88.5t-89.5 -31.5z" />
    <glyph glyph-name="uni0307" unicode="&#x307;" 
d="M-39 674v110h78v-110h-78z" />
    <glyph glyph-name="uni0308" unicode="&#x308;" 
d="M45 721v89h75v-89h-75zM-120 721v89h75v-89h-75z" />
    <glyph glyph-name="hookabovecomb" unicode="&#x309;" 
d="M0 651l-27 29q26 13 40.5 26t14.5 30q0 19 -13.5 27.5t-38.5 8.5q-11 0 -22.5 -1.5t-24.5 -4.5v38q32 7 64 7q28 0 48 -7.5t31 -23t11 -39.5q0 -23 -11 -39.5t-30 -28.5t-42 -22z" />
    <glyph glyph-name="uni030A" unicode="&#x30a;" 
d="M0 629q-38 0 -67 24t-29 71q0 48 29 71.5t67 23.5q39 0 67.5 -23.5t28.5 -71.5q0 -47 -28.5 -71t-67.5 -24zM0 669q22 0 38.5 13.5t16.5 41.5q0 30 -16.5 43t-38.5 13q-23 0 -39 -13t-16 -43q0 -28 16 -41.5t39 -13.5z" />
    <glyph glyph-name="uni030B" unicode="&#x30b;" 
d="M38 657l55 160h79l-94 -160h-40zM-65 657l39 160h66l-66 -160h-39z" />
    <glyph glyph-name="uni030C" unicode="&#x30c;" 
d="M61 643l-85 167h59l59 -120l59 120h59l-86 -167h-65z" />
    <glyph glyph-name="uni030F" unicode="&#x30f;" 
d="M-75 654l-96 156h78l56 -156h-38zM34 654l-69 156h65l41 -156h-37z" />
    <glyph glyph-name="uni0311" unicode="&#x311;" 
d="M-121 685q2 39 15 67t39.5 43t66.5 15q41 0 67.5 -15t39.5 -43t14 -67h-47q-1 45 -20.5 62.5t-53.5 17.5q-33 0 -52.5 -18t-21.5 -62h-47z" />
    <glyph glyph-name="uni0312" unicode="&#x312;" 
d="M25 837l18 -33q-28 -12 -37.5 -33.5t-9.5 -42.5h43v-88h-82l1 77q0 49 13 78.5t54 41.5z" />
    <glyph glyph-name="uni031B" unicode="&#x31b;" 
d="M-10 536v42h10q30 0 42 17t12 50h57q0 -55 -28.5 -82t-80.5 -27h-12z" />
    <glyph glyph-name="dotbelowcomb" unicode="&#x323;" 
d="M-39 -150v89h78v-89h-78z" />
    <glyph glyph-name="uni0324" unicode="&#x324;" 
d="M45 -150v89h75v-89h-75zM-120 -150v89h75v-89h-75z" />
    <glyph glyph-name="uni0326" unicode="&#x326;" 
d="M-25 -258l-18 33q28 12 37.5 33.5t9.5 42.5h-43v88h82l-1 -77q0 -49 -13 -78.5t-54 -41.5z" />
    <glyph glyph-name="uni0327" unicode="&#x327;" 
d="M0 -204q-10 0 -21 1.5t-22 3.5v38q8 -2 16.5 -3t16.5 -1q31 0 48 9.5t17 31.5q0 16 -8.5 26t-25 16.5t-40.5 9.5v72h38v-50q46 -2 69 -22t23 -53q0 -26 -13.5 -44t-38.5 -26.5t-59 -8.5z" />
    <glyph glyph-name="uni0328" unicode="&#x328;" 
d="M5 -212q-24 0 -45 4.5t-37 14t-24.5 25.5t-8.5 38q0 27 13 52t33.5 45.5t44.5 32.5h39q-19 -18 -35.5 -38t-27 -41t-10.5 -42q0 -30 22.5 -41t52.5 -11q6 0 12 0.5t11 1.5l-11 -39q-5 -1 -13 -1.5t-16 -0.5z" />
    <glyph glyph-name="uni032E" unicode="&#x32e;" 
d="M-1 -236q-58 0 -88 31.5t-32 88.5h47q1 -40 20.5 -58t52.5 -18q34 0 53.5 18t21.5 58h46q-1 -57 -31.5 -88.5t-89.5 -31.5z" />
    <glyph glyph-name="uni0331" unicode="&#x331;" 
d="M-90 -181v50h180v-50h-180z" />
    <glyph glyph-name="uni0335" unicode="&#x335;" 
d="M-90 343v47h179v-47h-179z" />
    <glyph glyph-name="Pi" unicode="&#x3a0;" horiz-adv-x="560" 
d="M70 0v810h420v-810h-74v753h-273v-753h-73z" />
    <glyph glyph-name="pi" unicode="&#x3c0;" horiz-adv-x="467" 
d="M422 -5q-53 0 -82 15.5t-40.5 48t-11.5 82.5v381h-138v-522h-73v522h-62v56h419v-56h-72v-363q0 -43 4 -65.5t19 -31t44 -8.5z" />
    <glyph glyph-name="uni0400" unicode="&#x400;" horiz-adv-x="398" 
d="M70 0v810h293v-59h-216v-304h176v-56h-176v-334h218v-57h-295zM201 858l-92 196h74l55 -196h-37z" />
    <glyph glyph-name="uni0401" unicode="&#x401;" horiz-adv-x="398" 
d="M70 0v810h293v-59h-216v-304h176v-56h-176v-334h218v-57h-295zM265 953v89h75v-89h-75zM100 953v89h75v-89h-75z" />
    <glyph glyph-name="uni0402" unicode="&#x402;" horiz-adv-x="508" 
d="M124 0v751h-136v59h357v-59h-146v-313q18 17 47.5 27.5t61.5 10.5q38 0 73 -15.5t58 -50t23 -91.5v-124q0 -68 -20.5 -111t-61 -63.5t-101.5 -20.5h-12v57q48 0 74.5 17t37 48.5t10.5 73.5v124q0 47 -26 74.5t-70 27.5q-23 0 -47 -8t-47 -23v-391h-75z" />
    <glyph glyph-name="uni0403" unicode="&#x403;" horiz-adv-x="375" 
d="M71 0v810h287v-59h-211v-751h-76zM169 858l63 196h73l-98 -196h-38z" />
    <glyph glyph-name="uni0404" unicode="&#x404;" horiz-adv-x="490" 
d="M259 -10q-82 0 -126.5 34t-61.5 91.5t-17 127.5v322q0 75 17.5 132t62.5 89t125 32q73 0 114.5 -28t59.5 -79.5t18 -122.5v-30h-72v28q0 53 -8.5 91t-34.5 59t-76 21q-55 0 -82.5 -22.5t-37 -63.5t-9.5 -95v-124h205v-55h-205v-166q0 -60 11.5 -100t39.5 -60t78 -20
q51 0 76.5 22t34 61.5t8.5 92.5v38h72v-33q0 -71 -16.5 -125.5t-58 -85.5t-117.5 -31z" />
    <glyph glyph-name="uni0405" unicode="&#x405;" horiz-adv-x="460" 
d="M243 -10q-66 0 -109.5 27.5t-65.5 77t-27 115.5l67 20q5 -50 18 -90.5t41 -64t77 -23.5q54 0 84 28t30 89q0 54 -26.5 93t-72.5 82l-143 137q-38 37 -56 76.5t-18 86.5q0 84 50 129t133 45q43 0 77.5 -11t59 -35.5t38.5 -63.5t19 -95l-65 -17q-4 51 -16.5 87.5t-39 55.5
t-73.5 19q-50 0 -82 -26t-32 -81q0 -33 12.5 -60t44.5 -58l143 -135q48 -45 83 -100t35 -124q0 -61 -23.5 -102t-65.5 -61.5t-97 -20.5z" />
    <glyph glyph-name="uni0406" unicode="&#x406;" horiz-adv-x="222" 
d="M73 0v810h76v-810h-76z" />
    <glyph glyph-name="uni0407" unicode="&#x407;" horiz-adv-x="222" 
d="M73 0v810h76v-810h-76zM157 953v89h75v-89h-75zM-8 953v89h75v-89h-75z" />
    <glyph glyph-name="uni0408" unicode="&#x408;" horiz-adv-x="279" 
d="M8 -35v57q42 0 66.5 5.5t37 20.5t16.5 43t4 72v647h76v-651q0 -67 -12 -110t-47 -63.5t-104 -20.5h-37z" />
    <glyph glyph-name="uni0409" unicode="&#x409;" horiz-adv-x="820" 
d="M35 -2l-17 1v58q37 -1 60 11.5t36.5 44.5t21.5 90.5t15 147.5l31 459h315v-340h60q80 0 131.5 -24.5t76.5 -76.5t25 -137q0 -55 -13 -98t-40.5 -73t-71 -45.5t-105.5 -15.5h-139v752h-170l-29 -401q-6 -95 -16.5 -162.5t-30 -110t-53.5 -62t-87 -18.5zM497 58h65
q56 0 89.5 17.5t49 56.5t15.5 101q0 88 -34 133.5t-122 45.5h-63v-354z" />
    <glyph glyph-name="uni040A" unicode="&#x40a;" horiz-adv-x="761" 
d="M71 0v810h76v-342h219v342h77v-340h60q79 0 130.5 -24.5t76.5 -76.5t25 -137q0 -55 -12.5 -98t-40.5 -73t-71.5 -45.5t-104.5 -15.5h-140v412h-219v-412h-76zM443 58h64q56 0 89.5 17.5t49 56.5t15.5 101q0 88 -34 133.5t-121 45.5h-63v-354z" />
    <glyph glyph-name="uni040B" unicode="&#x40b;" horiz-adv-x="560" 
d="M140 0v751h-145v59h373v-59h-150v-316q32 8 61 12.5t56 4.5q83 0 128.5 -42.5t45.5 -137.5v-272h-77v272q0 49 -13.5 76.5t-38 39t-59.5 11.5q-27 0 -53.5 -4.5t-49.5 -11.5v-383h-78z" />
    <glyph glyph-name="uni040C" unicode="&#x40c;" horiz-adv-x="484" 
d="M70 0v810h77v-372h57l166 372h77l-176 -390l203 -420h-77l-192 397h-58v-397h-77zM223 858l63 196h73l-98 -196h-38z" />
    <glyph glyph-name="uni040D" unicode="&#x40d;" horiz-adv-x="529" 
d="M70 0v810h68v-642l262 642h59v-810h-68v645l-261 -645h-60zM251 858l-92 196h74l55 -196h-37z" />
    <glyph glyph-name="uni040E" unicode="&#x40e;" horiz-adv-x="452" 
d="M58 -104l1 59q50 -2 78.5 4t41.5 22.5t17 46t5 74.5l-173 708h74l83 -363l54 -261l47 261l74 363h74l-155 -712q-10 -48 -18 -83.5t-19.5 -59t-33 -37.5t-57.5 -19t-93 -3zM225 872q-58 0 -88 31.5t-32 88.5h47q1 -40 20.5 -58t52.5 -18q34 0 53.5 18t21.5 58h46
q-1 -57 -31.5 -88.5t-89.5 -31.5z" />
    <glyph glyph-name="uni040F" unicode="&#x40f;" horiz-adv-x="525" 
d="M239 -139l-6 139h-162v810h76v-753h231v753h76v-810h-151l-6 -139h-58z" />
    <glyph glyph-name="uni0410" unicode="&#x410;" horiz-adv-x="477" 
d="M27 0l171 810h80l172 -810h-75l-40 217h-193l-41 -217h-74zM153 272h172l-86 437z" />
    <glyph glyph-name="uni0411" unicode="&#x411;" horiz-adv-x="479" 
d="M70 0v810h325v-57h-248v-283h65q80 0 131.5 -24.5t76.5 -76.5t25 -137q0 -55 -13 -98t-40.5 -73t-71 -45.5t-105.5 -15.5h-145zM147 58h69q56 0 89.5 17.5t49 56.5t15.5 101q0 88 -33.5 133.5t-121.5 45.5h-68v-354z" />
    <glyph glyph-name="uni0412" unicode="&#x412;" horiz-adv-x="502" 
d="M71 0v810h174q55 0 93 -14t61 -41t33.5 -64.5t10.5 -82.5q0 -39 -9.5 -75.5t-31.5 -62t-62 -33.5q47 -13 74 -44.5t37.5 -73t10.5 -85.5q0 -48 -8.5 -90.5t-30 -74.5t-58.5 -50.5t-94 -18.5h-200zM147 57h109q79 0 105.5 43t26.5 134q0 49 -12 87t-40.5 59.5t-77.5 21.5
h-111v-345zM147 461h110q47 0 72 18.5t35 51t10 77.5q0 49 -13.5 81t-46.5 47t-95 15h-72v-290z" />
    <glyph glyph-name="uni0413" unicode="&#x413;" horiz-adv-x="375" 
d="M71 0v810h287v-59h-211v-751h-76z" />
    <glyph glyph-name="uni0414" unicode="&#x414;" horiz-adv-x="588" 
d="M10 -139v196h32q19 13 35.5 29t30 45t25 79.5t21.5 132.5t18 205l18 262h305v-753h66v-196h-60l-7 139h-417l-7 -139h-60zM119 57h300v695h-162l-15 -221q-7 -122 -17 -201.5t-21 -128t-24.5 -75.5t-28.5 -41.5t-32 -27.5z" />
    <glyph glyph-name="uni0415" unicode="&#x415;" horiz-adv-x="398" 
d="M70 0v810h293v-59h-216v-304h176v-56h-176v-334h218v-57h-295z" />
    <glyph glyph-name="uni0416" unicode="&#x416;" horiz-adv-x="637" 
d="M15 0l200 420l-181 390h74l170 -387h7v387h67v-387h7l171 387h74l-182 -390l201 -420h-75l-186 409h-10v-409h-67v409h-9l-186 -409h-75z" />
    <glyph glyph-name="uni0417" unicode="&#x417;" horiz-adv-x="468" 
d="M239 -10q-63 0 -103 24.5t-59 68.5t-19 104v20h71v-11.5t1 -11.5q1 -63 25.5 -98.5t83.5 -35.5q38 0 64.5 16.5t40 54t13.5 99.5q0 74 -30.5 122t-108.5 51q-2 1 -11.5 1h-19h-12.5v57h12.5h19h10.5q78 3 109 43.5t31 121.5q0 63 -26 103t-89 40q-60 0 -90 -32.5
t-32 -103.5v-9v-10h-72v19q0 60 20 103.5t62.5 67.5t108.5 24q64 0 106.5 -26t64 -71.5t21.5 -105.5q0 -84 -33 -131.5t-84 -59.5q30 -9 56.5 -32t43.5 -65t17 -106q0 -69 -19 -121t-61.5 -81t-111.5 -29z" />
    <glyph glyph-name="uni0418" unicode="&#x418;" horiz-adv-x="529" 
d="M70 0v810h68v-642l262 642h59v-810h-68v645l-261 -645h-60z" />
    <glyph glyph-name="uni0419" unicode="&#x419;" horiz-adv-x="529" 
d="M70 0v810h68v-642l262 642h59v-810h-68v645l-261 -645h-60zM269 872q-58 0 -88 31.5t-32 88.5h47q1 -40 20.5 -58t52.5 -18q34 0 53.5 18t21.5 58h46q-1 -57 -31.5 -88.5t-89.5 -31.5z" />
    <glyph glyph-name="uni041A" unicode="&#x41a;" horiz-adv-x="484" 
d="M70 0v810h77v-372h57l166 372h77l-176 -390l203 -420h-77l-192 397h-58v-397h-77z" />
    <glyph glyph-name="uni041B" unicode="&#x41b;" horiz-adv-x="566" 
d="M16 -1v58q29 1 49 6.5t33.5 24.5t23 62t18 118t17.5 192l24 350h315v-810h-77v752h-170l-19 -292q-9 -115 -17.5 -195.5t-21.5 -133t-34.5 -82t-55.5 -40.5t-85 -10z" />
    <glyph glyph-name="uni041C" unicode="&#x41c;" horiz-adv-x="643" 
d="M64 0l20 810h76l160 -703l163 703h76l20 -810h-63l-16 645l-155 -645h-49l-153 644l-16 -644h-63z" />
    <glyph glyph-name="uni041D" unicode="&#x41d;" horiz-adv-x="549" 
d="M70 0v810h77v-359h255v359h76v-810h-76v394h-255v-394h-77z" />
    <glyph glyph-name="uni041E" unicode="&#x41e;" horiz-adv-x="525" 
d="M263 -10q-81 0 -126.5 31.5t-64 88t-18.5 129.5v336q0 74 19.5 128.5t65 84.5t124.5 30q78 0 123.5 -30t64.5 -84.5t19 -128.5v-337q0 -73 -18.5 -128.5t-63.5 -87.5t-125 -32zM263 51q53 0 81 21.5t38.5 60t10.5 89.5v367q0 51 -10.5 89t-38.5 58.5t-81 20.5
q-54 0 -82.5 -20.5t-39 -58.5t-10.5 -89v-367q0 -51 10.5 -89.5t39 -60t82.5 -21.5z" />
    <glyph glyph-name="uni041F" unicode="&#x41f;" horiz-adv-x="555" 
d="M71 0v810h414v-810h-76v753h-262v-753h-76z" />
    <glyph glyph-name="uni0420" unicode="&#x420;" horiz-adv-x="483" 
d="M71 0v810h194q73 0 115 -27t59.5 -75t17.5 -113q0 -57 -18.5 -105.5t-61 -77.5t-111.5 -29h-119v-383h-76zM147 440h97q49 0 79.5 14.5t44.5 48.5t14 92q0 62 -12 96.5t-41.5 48t-83.5 13.5h-98v-313z" />
    <glyph glyph-name="uni0421" unicode="&#x421;" horiz-adv-x="499" 
d="M259 -10q-82 0 -126.5 34t-61.5 91.5t-17 127.5v322q0 75 17.5 132t62.5 89t125 32q73 0 114.5 -28t59.5 -79.5t18 -122.5v-49h-72v47q0 53 -8.5 91t-34.5 59t-76 21q-55 0 -82.5 -22.5t-37 -63.5t-9.5 -95v-345q0 -60 11.5 -100t39.5 -60t78 -20q51 0 76.5 22t34 61.5
t8.5 92.5v53h72v-48q0 -71 -16.5 -125.5t-58 -85.5t-117.5 -31z" />
    <glyph glyph-name="uni0422" unicode="&#x422;" horiz-adv-x="414" 
d="M171 0v751h-153v59h378v-59h-149v-751h-76z" />
    <glyph glyph-name="uni0423" unicode="&#x423;" horiz-adv-x="452" 
d="M58 -104l1 59q50 -2 78.5 4t41.5 22.5t17 46t5 74.5l-173 708h74l83 -363l54 -261l47 261l74 363h74l-155 -712q-10 -48 -18 -83.5t-19.5 -59t-33 -37.5t-57.5 -19t-93 -3z" />
    <glyph glyph-name="uni0424" unicode="&#x424;" horiz-adv-x="619" 
d="M270 -48v142q-8 -1 -22 -2t-21 -1q-57 0 -95.5 21t-58 66.5t-19.5 120.5v223q0 75 20 122t58.5 69.5t94.5 22.5q9 0 22 -0.5t21 -1.5v149h77v-148q9 1 24.5 1.5t23.5 0.5q55 0 93 -23t57.5 -70.5t19.5 -121.5v-223q0 -75 -19 -120.5t-55.5 -66.5t-88.5 -21q-14 0 -27.5 1
t-27.5 2v-142h-77zM234 140q7 0 17.5 0.5t18.5 1.5v543q-9 2 -19.5 2h-16.5q-41 0 -64.5 -17t-34 -54t-10.5 -94v-223q0 -57 9.5 -92t33 -51t66.5 -16zM387 140q41 0 64.5 16t33 51t9.5 92v223q0 57 -9.5 94t-33.5 54t-67 17q-7 0 -18 -0.5t-19 -1.5v-543q9 -1 20.5 -1.5
t19.5 -0.5z" />
    <glyph glyph-name="uni0425" unicode="&#x425;" horiz-adv-x="463" 
d="M14 0l175 422l-173 388h71l145 -323l139 323h73l-179 -397l185 -413h-73l-154 342l-136 -342h-73z" />
    <glyph glyph-name="uni0426" unicode="&#x426;" horiz-adv-x="580" 
d="M493 -139l-7 139h-416v810h77v-753h266v753h77v-753h64v-196h-61z" />
    <glyph glyph-name="uni0427" unicode="&#x427;" horiz-adv-x="522" 
d="M374 0v375q-64 -17 -119 -17q-65 0 -110.5 19t-69.5 58.5t-24 102.5v272h77v-272q0 -48 17.5 -76t49 -39.5t74.5 -11.5q27 0 54 4.5t51 12.5v382h77v-810h-77z" />
    <glyph glyph-name="uni0428" unicode="&#x428;" horiz-adv-x="720" 
d="M71 0v810h76v-753h178v753h77v-753h171v753h77v-810h-579z" />
    <glyph glyph-name="uni0429" unicode="&#x429;" horiz-adv-x="741" 
d="M655 -139l-8 139h-577v810h77v-753h178v753h76v-753h172v753h77v-753h65v-196h-60z" />
    <glyph glyph-name="uni042A" unicode="&#x42a;" horiz-adv-x="551" 
d="M148 0v751h-142v59h219v-340h68q79 0 131 -24.5t77 -76.5t25 -137q0 -55 -13 -98t-40.5 -73t-71 -45.5t-105.5 -15.5h-148zM225 58h73q55 0 89 17.5t49.5 56.5t15.5 101q0 88 -34 133.5t-122 45.5h-71v-354z" />
    <glyph glyph-name="uni042B" unicode="&#x42b;" horiz-adv-x="691" 
d="M70 0v810h77v-340h69q79 0 130.5 -24.5t76.5 -76.5t25 -137q0 -55 -12.5 -98t-40.5 -73t-71.5 -45.5t-104.5 -15.5h-149zM147 58h72q56 0 90 17.5t49.5 56.5t15.5 101q0 88 -34 133.5t-121 45.5h-72v-354zM545 0v810h76v-810h-76z" />
    <glyph glyph-name="uni042C" unicode="&#x42c;" horiz-adv-x="473" 
d="M71 0v810h76v-340h69q79 0 130.5 -24.5t76.5 -76.5t25 -137q0 -55 -12.5 -98t-40.5 -73t-71.5 -45.5t-104.5 -15.5h-148zM147 58h73q56 0 89.5 17.5t49 56.5t15.5 101q0 88 -34 133.5t-121 45.5h-72v-354z" />
    <glyph glyph-name="uni042D" unicode="&#x42d;" horiz-adv-x="506" 
d="M247 -4q-72 0 -114 28t-60 80t-18 122v36h72v-33q0 -52 8.5 -91t34.5 -60t77 -21q55 0 82 23t36.5 64t9.5 95v155h-173v52h173v137q0 60 -11.5 100.5t-39.5 60t-77 19.5q-51 0 -76.5 -22t-34.5 -61t-9 -92v-39h-72v34q0 71 16.5 125.5t58.5 85.5t117 31q82 0 126.5 -34.5
t61.5 -91.5t17 -128v-321q0 -75 -17.5 -132.5t-62 -89.5t-125.5 -32z" />
    <glyph glyph-name="uni042E" unicode="&#x42e;" horiz-adv-x="687" 
d="M432 -10q-78 0 -121.5 32t-61.5 88.5t-18 129.5v140h-88v-380h-72v810h72v-369h88v133q0 74 18 129t62.5 85t120.5 30q77 0 120.5 -30.5t62 -86t18.5 -128.5v-334q0 -73 -18 -129t-61.5 -88t-121.5 -32zM433 51q52 0 80 21.5t39 60t11 89.5v367q0 51 -11 89t-39 58.5
t-81 20.5q-52 0 -80.5 -20.5t-39.5 -58.5t-11 -89v-367q0 -51 10.5 -89.5t39.5 -60t82 -21.5z" />
    <glyph glyph-name="uni042F" unicode="&#x42f;" horiz-adv-x="534" 
d="M19 0l165 367q-59 24 -88 82.5t-29 140.5q0 61 20.5 110.5t70 79.5t134.5 30h172v-810h-77v347h-102q-6 0 -17.5 0.5t-17.5 0.5l-145 -348h-86zM298 403h89v350h-92q-74 0 -114 -37.5t-40 -124.5q0 -94 35.5 -141t121.5 -47z" />
    <glyph glyph-name="uni0430" unicode="&#x430;" horiz-adv-x="397" 
d="M156 -9q-35 0 -61 17.5t-40.5 47t-14.5 64.5q0 44 12.5 75t40 55.5t72 48t108.5 52.5v41q0 53 -6.5 83.5t-22 43.5t-43.5 13q-23 0 -41 -9t-29 -30.5t-11 -59.5v-20l-72 1q1 88 37.5 130.5t119.5 42.5q78 0 109.5 -46.5t31.5 -144.5v-281q0 -15 1 -38.5t2 -44.5t2 -32
h-65q-2 19 -6 42.5t-5 37.5q-12 -35 -42.5 -62t-76.5 -27zM179 53q22 0 40 11t32 26.5t22 31.5v180q-43 -22 -73.5 -40t-49.5 -35t-28 -38.5t-9 -50.5q0 -46 20 -65.5t46 -19.5z" />
    <glyph glyph-name="uni0431" unicode="&#x431;" horiz-adv-x="439" 
d="M221 -9q-43 0 -81 20t-60 62.5t-22 109.5v356q0 75 10 121.5t31.5 72.5t52.5 39q32 15 65.5 21t70 14t76.5 27l13 -61q-37 -18 -74 -25.5t-68.5 -13.5t-57.5 -20q-27 -15 -40.5 -48.5t-13.5 -98.5v-82q12 13 34.5 25t48.5 20t50 8q42 0 73 -21t47.5 -69t16.5 -131v-101
q0 -90 -21.5 -138t-59.5 -67t-91 -20zM227 46q31 1 51 14t30.5 45.5t10.5 91.5v139q0 57 -7.5 89.5t-24.5 46.5t-46 14q-17 0 -37.5 -6.5t-40 -16.5t-32.5 -22v-260q0 -49 12.5 -78.5t34 -43.5t49.5 -13z" />
    <glyph glyph-name="uni0432" unicode="&#x432;" horiz-adv-x="390" 
d="M56 0v578h140q57 0 88.5 -20t45.5 -51.5t14 -67.5q0 -39 -15 -74.5t-59 -50.5q34 -9 52.5 -31.5t26.5 -52.5t8 -63q0 -49 -13 -87t-46 -59t-94 -21h-148zM128 56h63q34 0 54.5 13t30 38.5t9.5 62.5q0 46 -11.5 69.5t-31 32.5t-46.5 9h-68v-225zM128 334h73q34 0 55 25
t21 73q0 45 -22.5 67.5t-66.5 22.5h-60v-188z" />
    <glyph glyph-name="uni0433" unicode="&#x433;" horiz-adv-x="283" 
d="M56 0v578h213v-55h-140v-523h-73z" />
    <glyph glyph-name="uni0434" unicode="&#x434;" horiz-adv-x="470" 
d="M10 -139v189q26 17 46 43.5t35 70.5t25 112t15 167l9 135h241v-525h58v-192h-55l-6 139h-306l-7 -139h-55zM86 53h224v471h-111l-9 -96q-6 -95 -14 -160t-20 -107t-29.5 -67.5t-40.5 -40.5z" />
    <glyph glyph-name="uni0435" unicode="&#x435;" horiz-adv-x="395" 
d="M201 -9q-54 0 -88.5 21.5t-51 71.5t-16.5 133v146q0 86 17 134.5t52 69t88 20.5q61 0 93 -26t44.5 -78.5t12.5 -134.5v-52h-234v-101q0 -56 8.5 -88.5t27 -46.5t47.5 -14q22 0 40 8.5t28.5 33t10.5 69.5v40h71v-32q0 -79 -32.5 -126.5t-117.5 -47.5zM118 338h162v48
q0 46 -5 78.5t-21.5 50t-52.5 17.5q-30 0 -48.5 -13t-26.5 -46.5t-8 -95.5v-39z" />
    <glyph glyph-name="uni0436" unicode="&#x436;" horiz-adv-x="533" 
d="M4 0l163 296l-155 282h71l145 -277h9v277h61v-277h9l144 277h70l-154 -282l162 -296h-68l-154 287h-9v-287h-61v287h-10l-154 -287h-69z" />
    <glyph glyph-name="uni0437" unicode="&#x437;" horiz-adv-x="364" 
d="M183 -10q-36 0 -63 10.5t-45 32.5t-27 54.5t-9 74.5h65q0 -58 19.5 -88.5t61.5 -30.5q29 0 46 14.5t24.5 42t7.5 64.5q0 38 -11 61.5t-38 35.5t-72 12v54q71 0 96 25.5t25 73.5q0 47 -20 76.5t-59 29.5t-62 -24.5t-23 -80.5h-64q0 56 18 91.5t52 52t81 16.5q51 0 82 -22
t45.5 -58t14.5 -77q0 -42 -14 -69.5t-36.5 -41.5t-46.5 -18q25 -6 47.5 -20.5t37 -43.5t14.5 -81q0 -79 -37.5 -122.5t-109.5 -43.5z" />
    <glyph glyph-name="uni0438" unicode="&#x438;" horiz-adv-x="426" 
d="M56 0v578h62v-445l193 445h59v-578h-62v444l-191 -444h-61z" />
    <glyph glyph-name="uni0439" unicode="&#x439;" horiz-adv-x="426" 
d="M56 0v578h62v-445l193 445h59v-578h-62v444l-191 -444h-61zM214 640q-58 0 -88 31.5t-32 88.5h47q1 -40 20.5 -58t52.5 -18q34 0 53.5 18t21.5 58h46q-1 -57 -31.5 -88.5t-89.5 -31.5z" />
    <glyph glyph-name="uni043A" unicode="&#x43a;" horiz-adv-x="388" 
d="M56 0v578h73v-255h41l132 255h76l-141 -279l145 -299h-76l-136 278h-41v-278h-73z" />
    <glyph glyph-name="uni043B" unicode="&#x43b;" horiz-adv-x="458" 
d="M11 -5v56q29 1 47.5 12t30 39.5t19 81.5t13.5 136l18 258h264v-578h-73v522h-127l-14 -202q-7 -98 -17 -161t-28.5 -99t-48 -50.5t-73.5 -14.5h-11z" />
    <glyph glyph-name="uni043C" unicode="&#x43c;" horiz-adv-x="495" 
d="M52 0l5 578h55l135 -397l135 397h57l5 -578h-63l-1 406l-121 -346h-23l-120 344l-1 -404h-63z" />
    <glyph glyph-name="uni043D" unicode="&#x43d;" horiz-adv-x="438" 
d="M56 0v578h73v-252h180v252h74v-578h-74v271h-180v-271h-73z" />
    <glyph glyph-name="uni043E" unicode="&#x43e;" horiz-adv-x="399" 
d="M199 -9q-59 0 -92.5 25.5t-47.5 74t-14 118.5v160q0 70 14 118.5t47.5 74t92.5 25.5q61 0 94 -25.5t47 -74t14 -118.5v-160q0 -70 -14 -118.5t-47 -74t-94 -25.5zM199 46q38 0 55.5 20t21.5 56.5t4 82.5v168q0 47 -4 82.5t-21.5 56t-55.5 20.5t-55 -20.5t-21 -56
t-4 -82.5v-168q0 -46 4 -82.5t21 -56.5t55 -20z" />
    <glyph glyph-name="uni043F" unicode="&#x43f;" horiz-adv-x="420" 
d="M56 0v578h309v-578h-73v521h-163v-521h-73z" />
    <glyph glyph-name="uni0440" unicode="&#x440;" horiz-adv-x="417" 
d="M56 -190v768h73v-48q18 22 45 39.5t66 17.5q42 0 67.5 -19.5t39.5 -52.5t19 -74t5 -84v-122q0 -74 -12 -128.5t-42.5 -85t-84.5 -30.5q-35 0 -60.5 18t-42.5 37v-236h-73zM221 49q33 0 49.5 21t22 62.5t5.5 100.5v124q0 56 -5.5 94.5t-22.5 58.5t-51 20q-28 0 -51.5 -15
t-38.5 -30v-394q16 -17 39.5 -29.5t52.5 -12.5z" />
    <glyph glyph-name="uni0441" unicode="&#x441;" horiz-adv-x="389" 
d="M200 -9q-68 0 -101 30t-43.5 81.5t-10.5 116.5v135q0 80 13 131.5t46.5 76.5t95.5 25q61 0 93 -23t43 -65t11 -97v-28h-68v28q0 51 -7.5 79t-25 39.5t-46.5 11.5q-34 0 -52 -16t-24 -52.5t-6 -97.5v-162q0 -87 17 -122.5t66 -35.5q34 0 51 15.5t22 46.5t5 77v32h68v-28
q0 -58 -10.5 -102.5t-42.5 -70t-94 -25.5z" />
    <glyph glyph-name="uni0442" unicode="&#x442;" horiz-adv-x="335" 
d="M132 0v522h-125v56h321v-56h-123v-522h-73z" />
    <glyph glyph-name="uni0443" unicode="&#x443;" horiz-adv-x="381" 
d="M40 -144v57q50 0 75.5 7.5t34 21t8.5 31.5q0 16 -6 42t-13 54l-119 509h73l100 -492l97 492h74l-140 -619q-8 -37 -28.5 -59.5t-54 -33t-82.5 -10.5h-19z" />
    <glyph glyph-name="uni0444" unicode="&#x444;" horiz-adv-x="560" 
d="M246 -190v230h-22q-33 0 -64.5 7.5t-57.5 29t-41.5 63.5t-15.5 110v104q0 60 13 100.5t36.5 64t55 33.5t68.5 10h28v248h68v-248h31q49 0 87.5 -18.5t61 -63.5t22.5 -126v-104q0 -68 -15.5 -110t-41 -63.5t-57.5 -29t-65 -7.5h-23v-230h-68zM226 92h20v420h-27
q-33 0 -57.5 -10t-37.5 -42t-13 -97v-113q0 -69 14.5 -102.5t40.5 -44.5t60 -11zM314 92h19q35 0 61 11t41 44.5t15 102.5v113q0 65 -13.5 97t-38 42t-58.5 10h-26v-420z" />
    <glyph glyph-name="uni0445" unicode="&#x445;" horiz-adv-x="380" 
d="M16 0l137 302l-130 276h72l99 -212l95 212h74l-135 -284l137 -294h-70l-108 227l-101 -227h-70z" />
    <glyph glyph-name="uni0446" unicode="&#x446;" horiz-adv-x="438" 
d="M372 -139l-6 139h-310v578h73v-526h166v526h74v-526h57v-191h-54z" />
    <glyph glyph-name="uni0447" unicode="&#x447;" horiz-adv-x="397" 
d="M267 0v241q-19 -3 -39.5 -6.5t-44.5 -3.5q-41 0 -73.5 12.5t-51 41.5t-18.5 79v214h73v-216q0 -38 20.5 -58t64.5 -20q21 0 36.5 3t32.5 6v285h74v-578h-74z" />
    <glyph glyph-name="uni0448" unicode="&#x448;" horiz-adv-x="579" 
d="M56 0v578h71v-526h127v526h71v-526h127v526h71v-578h-467z" />
    <glyph glyph-name="uni0449" unicode="&#x449;" horiz-adv-x="605" 
d="M526 -139l-7 139h-464v578h71v-526h127v526h71v-526h127v526h71v-526h58v-191h-54z" />
    <glyph glyph-name="uni044A" unicode="&#x44a;" horiz-adv-x="456" 
d="M121 0v523h-123v55h196v-235h36q58 0 96.5 -12.5t60 -35.5t30.5 -54.5t9 -71.5q0 -37 -9 -67.5t-31.5 -53.5t-61.5 -35.5t-100 -12.5h-103zM194 46h30q55 0 84 15t40 43t11 66q0 37 -10 65t-38 45t-85 17h-32v-251z" />
    <glyph glyph-name="uni044B" unicode="&#x44b;" horiz-adv-x="563" 
d="M56 0v578h73v-235h10h16.5h8.5q59 0 97 -12.5t60 -35.5t31 -54.5t9 -71.5q0 -37 -9 -67.5t-31.5 -53.5t-62 -35.5t-100.5 -12.5h-102zM129 46h29q56 0 85 15t40 43t11 66q0 37 -10 65t-38 45t-85 17h-11.5h-20.5v-251zM434 0v578h73v-578h-73z" />
    <glyph glyph-name="uni044C" unicode="&#x44c;" horiz-adv-x="389" 
d="M56 0v578h73v-235h10h16.5h8.5q59 0 97 -12.5t60 -35t31 -54t9 -70.5q0 -37 -9 -68.5t-31.5 -54t-62 -35.5t-100.5 -13h-102zM129 46h29q56 0 85 15.5t40 43t11 66.5q0 37 -10 65t-38 44.5t-85 16.5h-11.5h-20.5v-251z" />
    <glyph glyph-name="uni044D" unicode="&#x44d;" horiz-adv-x="396" 
d="M197 -9q-61 0 -93 22t-43.5 61t-11.5 92v13h68v-12q0 -70 19.5 -95.5t61.5 -25.5q35 0 52 16t22.5 52.5t5.5 97.5v56h-153v45h153v56q0 61 -6.5 95t-23.5 48.5t-50 14.5q-51 0 -66 -32.5t-15 -92.5v-19h-68v16q0 52 11.5 93.5t44 65.5t94.5 24q67 0 99.5 -29t42.5 -80
t10 -119v-130q0 -80 -12.5 -131.5t-46 -76.5t-95.5 -25z" />
    <glyph glyph-name="uni044E" unicode="&#x44e;" horiz-adv-x="536" 
d="M346 -9q-57 0 -88 25.5t-43.5 74t-12.5 118.5v53h-80v-262h-66v578h66v-267h80v58q0 70 12.5 118.5t43.5 74t88 25.5t88 -25.5t43.5 -74t12.5 -118.5v-160q0 -70 -12.5 -118.5t-43.5 -74t-88 -25.5zM346 46q36 0 52.5 20t21 56.5t4.5 82.5v168q0 47 -4.5 82.5t-21 56
t-52.5 20.5t-52.5 -20.5t-21 -56t-4.5 -82.5v-168q0 -46 4.5 -82.5t21 -56.5t52.5 -20z" />
    <glyph glyph-name="uni044F" unicode="&#x44f;" horiz-adv-x="403" 
d="M16 0l114 250q-31 13 -49 37.5t-25.5 56t-7.5 64.5q0 36 8.5 67.5t29.5 54t59.5 35.5t98.5 13h103v-578h-73v234q-23 0 -41.5 0.5t-34.5 2.5l-103 -237h-79zM248 279h10h16v254h-21h-12q-53 0 -80 -16t-36.5 -43.5t-9.5 -65.5q0 -65 29.5 -96.5t103.5 -32.5z" />
    <glyph glyph-name="uni0450" unicode="&#x450;" horiz-adv-x="395" 
d="M201 -9q-54 0 -88.5 21.5t-51 71.5t-16.5 133v146q0 86 17 134.5t52 69t88 20.5q61 0 93 -26t44.5 -78.5t12.5 -134.5v-52h-234v-101q0 -56 8.5 -88.5t27 -46.5t47.5 -14q22 0 40 8.5t28.5 33t10.5 69.5v40h71v-32q0 -79 -32.5 -126.5t-117.5 -47.5zM118 338h162v48
q0 46 -5 78.5t-21.5 50t-52.5 17.5q-30 0 -48.5 -13t-26.5 -46.5t-8 -95.5v-39zM179 626l-92 196h74l55 -196h-37z" />
    <glyph glyph-name="uni0451" unicode="&#x451;" horiz-adv-x="395" 
d="M201 -9q-54 0 -88.5 21.5t-51 71.5t-16.5 133v146q0 86 17 134.5t52 69t88 20.5q61 0 93 -26t44.5 -78.5t12.5 -134.5v-52h-234v-101q0 -56 8.5 -88.5t27 -46.5t47.5 -14q22 0 40 8.5t28.5 33t10.5 69.5v40h71v-32q0 -79 -32.5 -126.5t-117.5 -47.5zM118 338h162v48
q0 46 -5 78.5t-21.5 50t-52.5 17.5q-30 0 -48.5 -13t-26.5 -46.5t-8 -95.5v-39zM244 721v89h75v-89h-75zM79 721v89h75v-89h-75z" />
    <glyph glyph-name="uni0452" unicode="&#x452;" horiz-adv-x="425" 
d="M188 -131v51h16q32 0 51 7.5t29 26t13 51.5t3 84v284q0 37 -15 52t-44 15q-19 0 -39 -5.5t-37 -14t-26 -17.5v-403h-73v810h73v-365q9 8 27 18t44 17.5t56 7.5q33 0 57 -11.5t37 -34.5t13 -56v-285q0 -61 -4.5 -105.5t-20 -72t-47.5 -41t-86 -13.5h-27zM-6 622v46h276
v-46h-276z" />
    <glyph glyph-name="uni0453" unicode="&#x453;" horiz-adv-x="283" 
d="M56 0v578h213v-55h-140v-523h-73zM153 626l63 196h73l-98 -196h-38z" />
    <glyph glyph-name="uni0454" unicode="&#x454;" horiz-adv-x="384" 
d="M200 -9q-67 0 -100 30t-44 81.5t-11 116.5v135q0 80 13 131.5t47 76.5t95 25q62 0 93.5 -22.5t42.5 -63t11 -96.5v-15h-67v14q0 52 -8 79t-25.5 38t-46.5 11q-34 0 -51.5 -16t-23.5 -52.5t-6 -97.5v-47h148v-51h-148v-64q0 -87 16.5 -122.5t65.5 -35.5q35 0 52 14.5
t22 45t5 77.5v19h67v-16q0 -58 -10.5 -102t-42 -68.5t-94.5 -24.5z" />
    <glyph glyph-name="uni0455" unicode="&#x455;" horiz-adv-x="363" 
d="M188 -9q-69 0 -110 44.5t-47 119.5l61 19q6 -67 31 -97.5t70 -30.5q38 0 58.5 21.5t20.5 60.5q0 28 -17 56.5t-53 59.5l-79 68q-39 33 -59 66t-20 79q0 42 17.5 70.5t48.5 44t72 15.5q66 0 100 -42.5t37 -109.5l-52 -17q-2 39 -12 64.5t-27.5 37.5t-42.5 12
q-33 0 -53.5 -18.5t-20.5 -51.5q0 -26 10 -46t37 -45l82 -73q24 -21 46 -45t36 -53.5t14 -69.5q0 -45 -18.5 -75.5t-51.5 -47t-78 -16.5z" />
    <glyph glyph-name="uni0456" unicode="&#x456;" horiz-adv-x="204" 
d="M64 0v578h73v-578h-73zM64 658v99h73v-99h-73z" />
    <glyph glyph-name="uni0457" unicode="&#x457;" horiz-adv-x="198" 
d="M64 0v578h73v-578h-73zM146 721v89h75v-89h-75zM-19 721v89h75v-89h-75z" />
    <glyph glyph-name="uni0458" unicode="&#x458;" horiz-adv-x="213" 
d="M22 -152q-7 0 -20 1t-19 3v56q3 -1 12.5 -1.5t12.5 -0.5q31 0 45.5 11.5t19 30t4.5 38.5v592h73v-598q0 -69 -34 -100.5t-94 -31.5zM77 658v99h73v-99h-73z" />
    <glyph glyph-name="uni0459" unicode="&#x459;" horiz-adv-x="626" 
d="M4 -5v56q39 0 60 21t31.5 74t17.5 150l20 282h263v-256h28q56 0 91 -11t54 -32t26.5 -51t7.5 -68q0 -36 -7.5 -65.5t-27.5 -50.5t-56.5 -32.5t-94.5 -11.5h-93v522h-127l-18 -236q-6 -99 -19 -157t-33.5 -87t-48.5 -38t-66 -9h-8zM396 46h22q51 0 76.5 13.5t33.5 39
t8 61.5t-7.5 62t-32.5 40t-78 14h-22v-230z" />
    <glyph glyph-name="uni045A" unicode="&#x45a;" horiz-adv-x="598" 
d="M56 0v578h73v-253h158v253h73v-256h8.5h15.5h9q56 0 92.5 -11t56 -32t27 -51t7.5 -68q0 -36 -7.5 -65.5t-28 -50.5t-57.5 -32.5t-95 -11.5h-101v273h-158v-273h-73zM360 46h8.5h15h7.5q51 1 76 14t33.5 38.5t8.5 61.5t-7.5 61.5t-32.5 40t-78 14.5h-7.5h-15h-8.5v-230z
" />
    <glyph glyph-name="uni045B" unicode="&#x45b;" horiz-adv-x="425" 
d="M66 0v810h73v-365q9 8 27 18t44 17.5t56 7.5q33 0 57 -11.5t37 -34.5t13 -56v-386h-73v373q0 37 -15 52t-44 15q-17 0 -37.5 -5.5t-38 -14t-26.5 -17.5v-403h-73zM-6 622v46h276v-46h-276z" />
    <glyph glyph-name="uni045C" unicode="&#x45c;" horiz-adv-x="388" 
d="M56 0v578h73v-255h41l132 255h76l-141 -279l145 -299h-76l-136 278h-41v-278h-73zM183 626l63 196h73l-98 -196h-38z" />
    <glyph glyph-name="uni045D" unicode="&#x45d;" horiz-adv-x="426" 
d="M56 0v578h62v-445l193 445h59v-578h-62v444l-191 -444h-61zM196 626l-92 196h74l55 -196h-37z" />
    <glyph glyph-name="uni045E" unicode="&#x45e;" horiz-adv-x="381" 
d="M40 -144v57q50 0 75.5 7.5t34 21t8.5 31.5q0 16 -6 42t-13 54l-119 509h73l100 -492l97 492h74l-140 -619q-8 -37 -28.5 -59.5t-54 -33t-82.5 -10.5h-19zM191 640q-58 0 -88 31.5t-32 88.5h47q1 -40 20.5 -58t52.5 -18q34 0 53.5 18t21.5 58h46q-1 -57 -31.5 -88.5
t-89.5 -31.5z" />
    <glyph glyph-name="uni045F" unicode="&#x45f;" horiz-adv-x="419" 
d="M188 -139l-8 139h-124v578h73v-524h161v524h74v-578h-122l-5 -139h-49z" />
    <glyph glyph-name="uni0462" unicode="&#x462;" horiz-adv-x="508" 
d="M357 667v-59h-362v59h362zM105 0v810h76v-340h69q80 0 131 -24.5t76 -76.5t25 -137q0 -55 -12.5 -98t-40.5 -73t-71.5 -45.5t-104.5 -15.5h-148zM181 58h73q56 0 90 17.5t49 56.5t15 101q0 88 -33.5 133.5t-121.5 45.5h-72v-354z" />
    <glyph glyph-name="uni0463" unicode="&#x463;" horiz-adv-x="413" 
d="M81 0v810h72v-467h10h16.5h8.5q59 0 97 -12.5t60 -35t31 -54t9 -70.5q0 -37 -9 -68.5t-31.5 -54t-62 -35.5t-100.5 -13h-101zM153 46h29q56 0 85 15.5t40 43t11 66.5q0 37 -10 65t-38 44.5t-85 16.5h-11.5h-20.5v-251zM-8 523v55h313v-55h-313z" />
    <glyph glyph-name="uni046A" unicode="&#x46a;" horiz-adv-x="617" 
d="M15 0l222 517l70 -34l68 41l228 -524h-75l-178 438h-8v-438h-67v438h-8l-177 -438h-75zM263 464l-205 346h496l-200 -346h-91zM298 495l174 302l26 -45h-381l26 45l177 -302h-22z" />
    <glyph glyph-name="uni046B" unicode="&#x46b;" horiz-adv-x="486" 
d="M4 0l169 347l70 -32l68 32l171 -347h-71l-131 288h-6v-288h-63v288h-6l-131 -288h-70zM251 333l-15 1l133 229l23 -39h-289l10 39zM194 312l-159 266h411l-156 -266h-96z" />
    <glyph glyph-name="uni0490" unicode="&#x490;" horiz-adv-x="375" 
d="M70 0v810h242v95h49v-153h-214v-752h-77z" />
    <glyph glyph-name="uni0491" unicode="&#x491;" horiz-adv-x="292" 
d="M60 0v578h170v81h44v-136h-141v-523h-73z" />
    <glyph glyph-name="uni0492" unicode="&#x492;" horiz-adv-x="409" 
d="M13 449h300v-59h-300v59zM172 0h-76v810h292v-57h-216v-753z" />
    <glyph glyph-name="uni0493" unicode="&#x493;" horiz-adv-x="339" 
d="M0 339h278v-56h-278v56zM145 0h-74v578h256v-56h-182v-522z" />
    <glyph glyph-name="uni0496" unicode="&#x496;" horiz-adv-x="648" 
d="M589 -139l-7 196h67v-196h-60zM15 0l200 420l-181 390h74l170 -387h7v387h67v-387h7l171 387h74l-182 -390l201 -420h-75l-186 409h-10v-409h-67v409h-9l-186 -409h-75z" />
    <glyph glyph-name="uni0497" unicode="&#x497;" horiz-adv-x="546" 
d="M501 -139l-12 191h66v-191h-54zM4 0l163 296l-155 282h71l145 -277h9v277h61v-277h9l144 277h70l-154 -282l162 -296h-68l-154 287h-9v-287h-61v287h-10l-154 -287h-69z" />
    <glyph glyph-name="uni049A" unicode="&#x49a;" horiz-adv-x="499" 
d="M440 -139l-7 196h67v-196h-60zM70 0v810h77v-428l216 428h73l-166 -348l202 -462h-75l-178 405l-72 -132v-273h-77z" />
    <glyph glyph-name="uni049B" unicode="&#x49b;" horiz-adv-x="401" 
d="M355 -139l-11 191h66v-191h-55zM56 0v578h73v-255h41l132 255h76l-141 -279l145 -299h-76l-136 278h-41v-278h-73z" />
    <glyph glyph-name="uni04A2" unicode="&#x4a2;" horiz-adv-x="553" 
d="M70 0v810h77v-359h255v359h76v-810h-76v394h-255v-394h-77zM469 -139l-7 196h67v-196h-60z" />
    <glyph glyph-name="uni04A3" unicode="&#x4a3;" horiz-adv-x="453" 
d="M383 -139l-12 191h66v-191h-54zM56 0v578h73v-252h180v252h74v-578h-74v271h-180v-271h-73z" />
    <glyph glyph-name="Ustraitcy" unicode="&#x4ae;" horiz-adv-x="469" 
d="M200 0v269l-183 541h74l146 -450l140 450h75l-178 -541v-269h-74z" />
    <glyph glyph-name="ustraitcy" unicode="&#x4af;" horiz-adv-x="379" 
d="M156 -158v181l-136 555h73l99 -440l98 440h74l-140 -553v-183h-68z" />
    <glyph glyph-name="Ustraitstrokecy" unicode="&#x4b0;" horiz-adv-x="468" 
d="M44 246v54h385v-54h-385zM200 0v269l-183 541h74l146 -450l140 450h75l-178 -541v-269h-74z" />
    <glyph glyph-name="ustraitstrokecy" unicode="&#x4b1;" horiz-adv-x="382" 
d="M49 -8v50h282v-50h-282zM156 -158v181l-136 555h73l99 -440l98 440h74l-140 -553v-183h-68z" />
    <glyph glyph-name="uni04BA" unicode="&#x4ba;" horiz-adv-x="522" 
d="M148 810v-375q32 8 62 12.5t57 4.5q97 0 150.5 -42.5t53.5 -137.5v-272h-77v272q0 49 -17.5 76.5t-48.5 39t-75 11.5q-27 0 -54 -4.5t-51 -11.5v-383h-77v810h77z" />
    <glyph glyph-name="uni04BB" unicode="&#x4bb;" horiz-adv-x="412" 
d="M57 0v810h73v-293q29 31 64 50.5t77 19.5q29 0 48.5 -14.5t30 -42t10.5 -66.5v-464h-74v448q0 45 -13.5 63.5t-41.5 18.5q-25 0 -51.5 -15.5t-49.5 -39.5v-475h-73z" />
    <glyph glyph-name="uni04C9" unicode="&#x4c9;" horiz-adv-x="553" 
d="M70 0v810h77v-359h255v359h76v-810h-76v394h-255v-394h-77zM426 -139l36 196h67l-43 -196h-60z" />
    <glyph glyph-name="uni04CA" unicode="&#x4ca;" horiz-adv-x="453" 
d="M339 -139l32 191h66l-44 -191h-54zM56 0v578h73v-252h180v252h74v-578h-74v271h-180v-271h-73z" />
    <glyph glyph-name="uni04D8" unicode="&#x4d8;" horiz-adv-x="521" 
d="M259 -10q-81 0 -126.5 31.5t-64 88t-18.5 129.5v182h339v168q0 51 -10.5 89t-38 58.5t-81.5 20.5t-82.5 -20.5t-39 -58.5t-10.5 -89v-75h-77v61q0 74 19.5 128.5t64.5 84.5t125 30q78 0 123.5 -30t64.5 -84.5t19 -128.5v-337q0 -73 -18.5 -128.5t-63.5 -87.5t-125 -32z
M259 51q53 0 81 21.5t38.5 60t10.5 89.5v138h-262v-138q0 -51 10.5 -89.5t39 -60t82.5 -21.5z" />
    <glyph glyph-name="uni04D9" unicode="&#x4d9;" horiz-adv-x="395" 
d="M193 -10q-60 0 -92.5 25.5t-45 78.5t-12.5 134v52h234v101q0 54 -8 87.5t-25.5 48.5t-49.5 15q-22 0 -40 -8.5t-28.5 -32.5t-10.5 -70v-40h-72v32q0 79 33.5 126.5t117.5 47.5q54 0 88.5 -21.5t51 -71t16.5 -133.5v-148q0 -85 -17 -133.5t-51.5 -69t-88.5 -20.5zM194 44
q30 0 48 13t26.5 47t8.5 95v39h-162v-47q0 -45 5 -78.5t22 -51t52 -17.5z" />
    <glyph glyph-name="uni04E8" unicode="&#x4e8;" horiz-adv-x="529" 
d="M92 384v54h347v-54h-347zM263 -10q-81 0 -126.5 31.5t-64 88t-18.5 129.5v336q0 74 19.5 128.5t65 84.5t124.5 30q78 0 123.5 -30t64.5 -84.5t19 -128.5v-337q0 -73 -18.5 -128.5t-63.5 -87.5t-125 -32zM263 51q53 0 81 21.5t38.5 60t10.5 89.5v367q0 51 -10.5 89
t-38.5 58.5t-81 20.5q-54 0 -82.5 -20.5t-39 -58.5t-10.5 -89v-367q0 -51 10.5 -89.5t39 -60t82.5 -21.5z" />
    <glyph glyph-name="uni04E9" unicode="&#x4e9;" horiz-adv-x="398" 
d="M80 277v48h239v-48h-239zM199 -9q-59 0 -92.5 25.5t-47.5 74t-14 118.5v160q0 70 14 118.5t47.5 74t92.5 25.5q61 0 94 -25.5t47 -74t14 -118.5v-160q0 -70 -14 -118.5t-47 -74t-94 -25.5zM199 46q38 0 55.5 20t21.5 56.5t4 82.5v168q0 47 -4 82.5t-21.5 56t-55.5 20.5
t-55 -20.5t-21 -56t-4 -82.5v-168q0 -46 4 -82.5t21 -56.5t55 -20z" />
    <glyph glyph-name="uni1E02" unicode="&#x1e02;" horiz-adv-x="502" 
d="M71 0v810h174q55 0 93 -14t61 -41t33.5 -64.5t10.5 -82.5q0 -39 -9.5 -75.5t-31.5 -62t-62 -33.5q47 -13 74 -44.5t37.5 -73t10.5 -85.5q0 -48 -8.5 -90.5t-30 -74.5t-58.5 -50.5t-94 -18.5h-200zM147 57h109q79 0 105.5 43t26.5 134q0 49 -12 87t-40.5 59.5t-77.5 21.5
h-111v-345zM147 461h110q47 0 72 18.5t35 51t10 77.5q0 49 -13.5 81t-46.5 47t-95 15h-72v-290zM212 906v110h78v-110h-78z" />
    <glyph glyph-name="uni1E03" unicode="&#x1e03;" horiz-adv-x="416" 
d="M233 -9q-35 0 -60.5 18t-42.5 37v-46h-73v810h73v-280q17 22 44 39.5t66 17.5q42 0 68 -19.5t40 -52.5t19 -74t5 -84v-122q0 -74 -12.5 -128.5t-42.5 -85t-84 -30.5zM220 49q34 0 50.5 21t22 62.5t5.5 100.5v124q0 56 -5.5 94.5t-22 58.5t-51.5 20q-27 0 -50.5 -15
t-38.5 -30v-394q16 -17 39 -29.5t51 -12.5zM55 906v110h78v-110h-78z" />
    <glyph glyph-name="uni1E0A" unicode="&#x1e0a;" horiz-adv-x="521" 
d="M71 0v810h176q85 0 132.5 -29.5t67.5 -83.5t20 -125v-322q0 -75 -20 -131.5t-66 -87.5t-127 -31h-183zM147 57h102q64 0 94 26.5t38 73t8 105.5v302q0 61 -10.5 102.5t-41 63t-91.5 21.5h-99v-694zM222 906v110h78v-110h-78z" />
    <glyph glyph-name="uni1E0B" unicode="&#x1e0b;" horiz-adv-x="413" 
d="M184 -9q-74 0 -106.5 56t-32.5 186v107q0 76 11 131t40.5 85.5t84.5 30.5q34 0 59.5 -15.5t42.5 -34.5v273h73v-810h-73v41q-17 -19 -41.5 -34.5t-57.5 -15.5zM199 49q24 0 45.5 11t38.5 27v402q-15 14 -37 27.5t-49 13.5q-48 0 -63.5 -42.5t-15.5 -123.5v-137
q0 -58 6.5 -98t24 -60t50.5 -20zM281 906v110h78v-110h-78z" />
    <glyph glyph-name="uni1E1E" unicode="&#x1e1e;" horiz-adv-x="386" 
d="M71 0v810h291v-57h-215v-305h179v-56h-179v-392h-76zM155 906v110h78v-110h-78z" />
    <glyph glyph-name="uni1E1F" unicode="&#x1e1f;" horiz-adv-x="268" 
d="M92 0v525h-74v53h74v60q0 43 7 76t29.5 52t69.5 19q16 0 30.5 -1.5t28.5 -5.5v-54q-9 2 -20.5 3.5t-20.5 1.5q-33 0 -41.5 -20.5t-8.5 -63.5v-67h93v-53h-93v-525h-74zM141 875v110h78v-110h-78z" />
    <glyph glyph-name="uni1E40" unicode="&#x1e40;" horiz-adv-x="643" 
d="M64 0l20 810h76l160 -703l163 703h76l20 -810h-63l-16 645l-155 -645h-49l-153 644l-16 -644h-63zM282 906v110h78v-110h-78z" />
    <glyph glyph-name="uni1E41" unicode="&#x1e41;" horiz-adv-x="644" 
d="M56 0v578h68v-59q29 34 64 51.5t72 17.5q30 0 55.5 -16t36.5 -59q30 37 66 56t76 19q25 0 47.5 -12t36.5 -41t14 -79v-456h-68v454q0 51 -16.5 67.5t-41.5 16.5q-28 0 -56 -16t-53 -44q1 -5 1.5 -10.5t0.5 -11.5v-456h-69v454q0 51 -16.5 67.5t-41.5 16.5q-27 0 -55 -16
t-53 -43v-479h-68zM284 674v110h78v-110h-78z" />
    <glyph glyph-name="uni1E56" unicode="&#x1e56;" horiz-adv-x="483" 
d="M71 0v810h194q73 0 115 -27t59.5 -75t17.5 -113q0 -57 -18.5 -105.5t-61 -77.5t-111.5 -29h-119v-383h-76zM147 440h97q49 0 79.5 14.5t44.5 48.5t14 92q0 62 -12 96.5t-41.5 48t-83.5 13.5h-98v-313zM203 906v110h78v-110h-78z" />
    <glyph glyph-name="uni1E57" unicode="&#x1e57;" horiz-adv-x="417" 
d="M56 -190v768h73v-48q18 22 45 39.5t66 17.5q42 0 67.5 -19.5t39.5 -52.5t19 -74t5 -84v-122q0 -74 -12 -128.5t-42.5 -85t-84.5 -30.5q-35 0 -60.5 18t-42.5 37v-236h-73zM221 49q33 0 49.5 21t22 62.5t5.5 100.5v124q0 56 -5.5 94.5t-22.5 58.5t-51 20q-28 0 -51.5 -15
t-38.5 -30v-394q16 -17 39.5 -29.5t52.5 -12.5zM170 674v110h78v-110h-78z" />
    <glyph glyph-name="uni1E60" unicode="&#x1e60;" horiz-adv-x="460" 
d="M243 -10q-66 0 -109.5 27.5t-65.5 77t-27 115.5l67 20q5 -50 18 -90.5t41 -64t77 -23.5q54 0 84 28t30 89q0 54 -26.5 93t-72.5 82l-143 137q-38 37 -56 76.5t-18 86.5q0 84 50 129t133 45q43 0 77.5 -11t59 -35.5t38.5 -63.5t19 -95l-65 -17q-4 51 -16.5 87.5t-39 55.5
t-73.5 19q-50 0 -82 -26t-32 -81q0 -33 12.5 -60t44.5 -58l143 -135q48 -45 83 -100t35 -124q0 -61 -23.5 -102t-65.5 -61.5t-97 -20.5zM191 906v110h78v-110h-78z" />
    <glyph glyph-name="uni1E61" unicode="&#x1e61;" horiz-adv-x="363" 
d="M188 -9q-69 0 -110 44.5t-47 119.5l61 19q6 -67 31 -97.5t70 -30.5q38 0 58.5 21.5t20.5 60.5q0 28 -17 56.5t-53 59.5l-79 68q-39 33 -59 66t-20 79q0 42 17.5 70.5t48.5 44t72 15.5q66 0 100 -42.5t37 -109.5l-52 -17q-2 39 -12 64.5t-27.5 37.5t-42.5 12
q-33 0 -53.5 -18.5t-20.5 -51.5q0 -26 10 -46t37 -45l82 -73q24 -21 46 -45t36 -53.5t14 -69.5q0 -45 -18.5 -75.5t-51.5 -47t-78 -16.5zM142 674v110h78v-110h-78z" />
    <glyph glyph-name="uni1E6A" unicode="&#x1e6a;" horiz-adv-x="409" 
d="M171 0v751h-153v59h378v-59h-149v-751h-76zM165 906v110h78v-110h-78z" />
    <glyph glyph-name="uni1E6B" unicode="&#x1e6b;" horiz-adv-x="280" 
d="M193 -7q-42 0 -64.5 16.5t-31 45t-8.5 65.5v410h-71v48h71v179h73v-179h96v-48h-96v-403q0 -42 9.5 -59.5t41.5 -17.5q9 0 20.5 1.5t21.5 3.5v-56q-15 -3 -31 -4.5t-31 -1.5zM87 853v110h78v-110h-78z" />
    <glyph glyph-name="Wgrave" unicode="&#x1e80;" horiz-adv-x="715" 
d="M172 0l-137 810h65l107 -658l122 646h63l125 -647l99 659h64l-131 -810h-59l-129 668l-127 -668h-62zM339 858l-92 196h74l55 -196h-37z" />
    <glyph glyph-name="wgrave" unicode="&#x1e81;" horiz-adv-x="574" 
d="M125 0l-94 578h63l72 -483l91 483h63l92 -481l69 481h63l-94 -578h-68l-93 470l-90 -470h-74zM268 626l-92 196h74l55 -196h-37z" />
    <glyph glyph-name="Wacute" unicode="&#x1e82;" horiz-adv-x="715" 
d="M172 0l-137 810h65l107 -658l122 646h63l125 -647l99 659h64l-131 -810h-59l-129 668l-127 -668h-62zM339 858l63 196h73l-98 -196h-38z" />
    <glyph glyph-name="wacute" unicode="&#x1e83;" horiz-adv-x="574" 
d="M125 0l-94 578h63l72 -483l91 483h63l92 -481l69 481h63l-94 -578h-68l-93 470l-90 -470h-74zM268 626l63 196h73l-98 -196h-38z" />
    <glyph glyph-name="Wdieresis" unicode="&#x1e84;" horiz-adv-x="715" 
d="M172 0l-137 810h65l107 -658l122 646h63l125 -647l99 659h64l-131 -810h-59l-129 668l-127 -668h-62zM403 953v89h75v-89h-75zM238 953v89h75v-89h-75z" />
    <glyph glyph-name="wdieresis" unicode="&#x1e85;" horiz-adv-x="574" 
d="M125 0l-94 578h63l72 -483l91 483h63l92 -481l69 481h63l-94 -578h-68l-93 470l-90 -470h-74zM333 721v89h75v-89h-75zM168 721v89h75v-89h-75z" />
    <glyph glyph-name="uni1E9E" unicode="&#x1e9e;" horiz-adv-x="513" 
d="M233 -9v59h34q69 0 103.5 40.5t34.5 136.5q0 99 -34.5 142t-103.5 43h-24v60l156 263q-22 10 -50 16t-61 6q-73 0 -112 -41.5t-39 -122.5v-593h-77v588q0 69 24.5 120.5t74.5 80.5t124 29q54 0 96.5 -11t79.5 -30v-61l-171 -289l-9 36q101 0 151 -60t50 -173
q0 -121 -50 -180t-143 -59h-54z" />
    <glyph glyph-name="uni1EA0" unicode="&#x1ea0;" horiz-adv-x="477" 
d="M27 0l171 810h80l172 -810h-75l-40 217h-193l-41 -217h-74zM153 272h172l-86 437zM200 -150v89h78v-89h-78z" />
    <glyph glyph-name="uni1EA1" unicode="&#x1ea1;" horiz-adv-x="397" 
d="M156 -9q-35 0 -61 17.5t-40.5 47t-14.5 64.5q0 44 12.5 75t40 55.5t72 48t108.5 52.5v41q0 53 -6.5 83.5t-22 43.5t-43.5 13q-23 0 -41 -9t-29 -30.5t-11 -59.5v-20l-72 1q1 88 37.5 130.5t119.5 42.5q78 0 109.5 -46.5t31.5 -144.5v-281q0 -15 1 -38.5t2 -44.5t2 -32
h-65q-2 19 -6 42.5t-5 37.5q-12 -35 -42.5 -62t-76.5 -27zM179 53q22 0 40 11t32 26.5t22 31.5v180q-43 -22 -73.5 -40t-49.5 -35t-28 -38.5t-9 -50.5q0 -46 20 -65.5t46 -19.5zM160 -150v89h78v-89h-78z" />
    <glyph glyph-name="uni1EA2" unicode="&#x1ea2;" horiz-adv-x="477" 
d="M27 0l171 810h80l172 -810h-75l-40 217h-193l-41 -217h-74zM153 272h172l-86 437zM239 883l-27 29q26 13 40.5 26t14.5 30q0 19 -13.5 27.5t-38.5 8.5q-11 0 -22.5 -1.5t-24.5 -4.5v38q32 7 64 7q28 0 48 -7.5t31 -23t11 -39.5q0 -23 -11 -39.5t-30 -28.5t-42 -22z" />
    <glyph glyph-name="uni1EA3" unicode="&#x1ea3;" horiz-adv-x="397" 
d="M156 -9q-35 0 -61 17.5t-40.5 47t-14.5 64.5q0 44 12.5 75t40 55.5t72 48t108.5 52.5v41q0 53 -6.5 83.5t-22 43.5t-43.5 13q-23 0 -41 -9t-29 -30.5t-11 -59.5v-20l-72 1q1 88 37.5 130.5t119.5 42.5q78 0 109.5 -46.5t31.5 -144.5v-281q0 -15 1 -38.5t2 -44.5t2 -32
h-65q-2 19 -6 42.5t-5 37.5q-12 -35 -42.5 -62t-76.5 -27zM179 53q22 0 40 11t32 26.5t22 31.5v180q-43 -22 -73.5 -40t-49.5 -35t-28 -38.5t-9 -50.5q0 -46 20 -65.5t46 -19.5zM204 651l-27 29q26 13 40.5 26t14.5 30q0 19 -13.5 27.5t-38.5 8.5q-11 0 -22.5 -1.5
t-24.5 -4.5v38q32 7 64 7q28 0 48 -7.5t31 -23t11 -39.5q0 -23 -11 -39.5t-30 -28.5t-42 -22z" />
    <glyph glyph-name="uni1EA4" unicode="&#x1ea4;" horiz-adv-x="477" 
d="M27 0l171 810h80l172 -810h-75l-40 217h-193l-41 -217h-74zM153 272h172l-86 437zM112 864l86 146h82l86 -146h-54l-73 110l-73 -110h-54zM351 959l53 115h67l-71 -115h-49z" />
    <glyph glyph-name="uni1EA5" unicode="&#x1ea5;" horiz-adv-x="397" 
d="M156 -9q-35 0 -61 17.5t-40.5 47t-14.5 64.5q0 44 12.5 75t40 55.5t72 48t108.5 52.5v41q0 53 -6.5 83.5t-22 43.5t-43.5 13q-23 0 -41 -9t-29 -30.5t-11 -59.5v-20l-72 1q1 88 37.5 130.5t119.5 42.5q78 0 109.5 -46.5t31.5 -144.5v-281q0 -15 1 -38.5t2 -44.5t2 -32
h-65q-2 19 -6 42.5t-5 37.5q-12 -35 -42.5 -62t-76.5 -27zM179 53q22 0 40 11t32 26.5t22 31.5v180q-43 -22 -73.5 -40t-49.5 -35t-28 -38.5t-9 -50.5q0 -46 20 -65.5t46 -19.5zM77 632l86 146h82l86 -146h-54l-73 110l-73 -110h-54zM316 727l53 115h67l-71 -115h-49z" />
    <glyph glyph-name="uni1EA6" unicode="&#x1ea6;" horiz-adv-x="477" 
d="M27 0l171 810h80l172 -810h-75l-40 217h-193l-41 -217h-74zM153 272h172l-86 437zM112 864l86 146h82l86 -146h-54l-73 110l-73 -110h-54zM377 959l-72 115h67l53 -115h-48z" />
    <glyph glyph-name="uni1EA7" unicode="&#x1ea7;" horiz-adv-x="397" 
d="M156 -9q-35 0 -61 17.5t-40.5 47t-14.5 64.5q0 44 12.5 75t40 55.5t72 48t108.5 52.5v41q0 53 -6.5 83.5t-22 43.5t-43.5 13q-23 0 -41 -9t-29 -30.5t-11 -59.5v-20l-72 1q1 88 37.5 130.5t119.5 42.5q78 0 109.5 -46.5t31.5 -144.5v-281q0 -15 1 -38.5t2 -44.5t2 -32
h-65q-2 19 -6 42.5t-5 37.5q-12 -35 -42.5 -62t-76.5 -27zM179 53q22 0 40 11t32 26.5t22 31.5v180q-43 -22 -73.5 -40t-49.5 -35t-28 -38.5t-9 -50.5q0 -46 20 -65.5t46 -19.5zM77 632l86 146h82l86 -146h-54l-73 110l-73 -110h-54zM342 727l-72 115h67l53 -115h-48z" />
    <glyph glyph-name="uni1EA8" unicode="&#x1ea8;" horiz-adv-x="477" 
d="M27 0l171 810h80l172 -810h-75l-40 217h-193l-41 -217h-74zM153 272h172l-86 437zM369 950l-27 29q23 13 35 25.5t12 30.5t-12.5 26.5t-32.5 8.5q-11 0 -22.5 -1.5t-23.5 -5.5v38q16 5 31.5 7t30.5 2q38 0 61.5 -17.5t23.5 -52.5t-22.5 -55t-53.5 -35zM112 864l86 146h82
l86 -146h-54l-73 110l-73 -110h-54z" />
    <glyph glyph-name="uni1EA9" unicode="&#x1ea9;" horiz-adv-x="397" 
d="M156 -9q-35 0 -61 17.5t-40.5 47t-14.5 64.5q0 44 12.5 75t40 55.5t72 48t108.5 52.5v41q0 53 -6.5 83.5t-22 43.5t-43.5 13q-23 0 -41 -9t-29 -30.5t-11 -59.5v-20l-72 1q1 88 37.5 130.5t119.5 42.5q78 0 109.5 -46.5t31.5 -144.5v-281q0 -15 1 -38.5t2 -44.5t2 -32
h-65q-2 19 -6 42.5t-5 37.5q-12 -35 -42.5 -62t-76.5 -27zM179 53q22 0 40 11t32 26.5t22 31.5v180q-43 -22 -73.5 -40t-49.5 -35t-28 -38.5t-9 -50.5q0 -46 20 -65.5t46 -19.5zM334 718l-27 29q23 13 35 25.5t12 30.5t-12.5 26.5t-32.5 8.5q-11 0 -22.5 -1.5t-23.5 -5.5v38
q16 5 31.5 7t30.5 2q38 0 61.5 -17.5t23.5 -52.5t-22.5 -55t-53.5 -35zM77 632l86 146h82l86 -146h-54l-73 110l-73 -110h-54z" />
    <glyph glyph-name="uni1EAA" unicode="&#x1eaa;" horiz-adv-x="477" 
d="M27 0l171 810h80l172 -810h-75l-40 217h-193l-41 -217h-74zM153 272h172l-86 437zM112 864l86 146h82l86 -146h-54l-73 110l-73 -110h-54zM300 1058q-24 0 -43 12t-35.5 24t-34.5 12q-16 0 -24.5 -10t-8.5 -30h-45q0 17 5.5 37.5t20.5 35.5t43 15q24 0 43 -11.5t36 -23.5
t35 -12q17 0 25 9.5t8 33.5h44q0 -18 -4.5 -39.5t-19.5 -37t-45 -15.5z" />
    <glyph glyph-name="uni1EAB" unicode="&#x1eab;" horiz-adv-x="397" 
d="M156 -9q-35 0 -61 17.5t-40.5 47t-14.5 64.5q0 44 12.5 75t40 55.5t72 48t108.5 52.5v41q0 53 -6.5 83.5t-22 43.5t-43.5 13q-23 0 -41 -9t-29 -30.5t-11 -59.5v-20l-72 1q1 88 37.5 130.5t119.5 42.5q78 0 109.5 -46.5t31.5 -144.5v-281q0 -15 1 -38.5t2 -44.5t2 -32
h-65q-2 19 -6 42.5t-5 37.5q-12 -35 -42.5 -62t-76.5 -27zM179 53q22 0 40 11t32 26.5t22 31.5v180q-43 -22 -73.5 -40t-49.5 -35t-28 -38.5t-9 -50.5q0 -46 20 -65.5t46 -19.5zM77 632l86 146h82l86 -146h-54l-73 110l-73 -110h-54zM265 826q-24 0 -43 12t-35.5 24
t-34.5 12q-16 0 -24.5 -10t-8.5 -30h-45q0 17 5.5 37.5t20.5 35.5t43 15q24 0 43 -11.5t36 -23.5t35 -12q17 0 25 9.5t8 33.5h44q0 -18 -4.5 -39.5t-19.5 -37t-45 -15.5z" />
    <glyph glyph-name="uni1EAC" unicode="&#x1eac;" horiz-adv-x="477" 
d="M27 0l171 810h80l172 -810h-75l-40 217h-193l-41 -217h-74zM153 272h172l-86 437zM112 864l86 146h82l86 -146h-54l-73 110l-73 -110h-54zM200 -150v89h78v-89h-78z" />
    <glyph glyph-name="uni1EAD" unicode="&#x1ead;" horiz-adv-x="397" 
d="M156 -9q-35 0 -61 17.5t-40.5 47t-14.5 64.5q0 44 12.5 75t40 55.5t72 48t108.5 52.5v41q0 53 -6.5 83.5t-22 43.5t-43.5 13q-23 0 -41 -9t-29 -30.5t-11 -59.5v-20l-72 1q1 88 37.5 130.5t119.5 42.5q78 0 109.5 -46.5t31.5 -144.5v-281q0 -15 1 -38.5t2 -44.5t2 -32
h-65q-2 19 -6 42.5t-5 37.5q-12 -35 -42.5 -62t-76.5 -27zM179 53q22 0 40 11t32 26.5t22 31.5v180q-43 -22 -73.5 -40t-49.5 -35t-28 -38.5t-9 -50.5q0 -46 20 -65.5t46 -19.5zM160 -150v89h78v-89h-78zM77 632l86 146h82l86 -146h-54l-73 110l-73 -110h-54z" />
    <glyph glyph-name="uni1EAE" unicode="&#x1eae;" horiz-adv-x="477" 
d="M27 0l171 810h80l172 -810h-75l-40 217h-193l-41 -217h-74zM153 272h172l-86 437zM198 1025l64 118h74l-97 -118h-41zM238 865q-58 0 -88 31.5t-32 88.5h47q1 -40 20.5 -58t52.5 -18q34 0 53.5 18t21.5 58h46q-1 -57 -31.5 -88.5t-89.5 -31.5z" />
    <glyph glyph-name="uni1EAF" unicode="&#x1eaf;" horiz-adv-x="397" 
d="M156 -9q-35 0 -61 17.5t-40.5 47t-14.5 64.5q0 44 12.5 75t40 55.5t72 48t108.5 52.5v41q0 53 -6.5 83.5t-22 43.5t-43.5 13q-23 0 -41 -9t-29 -30.5t-11 -59.5v-20l-72 1q1 88 37.5 130.5t119.5 42.5q78 0 109.5 -46.5t31.5 -144.5v-281q0 -15 1 -38.5t2 -44.5t2 -32
h-65q-2 19 -6 42.5t-5 37.5q-12 -35 -42.5 -62t-76.5 -27zM179 53q22 0 40 11t32 26.5t22 31.5v180q-43 -22 -73.5 -40t-49.5 -35t-28 -38.5t-9 -50.5q0 -46 20 -65.5t46 -19.5zM163 793l64 118h74l-97 -118h-41zM203 633q-58 0 -88 31.5t-32 88.5h47q1 -40 20.5 -58
t52.5 -18q34 0 53.5 18t21.5 58h46q-1 -57 -31.5 -88.5t-89.5 -31.5z" />
    <glyph glyph-name="uni1EB0" unicode="&#x1eb0;" horiz-adv-x="477" 
d="M27 0l171 810h80l172 -810h-75l-40 217h-193l-41 -217h-74zM153 272h172l-86 437zM240 1025l-97 118h74l65 -118h-42zM238 865q-58 0 -88 31.5t-32 88.5h47q1 -40 20.5 -58t52.5 -18q34 0 53.5 18t21.5 58h46q-1 -57 -31.5 -88.5t-89.5 -31.5z" />
    <glyph glyph-name="uni1EB1" unicode="&#x1eb1;" horiz-adv-x="397" 
d="M156 -9q-35 0 -61 17.5t-40.5 47t-14.5 64.5q0 44 12.5 75t40 55.5t72 48t108.5 52.5v41q0 53 -6.5 83.5t-22 43.5t-43.5 13q-23 0 -41 -9t-29 -30.5t-11 -59.5v-20l-72 1q1 88 37.5 130.5t119.5 42.5q78 0 109.5 -46.5t31.5 -144.5v-281q0 -15 1 -38.5t2 -44.5t2 -32
h-65q-2 19 -6 42.5t-5 37.5q-12 -35 -42.5 -62t-76.5 -27zM179 53q22 0 40 11t32 26.5t22 31.5v180q-43 -22 -73.5 -40t-49.5 -35t-28 -38.5t-9 -50.5q0 -46 20 -65.5t46 -19.5zM205 793l-97 118h74l65 -118h-42zM203 633q-58 0 -88 31.5t-32 88.5h47q1 -40 20.5 -58
t52.5 -18q34 0 53.5 18t21.5 58h46q-1 -57 -31.5 -88.5t-89.5 -31.5z" />
    <glyph glyph-name="uni1EB2" unicode="&#x1eb2;" horiz-adv-x="477" 
d="M27 0l171 810h80l172 -810h-75l-40 217h-193l-41 -217h-74zM153 272h172l-86 437zM243 988l-27 29q23 13 35 25.5t12 29.5q0 19 -12.5 27.5t-32.5 8.5q-11 0 -22.5 -1.5t-23.5 -5.5v37q16 5 31.5 7.5t30.5 2.5q38 0 61.5 -17.5t23.5 -52.5q0 -33 -22.5 -54t-53.5 -36z
M238 872q-58 0 -88 31.5t-32 88.5h47q1 -40 20.5 -58t52.5 -18q34 0 53.5 18t21.5 58h46q-1 -57 -31.5 -88.5t-89.5 -31.5z" />
    <glyph glyph-name="uni1EB3" unicode="&#x1eb3;" horiz-adv-x="397" 
d="M156 -9q-35 0 -61 17.5t-40.5 47t-14.5 64.5q0 44 12.5 75t40 55.5t72 48t108.5 52.5v41q0 53 -6.5 83.5t-22 43.5t-43.5 13q-23 0 -41 -9t-29 -30.5t-11 -59.5v-20l-72 1q1 88 37.5 130.5t119.5 42.5q78 0 109.5 -46.5t31.5 -144.5v-281q0 -15 1 -38.5t2 -44.5t2 -32
h-65q-2 19 -6 42.5t-5 37.5q-12 -35 -42.5 -62t-76.5 -27zM179 53q22 0 40 11t32 26.5t22 31.5v180q-43 -22 -73.5 -40t-49.5 -35t-28 -38.5t-9 -50.5q0 -46 20 -65.5t46 -19.5zM208 756l-27 29q23 13 35 25.5t12 29.5q0 19 -12.5 27.5t-32.5 8.5q-11 0 -22.5 -1.5
t-23.5 -5.5v37q16 5 31.5 7.5t30.5 2.5q38 0 61.5 -17.5t23.5 -52.5q0 -33 -22.5 -54t-53.5 -36zM203 640q-58 0 -88 31.5t-32 88.5h47q1 -40 20.5 -58t52.5 -18q34 0 53.5 18t21.5 58h46q-1 -57 -31.5 -88.5t-89.5 -31.5z" />
    <glyph glyph-name="uni1EB4" unicode="&#x1eb4;" horiz-adv-x="477" 
d="M27 0l171 810h80l172 -810h-75l-40 217h-193l-41 -217h-74zM153 272h172l-86 437zM238 872q-58 0 -88 31.5t-32 88.5h47q1 -40 20.5 -58t52.5 -18q34 0 53.5 18t21.5 58h46q-1 -57 -31.5 -88.5t-89.5 -31.5zM300 1038q-24 0 -43 12t-35.5 24t-34.5 12q-16 0 -24.5 -10
t-8.5 -30h-45q0 17 5.5 37.5t20.5 35.5t43 15q24 0 43 -11.5t36 -23.5t35 -12q17 0 25 9.5t8 33.5h44q0 -18 -4.5 -39.5t-19.5 -37t-45 -15.5z" />
    <glyph glyph-name="uni1EB5" unicode="&#x1eb5;" horiz-adv-x="397" 
d="M156 -9q-35 0 -61 17.5t-40.5 47t-14.5 64.5q0 44 12.5 75t40 55.5t72 48t108.5 52.5v41q0 53 -6.5 83.5t-22 43.5t-43.5 13q-23 0 -41 -9t-29 -30.5t-11 -59.5v-20l-72 1q1 88 37.5 130.5t119.5 42.5q78 0 109.5 -46.5t31.5 -144.5v-281q0 -15 1 -38.5t2 -44.5t2 -32
h-65q-2 19 -6 42.5t-5 37.5q-12 -35 -42.5 -62t-76.5 -27zM179 53q22 0 40 11t32 26.5t22 31.5v180q-43 -22 -73.5 -40t-49.5 -35t-28 -38.5t-9 -50.5q0 -46 20 -65.5t46 -19.5zM203 640q-58 0 -88 31.5t-32 88.5h47q1 -40 20.5 -58t52.5 -18q34 0 53.5 18t21.5 58h46
q-1 -57 -31.5 -88.5t-89.5 -31.5zM265 806q-24 0 -43 12t-35.5 24t-34.5 12q-16 0 -24.5 -10t-8.5 -30h-45q0 17 5.5 37.5t20.5 35.5t43 15q24 0 43 -11.5t36 -23.5t35 -12q17 0 25 9.5t8 33.5h44q0 -18 -4.5 -39.5t-19.5 -37t-45 -15.5z" />
    <glyph glyph-name="uni1EB6" unicode="&#x1eb6;" horiz-adv-x="477" 
d="M27 0l171 810h80l172 -810h-75l-40 217h-193l-41 -217h-74zM153 272h172l-86 437zM200 -150v89h78v-89h-78zM238 872q-58 0 -88 31.5t-32 88.5h47q1 -40 20.5 -58t52.5 -18q34 0 53.5 18t21.5 58h46q-1 -57 -31.5 -88.5t-89.5 -31.5z" />
    <glyph glyph-name="uni1EB7" unicode="&#x1eb7;" horiz-adv-x="397" 
d="M156 -9q-35 0 -61 17.5t-40.5 47t-14.5 64.5q0 44 12.5 75t40 55.5t72 48t108.5 52.5v41q0 53 -6.5 83.5t-22 43.5t-43.5 13q-23 0 -41 -9t-29 -30.5t-11 -59.5v-20l-72 1q1 88 37.5 130.5t119.5 42.5q78 0 109.5 -46.5t31.5 -144.5v-281q0 -15 1 -38.5t2 -44.5t2 -32
h-65q-2 19 -6 42.5t-5 37.5q-12 -35 -42.5 -62t-76.5 -27zM179 53q22 0 40 11t32 26.5t22 31.5v180q-43 -22 -73.5 -40t-49.5 -35t-28 -38.5t-9 -50.5q0 -46 20 -65.5t46 -19.5zM160 -150v89h78v-89h-78zM203 640q-58 0 -88 31.5t-32 88.5h47q1 -40 20.5 -58t52.5 -18
q34 0 53.5 18t21.5 58h46q-1 -57 -31.5 -88.5t-89.5 -31.5z" />
    <glyph glyph-name="uni1EB8" unicode="&#x1eb8;" horiz-adv-x="398" 
d="M70 0v810h293v-59h-216v-304h176v-56h-176v-334h218v-57h-295zM173 -150v89h78v-89h-78z" />
    <glyph glyph-name="uni1EB9" unicode="&#x1eb9;" horiz-adv-x="395" 
d="M201 -9q-54 0 -88.5 21.5t-51 71.5t-16.5 133v146q0 86 17 134.5t52 69t88 20.5q61 0 93 -26t44.5 -78.5t12.5 -134.5v-52h-234v-101q0 -56 8.5 -88.5t27 -46.5t47.5 -14q22 0 40 8.5t28.5 33t10.5 69.5v40h71v-32q0 -79 -32.5 -126.5t-117.5 -47.5zM118 338h162v48
q0 46 -5 78.5t-21.5 50t-52.5 17.5q-30 0 -48.5 -13t-26.5 -46.5t-8 -95.5v-39zM159 -150v89h78v-89h-78z" />
    <glyph glyph-name="uni1EBA" unicode="&#x1eba;" horiz-adv-x="398" 
d="M70 0v810h293v-59h-216v-304h176v-56h-176v-334h218v-57h-295zM220 883l-27 29q26 13 40.5 26t14.5 30q0 19 -13.5 27.5t-38.5 8.5q-11 0 -22.5 -1.5t-24.5 -4.5v38q32 7 64 7q28 0 48 -7.5t31 -23t11 -39.5q0 -23 -11 -39.5t-30 -28.5t-42 -22z" />
    <glyph glyph-name="uni1EBB" unicode="&#x1ebb;" horiz-adv-x="395" 
d="M201 -9q-54 0 -88.5 21.5t-51 71.5t-16.5 133v146q0 86 17 134.5t52 69t88 20.5q61 0 93 -26t44.5 -78.5t12.5 -134.5v-52h-234v-101q0 -56 8.5 -88.5t27 -46.5t47.5 -14q22 0 40 8.5t28.5 33t10.5 69.5v40h71v-32q0 -79 -32.5 -126.5t-117.5 -47.5zM118 338h162v48
q0 46 -5 78.5t-21.5 50t-52.5 17.5q-30 0 -48.5 -13t-26.5 -46.5t-8 -95.5v-39zM198 651l-27 29q26 13 40.5 26t14.5 30q0 19 -13.5 27.5t-38.5 8.5q-11 0 -22.5 -1.5t-24.5 -4.5v38q32 7 64 7q28 0 48 -7.5t31 -23t11 -39.5q0 -23 -11 -39.5t-30 -28.5t-42 -22z" />
    <glyph glyph-name="uni1EBC" unicode="&#x1ebc;" horiz-adv-x="398" 
d="M70 0v810h293v-59h-216v-304h176v-56h-176v-334h218v-57h-295zM281 924q-24 0 -43 12t-35.5 24t-34.5 12q-16 0 -24.5 -10t-8.5 -30h-45q0 17 5.5 37.5t20.5 35.5t43 15q24 0 43 -11.5t36 -23.5t35 -12q17 0 25 9.5t8 33.5h44q0 -18 -4.5 -39.5t-19.5 -37t-45 -15.5z" />
    <glyph glyph-name="uni1EBD" unicode="&#x1ebd;" horiz-adv-x="395" 
d="M201 -9q-54 0 -88.5 21.5t-51 71.5t-16.5 133v146q0 86 17 134.5t52 69t88 20.5q61 0 93 -26t44.5 -78.5t12.5 -134.5v-52h-234v-101q0 -56 8.5 -88.5t27 -46.5t47.5 -14q22 0 40 8.5t28.5 33t10.5 69.5v40h71v-32q0 -79 -32.5 -126.5t-117.5 -47.5zM118 338h162v48
q0 46 -5 78.5t-21.5 50t-52.5 17.5q-30 0 -48.5 -13t-26.5 -46.5t-8 -95.5v-39zM259 692q-24 0 -43 12t-35.5 24t-34.5 12q-16 0 -24.5 -10t-8.5 -30h-45q0 17 5.5 37.5t20.5 35.5t43 15q24 0 43 -11.5t36 -23.5t35 -12q17 0 25 9.5t8 33.5h44q0 -18 -4.5 -39.5t-19.5 -37
t-45 -15.5z" />
    <glyph glyph-name="uni1EBE" unicode="&#x1ebe;" horiz-adv-x="398" 
d="M70 0v810h293v-59h-216v-304h176v-56h-176v-334h218v-57h-295zM93 864l86 146h82l86 -146h-54l-73 110l-73 -110h-54zM332 959l53 115h67l-71 -115h-49z" />
    <glyph glyph-name="uni1EBF" unicode="&#x1ebf;" horiz-adv-x="395" 
d="M201 -9q-54 0 -88.5 21.5t-51 71.5t-16.5 133v146q0 86 17 134.5t52 69t88 20.5q61 0 93 -26t44.5 -78.5t12.5 -134.5v-52h-234v-101q0 -56 8.5 -88.5t27 -46.5t47.5 -14q22 0 40 8.5t28.5 33t10.5 69.5v40h71v-32q0 -79 -32.5 -126.5t-117.5 -47.5zM118 338h162v48
q0 46 -5 78.5t-21.5 50t-52.5 17.5q-30 0 -48.5 -13t-26.5 -46.5t-8 -95.5v-39zM71 632l86 146h82l86 -146h-54l-73 110l-73 -110h-54zM310 727l53 115h67l-71 -115h-49z" />
    <glyph glyph-name="uni1EC0" unicode="&#x1ec0;" horiz-adv-x="398" 
d="M70 0v810h293v-59h-216v-304h176v-56h-176v-334h218v-57h-295zM93 864l86 146h82l86 -146h-54l-73 110l-73 -110h-54zM358 959l-72 115h67l53 -115h-48z" />
    <glyph glyph-name="uni1EC1" unicode="&#x1ec1;" horiz-adv-x="395" 
d="M201 -9q-54 0 -88.5 21.5t-51 71.5t-16.5 133v146q0 86 17 134.5t52 69t88 20.5q61 0 93 -26t44.5 -78.5t12.5 -134.5v-52h-234v-101q0 -56 8.5 -88.5t27 -46.5t47.5 -14q22 0 40 8.5t28.5 33t10.5 69.5v40h71v-32q0 -79 -32.5 -126.5t-117.5 -47.5zM118 338h162v48
q0 46 -5 78.5t-21.5 50t-52.5 17.5q-30 0 -48.5 -13t-26.5 -46.5t-8 -95.5v-39zM71 632l86 146h82l86 -146h-54l-73 110l-73 -110h-54zM336 727l-72 115h67l53 -115h-48z" />
    <glyph glyph-name="uni1EC2" unicode="&#x1ec2;" horiz-adv-x="398" 
d="M70 0v810h293v-59h-216v-304h176v-56h-176v-334h218v-57h-295zM350 950l-27 29q23 13 35 25.5t12 30.5t-12.5 26.5t-32.5 8.5q-11 0 -22.5 -1.5t-23.5 -5.5v38q16 5 31.5 7t30.5 2q38 0 61.5 -17.5t23.5 -52.5t-22.5 -55t-53.5 -35zM93 864l86 146h82l86 -146h-54
l-73 110l-73 -110h-54z" />
    <glyph glyph-name="uni1EC3" unicode="&#x1ec3;" horiz-adv-x="395" 
d="M201 -9q-54 0 -88.5 21.5t-51 71.5t-16.5 133v146q0 86 17 134.5t52 69t88 20.5q61 0 93 -26t44.5 -78.5t12.5 -134.5v-52h-234v-101q0 -56 8.5 -88.5t27 -46.5t47.5 -14q22 0 40 8.5t28.5 33t10.5 69.5v40h71v-32q0 -79 -32.5 -126.5t-117.5 -47.5zM118 338h162v48
q0 46 -5 78.5t-21.5 50t-52.5 17.5q-30 0 -48.5 -13t-26.5 -46.5t-8 -95.5v-39zM328 718l-27 29q23 13 35 25.5t12 30.5t-12.5 26.5t-32.5 8.5q-11 0 -22.5 -1.5t-23.5 -5.5v38q16 5 31.5 7t30.5 2q38 0 61.5 -17.5t23.5 -52.5t-22.5 -55t-53.5 -35zM71 632l86 146h82
l86 -146h-54l-73 110l-73 -110h-54z" />
    <glyph glyph-name="uni1EC4" unicode="&#x1ec4;" horiz-adv-x="398" 
d="M70 0v810h293v-59h-216v-304h176v-56h-176v-334h218v-57h-295zM93 864l86 146h82l86 -146h-54l-73 110l-73 -110h-54zM281 1058q-24 0 -43 12t-35.5 24t-34.5 12q-16 0 -24.5 -10t-8.5 -30h-45q0 17 5.5 37.5t20.5 35.5t43 15q24 0 43 -11.5t36 -23.5t35 -12q17 0 25 9.5
t8 33.5h44q0 -18 -4.5 -39.5t-19.5 -37t-45 -15.5z" />
    <glyph glyph-name="uni1EC5" unicode="&#x1ec5;" horiz-adv-x="395" 
d="M201 -9q-54 0 -88.5 21.5t-51 71.5t-16.5 133v146q0 86 17 134.5t52 69t88 20.5q61 0 93 -26t44.5 -78.5t12.5 -134.5v-52h-234v-101q0 -56 8.5 -88.5t27 -46.5t47.5 -14q22 0 40 8.5t28.5 33t10.5 69.5v40h71v-32q0 -79 -32.5 -126.5t-117.5 -47.5zM118 338h162v48
q0 46 -5 78.5t-21.5 50t-52.5 17.5q-30 0 -48.5 -13t-26.5 -46.5t-8 -95.5v-39zM71 632l86 146h82l86 -146h-54l-73 110l-73 -110h-54zM259 826q-24 0 -43 12t-35.5 24t-34.5 12q-16 0 -24.5 -10t-8.5 -30h-45q0 17 5.5 37.5t20.5 35.5t43 15q24 0 43 -11.5t36 -23.5t35 -12
q17 0 25 9.5t8 33.5h44q0 -18 -4.5 -39.5t-19.5 -37t-45 -15.5z" />
    <glyph glyph-name="uni1EC6" unicode="&#x1ec6;" horiz-adv-x="398" 
d="M70 0v810h293v-59h-216v-304h176v-56h-176v-334h218v-57h-295zM93 864l86 146h82l86 -146h-54l-73 110l-73 -110h-54zM173 -150v89h78v-89h-78z" />
    <glyph glyph-name="uni1EC7" unicode="&#x1ec7;" horiz-adv-x="395" 
d="M201 -9q-54 0 -88.5 21.5t-51 71.5t-16.5 133v146q0 86 17 134.5t52 69t88 20.5q61 0 93 -26t44.5 -78.5t12.5 -134.5v-52h-234v-101q0 -56 8.5 -88.5t27 -46.5t47.5 -14q22 0 40 8.5t28.5 33t10.5 69.5v40h71v-32q0 -79 -32.5 -126.5t-117.5 -47.5zM118 338h162v48
q0 46 -5 78.5t-21.5 50t-52.5 17.5q-30 0 -48.5 -13t-26.5 -46.5t-8 -95.5v-39zM159 -150v89h78v-89h-78zM71 632l86 146h82l86 -146h-54l-73 110l-73 -110h-54z" />
    <glyph glyph-name="uni1EC8" unicode="&#x1ec8;" horiz-adv-x="222" 
d="M73 0v810h76v-810h-76zM111 883l-27 29q26 13 40.5 26t14.5 30q0 19 -13.5 27.5t-38.5 8.5q-11 0 -22.5 -1.5t-24.5 -4.5v38q32 7 64 7q28 0 48 -7.5t31 -23t11 -39.5q0 -23 -11 -39.5t-30 -28.5t-42 -22z" />
    <glyph glyph-name="uni1EC9" unicode="&#x1ec9;" horiz-adv-x="198" 
d="M64 0v578h73v-578h-73zM101 651l-27 29q26 13 40.5 26t14.5 30q0 19 -13.5 27.5t-38.5 8.5q-11 0 -22.5 -1.5t-24.5 -4.5v38q32 7 64 7q28 0 48 -7.5t31 -23t11 -39.5q0 -23 -11 -39.5t-30 -28.5t-42 -22z" />
    <glyph glyph-name="uni1ECA" unicode="&#x1eca;" horiz-adv-x="222" 
d="M73 0v810h76v-810h-76zM72 -150v89h78v-89h-78z" />
    <glyph glyph-name="uni1ECB" unicode="&#x1ecb;" horiz-adv-x="204" 
d="M64 0v578h73v-578h-73zM64 658v99h73v-99h-73zM64 -150v89h78v-89h-78z" />
    <glyph glyph-name="uni1ECC" unicode="&#x1ecc;" horiz-adv-x="525" 
d="M263 -10q-81 0 -126.5 31.5t-64 88t-18.5 129.5v336q0 74 19.5 128.5t65 84.5t124.5 30q78 0 123.5 -30t64.5 -84.5t19 -128.5v-337q0 -73 -18.5 -128.5t-63.5 -87.5t-125 -32zM263 51q53 0 81 21.5t38.5 60t10.5 89.5v367q0 51 -10.5 89t-38.5 58.5t-81 20.5
q-54 0 -82.5 -20.5t-39 -58.5t-10.5 -89v-367q0 -51 10.5 -89.5t39 -60t82.5 -21.5zM224 -150v89h78v-89h-78z" />
    <glyph glyph-name="uni1ECD" unicode="&#x1ecd;" horiz-adv-x="399" 
d="M199 -9q-59 0 -92.5 25.5t-47.5 74t-14 118.5v160q0 70 14 118.5t47.5 74t92.5 25.5q61 0 94 -25.5t47 -74t14 -118.5v-160q0 -70 -14 -118.5t-47 -74t-94 -25.5zM199 46q38 0 55.5 20t21.5 56.5t4 82.5v168q0 47 -4 82.5t-21.5 56t-55.5 20.5t-55 -20.5t-21 -56
t-4 -82.5v-168q0 -46 4 -82.5t21 -56.5t55 -20zM161 -150v89h78v-89h-78z" />
    <glyph glyph-name="uni1ECE" unicode="&#x1ece;" horiz-adv-x="525" 
d="M263 -10q-81 0 -126.5 31.5t-64 88t-18.5 129.5v336q0 74 19.5 128.5t65 84.5t124.5 30q78 0 123.5 -30t64.5 -84.5t19 -128.5v-337q0 -73 -18.5 -128.5t-63.5 -87.5t-125 -32zM263 51q53 0 81 21.5t38.5 60t10.5 89.5v367q0 51 -10.5 89t-38.5 58.5t-81 20.5
q-54 0 -82.5 -20.5t-39 -58.5t-10.5 -89v-367q0 -51 10.5 -89.5t39 -60t82.5 -21.5zM263 883l-27 29q26 13 40.5 26t14.5 30q0 19 -13.5 27.5t-38.5 8.5q-11 0 -22.5 -1.5t-24.5 -4.5v38q32 7 64 7q28 0 48 -7.5t31 -23t11 -39.5q0 -23 -11 -39.5t-30 -28.5t-42 -22z" />
    <glyph glyph-name="uni1ECF" unicode="&#x1ecf;" horiz-adv-x="399" 
d="M199 -9q-59 0 -92.5 25.5t-47.5 74t-14 118.5v160q0 70 14 118.5t47.5 74t92.5 25.5q61 0 94 -25.5t47 -74t14 -118.5v-160q0 -70 -14 -118.5t-47 -74t-94 -25.5zM199 46q38 0 55.5 20t21.5 56.5t4 82.5v168q0 47 -4 82.5t-21.5 56t-55.5 20.5t-55 -20.5t-21 -56
t-4 -82.5v-168q0 -46 4 -82.5t21 -56.5t55 -20zM200 651l-27 29q26 13 40.5 26t14.5 30q0 19 -13.5 27.5t-38.5 8.5q-11 0 -22.5 -1.5t-24.5 -4.5v38q32 7 64 7q28 0 48 -7.5t31 -23t11 -39.5q0 -23 -11 -39.5t-30 -28.5t-42 -22z" />
    <glyph glyph-name="uni1ED0" unicode="&#x1ed0;" horiz-adv-x="525" 
d="M263 -10q-81 0 -126.5 31.5t-64 88t-18.5 129.5v336q0 74 19.5 128.5t65 84.5t124.5 30q78 0 123.5 -30t64.5 -84.5t19 -128.5v-337q0 -73 -18.5 -128.5t-63.5 -87.5t-125 -32zM263 51q53 0 81 21.5t38.5 60t10.5 89.5v367q0 51 -10.5 89t-38.5 58.5t-81 20.5
q-54 0 -82.5 -20.5t-39 -58.5t-10.5 -89v-367q0 -51 10.5 -89.5t39 -60t82.5 -21.5zM136 864l86 146h82l86 -146h-54l-73 110l-73 -110h-54zM375 959l53 115h67l-71 -115h-49z" />
    <glyph glyph-name="uni1ED1" unicode="&#x1ed1;" horiz-adv-x="399" 
d="M199 -9q-59 0 -92.5 25.5t-47.5 74t-14 118.5v160q0 70 14 118.5t47.5 74t92.5 25.5q61 0 94 -25.5t47 -74t14 -118.5v-160q0 -70 -14 -118.5t-47 -74t-94 -25.5zM199 46q38 0 55.5 20t21.5 56.5t4 82.5v168q0 47 -4 82.5t-21.5 56t-55.5 20.5t-55 -20.5t-21 -56
t-4 -82.5v-168q0 -46 4 -82.5t21 -56.5t55 -20zM73 632l86 146h82l86 -146h-54l-73 110l-73 -110h-54zM312 727l53 115h67l-71 -115h-49z" />
    <glyph glyph-name="uni1ED2" unicode="&#x1ed2;" horiz-adv-x="525" 
d="M263 -10q-81 0 -126.5 31.5t-64 88t-18.5 129.5v336q0 74 19.5 128.5t65 84.5t124.5 30q78 0 123.5 -30t64.5 -84.5t19 -128.5v-337q0 -73 -18.5 -128.5t-63.5 -87.5t-125 -32zM263 51q53 0 81 21.5t38.5 60t10.5 89.5v367q0 51 -10.5 89t-38.5 58.5t-81 20.5
q-54 0 -82.5 -20.5t-39 -58.5t-10.5 -89v-367q0 -51 10.5 -89.5t39 -60t82.5 -21.5zM136 864l86 146h82l86 -146h-54l-73 110l-73 -110h-54zM401 959l-72 115h67l53 -115h-48z" />
    <glyph glyph-name="uni1ED3" unicode="&#x1ed3;" horiz-adv-x="399" 
d="M199 -9q-59 0 -92.5 25.5t-47.5 74t-14 118.5v160q0 70 14 118.5t47.5 74t92.5 25.5q61 0 94 -25.5t47 -74t14 -118.5v-160q0 -70 -14 -118.5t-47 -74t-94 -25.5zM199 46q38 0 55.5 20t21.5 56.5t4 82.5v168q0 47 -4 82.5t-21.5 56t-55.5 20.5t-55 -20.5t-21 -56
t-4 -82.5v-168q0 -46 4 -82.5t21 -56.5t55 -20zM73 632l86 146h82l86 -146h-54l-73 110l-73 -110h-54zM338 727l-72 115h67l53 -115h-48z" />
    <glyph glyph-name="uni1ED4" unicode="&#x1ed4;" horiz-adv-x="525" 
d="M263 -10q-81 0 -126.5 31.5t-64 88t-18.5 129.5v336q0 74 19.5 128.5t65 84.5t124.5 30q78 0 123.5 -30t64.5 -84.5t19 -128.5v-337q0 -73 -18.5 -128.5t-63.5 -87.5t-125 -32zM263 51q53 0 81 21.5t38.5 60t10.5 89.5v367q0 51 -10.5 89t-38.5 58.5t-81 20.5
q-54 0 -82.5 -20.5t-39 -58.5t-10.5 -89v-367q0 -51 10.5 -89.5t39 -60t82.5 -21.5zM393 950l-27 29q23 13 35 25.5t12 30.5t-12.5 26.5t-32.5 8.5q-11 0 -22.5 -1.5t-23.5 -5.5v38q16 5 31.5 7t30.5 2q38 0 61.5 -17.5t23.5 -52.5t-22.5 -55t-53.5 -35zM136 864l86 146h82
l86 -146h-54l-73 110l-73 -110h-54z" />
    <glyph glyph-name="uni1ED5" unicode="&#x1ed5;" horiz-adv-x="399" 
d="M199 -9q-59 0 -92.5 25.5t-47.5 74t-14 118.5v160q0 70 14 118.5t47.5 74t92.5 25.5q61 0 94 -25.5t47 -74t14 -118.5v-160q0 -70 -14 -118.5t-47 -74t-94 -25.5zM199 46q38 0 55.5 20t21.5 56.5t4 82.5v168q0 47 -4 82.5t-21.5 56t-55.5 20.5t-55 -20.5t-21 -56
t-4 -82.5v-168q0 -46 4 -82.5t21 -56.5t55 -20zM330 718l-27 29q23 13 35 25.5t12 30.5t-12.5 26.5t-32.5 8.5q-11 0 -22.5 -1.5t-23.5 -5.5v38q16 5 31.5 7t30.5 2q38 0 61.5 -17.5t23.5 -52.5t-22.5 -55t-53.5 -35zM73 632l86 146h82l86 -146h-54l-73 110l-73 -110h-54z
" />
    <glyph glyph-name="uni1ED6" unicode="&#x1ed6;" horiz-adv-x="525" 
d="M263 -10q-81 0 -126.5 31.5t-64 88t-18.5 129.5v336q0 74 19.5 128.5t65 84.5t124.5 30q78 0 123.5 -30t64.5 -84.5t19 -128.5v-337q0 -73 -18.5 -128.5t-63.5 -87.5t-125 -32zM263 51q53 0 81 21.5t38.5 60t10.5 89.5v367q0 51 -10.5 89t-38.5 58.5t-81 20.5
q-54 0 -82.5 -20.5t-39 -58.5t-10.5 -89v-367q0 -51 10.5 -89.5t39 -60t82.5 -21.5zM136 864l86 146h82l86 -146h-54l-73 110l-73 -110h-54zM324 1058q-24 0 -43 12t-35.5 24t-34.5 12q-16 0 -24.5 -10t-8.5 -30h-45q0 17 5.5 37.5t20.5 35.5t43 15q24 0 43 -11.5t36 -23.5
t35 -12q17 0 25 9.5t8 33.5h44q0 -18 -4.5 -39.5t-19.5 -37t-45 -15.5z" />
    <glyph glyph-name="uni1ED7" unicode="&#x1ed7;" horiz-adv-x="399" 
d="M199 -9q-59 0 -92.5 25.5t-47.5 74t-14 118.5v160q0 70 14 118.5t47.5 74t92.5 25.5q61 0 94 -25.5t47 -74t14 -118.5v-160q0 -70 -14 -118.5t-47 -74t-94 -25.5zM199 46q38 0 55.5 20t21.5 56.5t4 82.5v168q0 47 -4 82.5t-21.5 56t-55.5 20.5t-55 -20.5t-21 -56
t-4 -82.5v-168q0 -46 4 -82.5t21 -56.5t55 -20zM73 632l86 146h82l86 -146h-54l-73 110l-73 -110h-54zM261 826q-24 0 -43 12t-35.5 24t-34.5 12q-16 0 -24.5 -10t-8.5 -30h-45q0 17 5.5 37.5t20.5 35.5t43 15q24 0 43 -11.5t36 -23.5t35 -12q17 0 25 9.5t8 33.5h44
q0 -18 -4.5 -39.5t-19.5 -37t-45 -15.5z" />
    <glyph glyph-name="uni1ED8" unicode="&#x1ed8;" horiz-adv-x="525" 
d="M263 -10q-81 0 -126.5 31.5t-64 88t-18.5 129.5v336q0 74 19.5 128.5t65 84.5t124.5 30q78 0 123.5 -30t64.5 -84.5t19 -128.5v-337q0 -73 -18.5 -128.5t-63.5 -87.5t-125 -32zM263 51q53 0 81 21.5t38.5 60t10.5 89.5v367q0 51 -10.5 89t-38.5 58.5t-81 20.5
q-54 0 -82.5 -20.5t-39 -58.5t-10.5 -89v-367q0 -51 10.5 -89.5t39 -60t82.5 -21.5zM136 864l86 146h82l86 -146h-54l-73 110l-73 -110h-54zM224 -150v89h78v-89h-78z" />
    <glyph glyph-name="uni1ED9" unicode="&#x1ed9;" horiz-adv-x="399" 
d="M199 -9q-59 0 -92.5 25.5t-47.5 74t-14 118.5v160q0 70 14 118.5t47.5 74t92.5 25.5q61 0 94 -25.5t47 -74t14 -118.5v-160q0 -70 -14 -118.5t-47 -74t-94 -25.5zM199 46q38 0 55.5 20t21.5 56.5t4 82.5v168q0 47 -4 82.5t-21.5 56t-55.5 20.5t-55 -20.5t-21 -56
t-4 -82.5v-168q0 -46 4 -82.5t21 -56.5t55 -20zM161 -150v89h78v-89h-78zM73 632l86 146h82l86 -146h-54l-73 110l-73 -110h-54z" />
    </font>
</defs>
</svg>
