<?xml version="1.0" standalone="no"?>
<!DOCTYPE svg PUBLIC "-//W3C//DTD SVG 1.1//EN" "http://www.w3.org/Graphics/SVG/1.1/DTD/svg11.dtd" >
<svg xmlns="http://www.w3.org/2000/svg" xmlns:xlink="http://www.w3.org/1999/xlink" version="1.1">
<metadata>
Created by FontForge 20170731 at Fri May  5 00:28:35 2017
 By Aleksey,,,
Copyright (c) 2015 by Noel Leu. All rights reserved.
</metadata>
<defs>
<font id="GTWalsheimPro-RegularOblique" horiz-adv-x="640" >
  <font-face 
    font-family="GT Walsheim Pro"
    font-weight="400"
    font-style="oblique"
    font-stretch="normal"
    units-per-em="1000"
    panose-1="0 0 5 0 0 0 0 0 0 0"
    ascent="700"
    descent="-300"
    x-height="461"
    cap-height="700"
    bbox="-452.821 -227 1156.25 899"
    underline-thickness="50"
    underline-position="-250"
    slope="-6"
    unicode-range="U+000D-FB02"
  />
<missing-glyph horiz-adv-x="800" 
d="M398 -17q-109 0 -187.5 52.5t-113 135.5t-24.5 179q16 149 127.5 258t274.5 109q109 0 188 -52.5t113.5 -135.5t24.5 -179q-16 -149 -128 -258t-275 -109zM401 6q140 0 250 100.5t125 243.5q9 90 -26 169t-109 127.5t-168 48.5q-143 0 -252 -103t-124 -242
q-15 -143 73.5 -243.5t230.5 -100.5zM291 457q-17 0 -28 13t-9 30q1 18 15 30.5t31 12.5q18 0 29.5 -12.5t9.5 -30.5q-2 -17 -16 -30t-32 -13zM588 457q-17 0 -28 13t-9 30q1 18 15 30.5t31 12.5q18 0 29.5 -12.5t9.5 -30.5q-2 -17 -16 -30t-32 -13zM246 259l207 268
l-135 -243h178l-3 -25h-247zM154 207q2 37 31 52l25 13q11 6 14.5 17.5t6.5 39.5h17q-7 -57 -28 -69l-23 -13q-24 -13 -27 -40h-16zM633 157l-16 4q7 17 5.5 26t-14.5 15l-39 20q-52 27 -20 98l14 -5q-26 -61 18 -82l38 -19q19 -9 20 -26.5t-6 -30.5zM373 66
q-101 0 -181 162q76 -49 108 -59q35 -12 73 -12q148 0 223 37l4 2q-28 -49 -98 -89.5t-129 -40.5zM376 92q31 0 73.5 16.5t65 30t34.5 21.5q-11 -2 -42 -9.5t-45.5 -10t-40 -5.5t-49.5 -3q-30 0 -69 11.5t-60 30.5q22 -42 63 -62t70 -20z" />
    <glyph glyph-name="fi" unicode="fi" horiz-adv-x="588" 
d="M176 541q5 51 24 86t45.5 51t49 22t45.5 6q46 0 69 -10l-8 -75q-25 7 -46 7q-16 0 -28.5 -2.5t-27.5 -10.5t-24 -26t-12 -46l-9 -82h130l-7 -73h-130l-41 -388h-87l41 388h-98l7 73h98zM542 681q30 0 47.5 -20.5t14.5 -50.5t-25 -50t-52 -20q-31 0 -49 20t-15 50
t25.5 50.5t53.5 20.5zM426 0l48 461h87l-48 -461h-87z" />
    <glyph glyph-name="fl" unicode="fl" horiz-adv-x="588" 
d="M176 541q5 51 24 86t45.5 51t49 22t45.5 6q46 0 69 -10l-8 -75q-25 7 -46 7q-16 0 -28.5 -2.5t-27.5 -10.5t-24 -26t-12 -46l-9 -82h130l-7 -73h-130l-41 -388h-87l41 388h-98l7 73h98zM500 700h87l-74 -700h-87z" />
    <glyph glyph-name="f_f" unicode="ff" horiz-adv-x="725" 
d="M176 541q5 51 24 86t45.5 51t49 22t45.5 6q46 0 69 -10l-8 -75q-25 7 -46 7q-16 0 -28.5 -2.5t-27.5 -10.5t-24 -26t-12 -46l-9 -82h130l-7 -73h-130l-41 -388h-87l41 388h-98l7 73h98zM729 628q-16 0 -28.5 -2.5t-27.5 -10.5t-24 -26t-12 -46l-9 -82h130l-7 -73h-130
l-41 -388h-87l41 388h-98l7 73h98l9 80q5 51 24 86t45.5 51t49 22t45.5 6q46 0 69 -10l-8 -75q-24 7 -46 7z" />
    <glyph glyph-name="f_f_i" unicode="ffi" horiz-adv-x="962" 
d="M176 541q5 51 24 86t45.5 51t49 22t45.5 6q46 0 69 -10l-8 -75q-25 7 -46 7q-16 0 -28.5 -2.5t-27.5 -10.5t-24 -26t-12 -46l-9 -82h130l-7 -73h-130l-41 -388h-87l41 388h-98l7 73h98zM550 541q5 51 24 86t45.5 51t49 22t45.5 6q46 0 69 -10l-8 -75q-24 7 -46 7
q-16 0 -28.5 -2.5t-27.5 -10.5t-24 -26t-12 -46l-9 -82h130l-7 -73h-130l-41 -388h-87l41 388h-98l7 73h98zM916 681q30 0 47.5 -20.5t14.5 -50.5t-25 -50t-52 -20q-31 0 -49 20t-15 50t25.5 50.5t53.5 20.5zM800 0l48 461h87l-48 -461h-87z" />
    <glyph glyph-name="f_f_l" unicode="ffl" horiz-adv-x="962" 
d="M176 541q5 51 24 86t45.5 51t49 22t45.5 6q46 0 69 -10l-8 -75q-25 7 -46 7q-16 0 -28.5 -2.5t-27.5 -10.5t-24 -26t-12 -46l-9 -82h130l-7 -73h-130l-41 -388h-87l41 388h-98l7 73h98zM550 541q5 51 24 86t45.5 51t49 22t45.5 6q46 0 69 -10l-8 -75q-24 7 -46 7
q-16 0 -28.5 -2.5t-27.5 -10.5t-24 -26t-12 -46l-9 -82h130l-7 -73h-130l-41 -388h-87l41 388h-98l7 73h98zM874 700h87l-74 -700h-87z" />
    <glyph glyph-name=".notdef" horiz-adv-x="800" 
d="M398 -17q-109 0 -187.5 52.5t-113 135.5t-24.5 179q16 149 127.5 258t274.5 109q109 0 188 -52.5t113.5 -135.5t24.5 -179q-16 -149 -128 -258t-275 -109zM401 6q140 0 250 100.5t125 243.5q9 90 -26 169t-109 127.5t-168 48.5q-143 0 -252 -103t-124 -242
q-15 -143 73.5 -243.5t230.5 -100.5zM291 457q-17 0 -28 13t-9 30q1 18 15 30.5t31 12.5q18 0 29.5 -12.5t9.5 -30.5q-2 -17 -16 -30t-32 -13zM588 457q-17 0 -28 13t-9 30q1 18 15 30.5t31 12.5q18 0 29.5 -12.5t9.5 -30.5q-2 -17 -16 -30t-32 -13zM246 259l207 268
l-135 -243h178l-3 -25h-247zM154 207q2 37 31 52l25 13q11 6 14.5 17.5t6.5 39.5h17q-7 -57 -28 -69l-23 -13q-24 -13 -27 -40h-16zM633 157l-16 4q7 17 5.5 26t-14.5 15l-39 20q-52 27 -20 98l14 -5q-26 -61 18 -82l38 -19q19 -9 20 -26.5t-6 -30.5zM373 66
q-101 0 -181 162q76 -49 108 -59q35 -12 73 -12q148 0 223 37l4 2q-28 -49 -98 -89.5t-129 -40.5zM376 92q31 0 73.5 16.5t65 30t34.5 21.5q-11 -2 -42 -9.5t-45.5 -10t-40 -5.5t-49.5 -3q-30 0 -69 11.5t-60 30.5q22 -42 63 -62t70 -20z" />
    <glyph glyph-name=".null" horiz-adv-x="0" 
 />
    <glyph glyph-name="nonmarkingreturn" horiz-adv-x="333" 
 />
    <glyph glyph-name="CR" unicode="&#xd;" horiz-adv-x="250" 
 />
    <glyph glyph-name="space" unicode=" " horiz-adv-x="253" 
 />
    <glyph glyph-name="exclam" unicode="!" horiz-adv-x="268" 
d="M112 211l52 489h87l-52 -489h-87zM132 -7q-30 0 -48.5 21.5t-15.5 51.5t26.5 51.5t53.5 21.5q31 0 50 -21.5t16 -51.5t-27 -51.5t-55 -21.5z" />
    <glyph glyph-name="quotedbl" unicode="&#x22;" horiz-adv-x="414" 
d="M256 625q-2 -11 -6 -21l-61 -185h-44l-24 185q-1 10 0 21q3 28 24.5 47.5t49.5 19.5t46 -19.5t15 -47.5zM425 625q-2 -11 -6 -21l-61 -185h-44l-24 185q-2 10 0 21q3 28 24.5 47.5t49.5 19.5t46 -19.5t15 -47.5z" />
    <glyph glyph-name="numbersign" unicode="#" horiz-adv-x="537" 
d="M89 0l51 209h-95l7 68h105l35 146h-95l8 68h104l51 209h72l-51 -209h126l51 209h72l-51 -209h88l-8 -68h-98l-35 -146h88l-7 -68h-97l-52 -209h-71l51 209h-126l-52 -209h-71zM228 277h127l35 146h-127z" />
    <glyph glyph-name="dollar" unicode="$" horiz-adv-x="544" 
d="M523 177q-9 -80 -66 -131.5t-146 -60.5l-9 -85h-66l10 86q-100 9 -149.5 71t-38.5 164h91q-8 -72 29 -114.5t110 -42.5q63 0 100.5 29t42.5 82q4 42 -17.5 68.5t-72.5 43.5l-110 31q-137 42 -122 187q8 72 65.5 125t145.5 60l9 90h66l-10 -92q81 -12 122 -67t33 -140h-91
q5 63 -25.5 97.5t-91.5 34.5q-57 0 -91 -28.5t-39 -74.5q-5 -45 18 -74t80 -46l113 -36q124 -39 110 -177z" />
    <glyph glyph-name="percent" unicode="%" horiz-adv-x="779" 
d="M180 -15l-55 33l544 682l53 -32zM233 348q-80 0 -123 49.5t-36 120.5q8 71 61 120.5t133 49.5t123 -49.5t35 -120.5q-7 -71 -60 -120.5t-133 -49.5zM240 416q47 0 76.5 29t33.5 73q5 44 -19 73t-70 29t-75.5 -29t-34.5 -73q-4 -44 19.5 -73t69.5 -29zM582 -5
q-80 0 -122.5 49.5t-35.5 120.5q8 71 61 120.5t133 49.5t123 -49.5t35 -120.5q-7 -71 -60.5 -120.5t-133.5 -49.5zM590 63q46 0 75.5 29t34.5 73t-19 73t-70 29t-75.5 -29t-34.5 -73t19 -73t70 -29z" />
    <glyph glyph-name="ampersand" unicode="&#x26;" horiz-adv-x="595" 
d="M619 310l-9 -81h-58q-16 -117 -89 -180.5t-181 -63.5q-105 0 -166 58.5t-51 150.5q7 66 52.5 113t105.5 60q-56 16 -85.5 56.5t-22.5 99.5q9 86 76.5 139t170.5 53q100 0 157.5 -54.5t46.5 -155.5h-95q6 59 -23.5 95.5t-93.5 36.5q-58 0 -98 -30.5t-46 -83.5
q-6 -55 22.5 -86t94.5 -31h26l-9 -83h-25q-75 0 -114.5 -35t-45.5 -95q-5 -54 30 -91t102 -37t111.5 43t54.5 121h-73l9 81h226z" />
    <glyph glyph-name="quotesingle" unicode="'" horiz-adv-x="245" 
d="M256 625q-2 -11 -6 -21l-61 -185h-44l-24 185q-1 10 0 21q3 28 24.5 47.5t49.5 19.5t46 -19.5t15 -47.5z" />
    <glyph glyph-name="parenleft" unicode="(" horiz-adv-x="318" 
d="M257 -193q-200 189 -170 465q28 276 268 466l47 -50q-102 -90 -159 -190t-70 -226q-14 -126 22.5 -226t119.5 -190z" />
    <glyph glyph-name="parenright" unicode=")" horiz-adv-x="318" 
d="M21 -193l-48 49q102 90 159 189.5t71 226.5q13 126 -23.5 226t-119.5 190l59 50q198 -191 170 -466q-30 -277 -268 -465z" />
    <glyph glyph-name="asterisk" unicode="*" horiz-adv-x="421" 
d="M162 353l-53 40l116 126l-141 39l27 62l134 -55l7 152h68l-26 -152l146 55l15 -62l-149 -39l88 -126l-61 -40l-71 136z" />
    <glyph glyph-name="plus" unicode="+" horiz-adv-x="504" 
d="M223 116l17 160h-158l8 77h158l17 162h83l-17 -162h158l-8 -77h-158l-17 -160h-83z" />
    <glyph glyph-name="comma" unicode="," horiz-adv-x="297" 
d="M93 -120q-21 0 -33 3l4 42q12 -2 37 -2q41 0 59 34q15 20 19 54q-15 -16 -43 -16q-29 0 -46 19t-13 50q3 31 25.5 51t53.5 20q36 0 60.5 -29.5t18.5 -84.5q-6 -63 -44 -102t-98 -39z" />
    <glyph glyph-name="hyphen" unicode="-" horiz-adv-x="410" 
d="M76 223l9 78h305l-9 -78h-305z" />
    <glyph glyph-name="period" unicode="." horiz-adv-x="286" 
d="M142 -7q-31 0 -49.5 21.5t-15.5 51.5t26.5 51.5t54.5 21.5q30 0 49 -21.5t16 -51.5t-27 -51.5t-54 -21.5z" />
    <glyph glyph-name="slash" unicode="/" horiz-adv-x="439" 
d="M76 -65l-67 31l427 795l67 -31z" />
    <glyph glyph-name="zero" unicode="0" horiz-adv-x="610" 
d="M304 -11q-126 0 -182 89.5t-38 262.5q18 172 93 261.5t201 89.5t182 -89.5t38 -261.5t-93 -262t-201 -90zM312 69q171 0 199 272q28 271 -142 271q-171 0 -199 -271q-28 -272 142 -272z" />
    <glyph glyph-name="one" unicode="1" horiz-adv-x="380" 
d="M178 0l51 487h-142l8 77q89 0 122 25t39 91h83l-71 -680h-90z" />
    <glyph glyph-name="two" unicode="2" horiz-adv-x="569" 
d="M53 0q12 113 58.5 183t142.5 118l109 54q100 49 109 142q5 51 -24.5 82.5t-82.5 31.5q-66 0 -107 -41t-48 -116h-94q11 108 81.5 172.5t176.5 64.5q99 0 151.5 -51t43.5 -139q-14 -133 -154 -205l-110 -55q-66 -34 -94.5 -67.5t-41.5 -91.5h357l-9 -82h-464z" />
    <glyph glyph-name="three" unicode="3" horiz-adv-x="563" 
d="M281 -11q-114 0 -172.5 59.5t-47.5 165.5h93q-7 -70 28.5 -108.5t106.5 -38.5q62 0 104 34t48 89q6 60 -27.5 92.5t-103.5 32.5h-50l8 79h51q62 0 98 29t41 84q5 48 -26.5 78t-86.5 30q-63 0 -103.5 -34.5t-46.5 -93.5h-89q10 93 77 148.5t170 55.5q98 0 152.5 -50.5
t45.5 -133.5q-6 -58 -42 -96.5t-98 -54.5q60 -8 94.5 -54t27.5 -112q-10 -89 -80 -145t-172 -56z" />
    <glyph glyph-name="four" unicode="4" horiz-adv-x="574" 
d="M567 302l-9 -82h-106l-23 -220h-90l23 220h-274l48 460h91l-39 -378h183l21 201h90l-21 -201h106z" />
    <glyph glyph-name="five" unicode="5" horiz-adv-x="577" 
d="M292 -11q-97 0 -155.5 52.5t-54.5 135.5h92q-2 -49 33 -78t94 -29q70 0 114.5 43t52.5 117q8 72 -24.5 114t-96.5 42q-107 0 -155 -87h-85l40 381h414l-8 -81h-331l-22 -209q60 70 166 70q98 0 149.5 -61.5t40.5 -165.5q-11 -106 -84 -175t-180 -69z" />
    <glyph glyph-name="six" unicode="6" horiz-adv-x="568" 
d="M333 473q110 0 168 -69t47 -173t-83.5 -173.5t-182.5 -69.5q-109 0 -167.5 69.5t-47.5 173.5q9 84 60 147l245 302h109l-174 -208q8 1 26 1zM290 66q71 0 117.5 46.5t53.5 118.5q8 71 -28.5 117.5t-107.5 46.5t-117 -46.5t-54 -117.5q-7 -72 29 -118.5t107 -46.5z" />
    <glyph glyph-name="seven" unicode="7" horiz-adv-x="513" 
d="M60 0l379 596h-331l8 84h468l-423 -680h-101z" />
    <glyph glyph-name="eight" unicode="8" horiz-adv-x="579" 
d="M288 -11q-109 0 -168.5 54t-49.5 144q6 62 42 105.5t95 59.5q-49 16 -74 59t-19 100q8 80 77 130t171 50t160.5 -50t50.5 -130q-6 -56 -41 -99t-87 -60q55 -16 82.5 -59.5t21.5 -105.5q-10 -90 -81 -144t-180 -54zM330 389q63 0 103 31t45 82q5 53 -28.5 84t-95.5 31
t-102 -31t-45 -84q-5 -51 29 -82t94 -31zM296 67q66 0 110 34t50 91t-30.5 91t-103.5 34q-64 0 -108.5 -34.5t-50.5 -90.5q-6 -57 30.5 -91t102.5 -34z" />
    <glyph glyph-name="nine" unicode="9" horiz-adv-x="555" 
d="M559 449q-9 -83 -59 -147l-246 -302h-109l175 208q-8 -1 -26 -1q-110 0 -168.5 69.5t-47.5 172.5q11 104 84 173.5t183 69.5q109 0 167 -69.5t47 -173.5zM165 449q-7 -71 29.5 -117.5t107.5 -46.5t117 46.5t53 117.5q8 72 -28 118.5t-107 46.5t-117.5 -46.5t-54.5 -118.5
z" />
    <glyph glyph-name="colon" unicode=":" horiz-adv-x="286" 
d="M177 326q-31 0 -49.5 21.5t-15.5 51.5t26.5 51.5t54.5 21.5q30 0 49 -21.5t16 -51.5t-27 -51.5t-54 -21.5zM142 -7q-31 0 -49.5 21.5t-15.5 51.5t26.5 51.5t54.5 21.5q30 0 49 -21.5t16 -51.5t-27 -51.5t-54 -21.5z" />
    <glyph glyph-name="semicolon" unicode=";" horiz-adv-x="297" 
d="M177 325q-31 0 -49.5 21.5t-15.5 51.5t26.5 51.5t54.5 21.5q30 0 49 -21.5t16 -51.5t-27 -51.5t-54 -21.5zM93 -120q-21 0 -33 3l4 42q12 -2 37 -2q41 0 59 34q15 20 19 54q-15 -16 -43 -16q-29 0 -46 19t-13 50q3 31 25.5 51t53.5 20q36 0 60.5 -29.5t18.5 -84.5
q-6 -63 -44 -102t-98 -39z" />
    <glyph glyph-name="less" unicode="&#x3c;" horiz-adv-x="500" 
d="M459 112l-376 173l7 63l412 174l-9 -83l-287 -122l261 -123z" />
    <glyph glyph-name="equal" unicode="=" horiz-adv-x="529" 
d="M91 363l8 78h424l-8 -78h-424zM73 186l8 78h424l-8 -78h-424z" />
    <glyph glyph-name="greater" unicode="&#x3e;" horiz-adv-x="500" 
d="M65 112l8 82l287 123l-261 122l9 83l376 -174l-7 -63z" />
    <glyph glyph-name="question" unicode="?" horiz-adv-x="472" 
d="M191 211l2 15q5 50 21 80t58 59l55 35q72 48 80 125q5 50 -23 81t-82 31q-62 0 -102.5 -37t-47.5 -106h-91q11 105 78.5 164t174.5 59q98 0 147.5 -52t40.5 -137q-6 -60 -36.5 -101t-82.5 -79l-47 -31q-30 -21 -41.5 -39.5t-14.5 -50.5l-2 -16h-87zM211 -7
q-31 0 -49.5 21.5t-15.5 51.5t26.5 51.5t54.5 21.5t49.5 -21.5t15.5 -51.5t-26.5 -51.5t-54.5 -21.5z" />
    <glyph glyph-name="at" unicode="@" horiz-adv-x="889" 
d="M437 -194q-197 0 -296 114t-80 296q19 186 143 296t312 110q183 0 281.5 -103.5t76.5 -304.5q-12 -119 -60 -184t-128 -65q-61 0 -89.5 30t-32.5 92q-21 -35 -61 -56.5t-91 -21.5q-86 0 -135 60t-40 144q9 86 71 146.5t149 60.5q99 0 134 -79l7 69h73l-29 -276
q-12 -110 54 -110q39 0 68.5 43.5t39.5 139.5q19 180 -59.5 266.5t-234.5 86.5q-158 0 -260.5 -93.5t-119.5 -251.5q-17 -155 65.5 -250.5t248.5 -95.5q108 0 205 51l20 -58q-105 -56 -232 -56zM429 75q60 0 101.5 40.5t46.5 98.5q6 58 -27 98.5t-92 40.5t-100 -40.5
t-47 -98.5q-5 -59 27 -99t91 -40z" />
    <glyph glyph-name="A" unicode="A" horiz-adv-x="590" 
d="M474 0l-22 107h-291l-44 -107h-99l311 700h81l163 -700h-99zM196 190h239l-80 384z" />
    <glyph glyph-name="B" unicode="B" horiz-adv-x="582" 
d="M434 358q59 -7 94.5 -51.5t28.5 -115.5q-9 -88 -72.5 -139.5t-164.5 -51.5h-240l74 700h230q101 0 154 -48t45 -133q-7 -69 -46.5 -109t-102.5 -52zM372 619h-136l-23 -224h142q56 0 93 30t42 82q6 54 -25.5 83t-92.5 29zM328 81q59 0 96 31.5t43 87.5q5 51 -25 83
t-83 32h-155l-24 -234h148z" />
    <glyph glyph-name="C" unicode="C" horiz-adv-x="771" 
d="M398 -16q-167 0 -253.5 103t-69.5 263q17 161 125 263.5t275 102.5q138 0 219 -68t90 -178h-100q-12 76 -67 120t-149 44q-124 0 -204.5 -79t-93.5 -205q-14 -126 49.5 -205t188.5 -79q94 0 158.5 44t92.5 120h100q-32 -110 -127.5 -178t-233.5 -68z" />
    <glyph glyph-name="D" unicode="D" horiz-adv-x="691" 
d="M80 0l74 700h223q84 0 150 -29t104 -78t55 -111.5t10 -131.5q-15 -144 -121 -247t-272 -103h-223zM180 82h125q129 0 207.5 79t89.5 189q11 111 -50.5 189.5t-190.5 78.5h-125z" />
    <glyph glyph-name="E" unicode="E" horiz-adv-x="545" 
d="M80 0l74 700h398l-9 -82h-307l-24 -229h307l-9 -82h-307l-23 -225h307l-9 -82h-398z" />
    <glyph glyph-name="F" unicode="F" horiz-adv-x="532" 
d="M80 0l74 700h398l-9 -82h-307l-27 -253h307l-8 -82h-307l-30 -283h-91z" />
    <glyph glyph-name="G" unicode="G" horiz-adv-x="829" 
d="M843 340l-9 -82h-77q-36 -127 -130 -200.5t-232 -73.5q-164 0 -251 103t-70 259q17 157 124.5 263.5t278.5 106.5q121 0 197.5 -61t81.5 -155h-100q-9 60 -58.5 97t-128.5 37q-130 0 -208.5 -81t-91.5 -207q-12 -120 51 -200t184 -80q98 0 163.5 49.5t94.5 142.5h-170
l9 82h342z" />
    <glyph glyph-name="H" unicode="H" horiz-adv-x="668" 
d="M80 0l74 700h91l-33 -311h326l33 311h91l-74 -700h-91l32 307h-326l-32 -307h-91z" />
    <glyph glyph-name="I" unicode="I" horiz-adv-x="251" 
d="M80 0l74 700h91l-74 -700h-91z" />
    <glyph glyph-name="J" unicode="J" horiz-adv-x="536" 
d="M247 -16q-104 0 -158 64.5t-43 173.5h91q-7 -72 25 -114t94 -42q63 0 103 42.5t48 115.5l50 476h91l-50 -476q-12 -110 -79 -175t-172 -65z" />
    <glyph glyph-name="K" unicode="K" horiz-adv-x="595" 
d="M656 700l-362 -346l288 -354h-118l-259 326l-34 -326h-91l74 700h91l-35 -328l329 328h117z" />
    <glyph glyph-name="L" unicode="L" horiz-adv-x="511" 
d="M80 0l74 700h91l-65 -614h298l-9 -86h-389z" />
    <glyph glyph-name="M" unicode="M" horiz-adv-x="816" 
d="M80 0l74 700h88l180 -571l300 571h88l-74 -700h-88l54 511l-259 -511h-70l-151 514l-54 -514h-88z" />
    <glyph glyph-name="N" unicode="N" horiz-adv-x="659" 
d="M80 0l74 700h97l257 -548l58 548h87l-74 -700h-96l-257 548l-58 -548h-88z" />
    <glyph glyph-name="O" unicode="O" horiz-adv-x="797" 
d="M397 -16q-164 0 -251 106t-71 260q16 153 125.5 259.5t273.5 106.5t251.5 -106t71.5 -260t-126 -260t-274 -106zM406 66q122 0 202.5 82t92.5 202q13 120 -50 202t-185 82t-202.5 -82t-93.5 -202t50.5 -202t185.5 -82z" />
    <glyph glyph-name="P" unicode="P" horiz-adv-x="580" 
d="M405 700q103 0 161.5 -68t47.5 -174q-11 -105 -84 -173t-176 -68h-160l-23 -217h-91l74 700h251zM357 299q65 0 112 45t54 114q7 70 -30 115t-102 45h-155l-34 -319h155z" />
    <glyph glyph-name="Q" unicode="Q" horiz-adv-x="797" 
d="M797 350q-14 -127 -92.5 -224t-201.5 -129l67 -102l-84 -41l-87 130h-2q-164 0 -251 106t-71 260q16 153 125.5 259.5t273.5 106.5t251.5 -106t71.5 -260zM406 66q122 0 202.5 82t92.5 202q13 120 -50 202t-185 82t-202.5 -82t-93.5 -202t50.5 -202t185.5 -82z" />
    <glyph glyph-name="R" unicode="R" horiz-adv-x="606" 
d="M614 458q-8 -82 -55.5 -143t-120.5 -85l118 -230h-104l-112 217h-146l-23 -217h-91l74 700h251q103 0 161.5 -68t47.5 -174zM236 618l-34 -319h155q65 0 112 45t54 114q7 70 -30 115t-102 45h-155z" />
    <glyph glyph-name="S" unicode="S" horiz-adv-x="557" 
d="M286 -16q-119 0 -179 63t-49 176h91q-7 -73 32 -116t113 -43q66 0 105 30t45 86q5 46 -18 74t-81 49l-112 41q-135 45 -122 184q9 84 75.5 136t164.5 52q103 0 159 -58t46 -156h-91q7 65 -25.5 100.5t-99.5 35.5q-58 0 -94.5 -28.5t-41.5 -76.5q-4 -44 21.5 -73t88.5 -51
l104 -38q133 -48 118 -189q-9 -89 -77.5 -143.5t-172.5 -54.5z" />
    <glyph glyph-name="T" unicode="T" horiz-adv-x="521" 
d="M215 0l65 614h-209l9 86h509l-9 -86h-209l-65 -614h-91z" />
    <glyph glyph-name="U" unicode="U" horiz-adv-x="635" 
d="M316 -16q-118 0 -180 64t-49 182l50 470h91l-49 -465q-9 -82 30.5 -125.5t115.5 -43.5t124 43.5t57 125.5l49 465h92l-50 -470q-13 -118 -88 -182t-193 -64z" />
    <glyph glyph-name="V" unicode="V" horiz-adv-x="565" 
d="M239 0l-164 700h99l124 -558l241 558h99l-311 -700h-88z" />
    <glyph glyph-name="W" unicode="W" horiz-adv-x="958" 
d="M242 0l-165 700h96l121 -550l225 550h69l108 -550l238 550h96l-314 -700h-67l-113 542l-226 -542h-68z" />
    <glyph glyph-name="X" unicode="X" horiz-adv-x="604" 
d="M20 0l267 350l-193 350h103l150 -275l208 275h103l-267 -350l193 -350h-103l-150 274l-208 -274h-103z" />
    <glyph glyph-name="Y" unicode="Y" horiz-adv-x="552" 
d="M541 700h100l-426 -700h-101l170 278l-220 422h106l170 -328z" />
    <glyph glyph-name="Z" unicode="Z" horiz-adv-x="573" 
d="M23 0l431 618h-329l9 82h481l-428 -618h359l-9 -82h-514z" />
    <glyph glyph-name="bracketleft" unicode="[" horiz-adv-x="288" 
d="M60 -193l97 926h197l-7 -70h-118l-83 -787h118l-7 -69h-197z" />
    <glyph glyph-name="backslash" unicode="\" horiz-adv-x="439" 
d="M349 -65l-259 795l73 31l259 -795z" />
    <glyph glyph-name="bracketright" unicode="]" horiz-adv-x="288" 
d="M188 -193h-197l7 69h118l83 787h-118l7 70h197z" />
    <glyph glyph-name="asciicircum" unicode="^" horiz-adv-x="553" 
d="M82 303l236 400h62l155 -400h-98l-99 290l-161 -290h-95z" />
    <glyph glyph-name="underscore" unicode="_" horiz-adv-x="515" 
d="M-22 -213l6 62h515l-6 -62h-515z" />
    <glyph glyph-name="grave" unicode="`" horiz-adv-x="600" 
d="M338 506l-262 117l36 65l262 -114z" />
    <glyph glyph-name="a" unicode="a" horiz-adv-x="591" 
d="M265 -12q-107 0 -160.5 68t-42.5 174q11 105 81 174t175 69q54 0 94.5 -25t57.5 -68l8 81h86l-48 -461h-86l9 81q-26 -42 -74 -67.5t-100 -25.5zM285 66q73 0 119.5 47.5t53.5 116.5q8 70 -28.5 117.5t-109.5 47.5q-70 0 -117 -46.5t-55 -118.5t29.5 -118t107.5 -46z" />
    <glyph glyph-name="b" unicode="b" horiz-adv-x="591" 
d="M381 473q99 0 153.5 -67.5t43.5 -175.5q-11 -106 -82 -174t-171 -68q-53 0 -95 25t-59 68l-9 -81h-87l74 700h87l-34 -320q26 43 74.5 68t104.5 25zM321 66q67 0 115 46t55 118q8 72 -30 118.5t-105 46.5q-69 0 -118 -46t-56 -119q-8 -72 31 -118t108 -46z" />
    <glyph glyph-name="c" unicode="c" horiz-adv-x="520" 
d="M266 -12q-105 0 -160 67t-44 175t80.5 175t174.5 67q92 0 144 -46.5t53 -124.5h-87q-9 93 -119 93q-67 0 -109.5 -43.5t-50.5 -120.5q-8 -76 25.5 -120t100.5 -44q109 0 137 90h87q-16 -77 -77.5 -122.5t-154.5 -45.5z" />
    <glyph glyph-name="d" unicode="d" horiz-adv-x="591" 
d="M503 700h87l-74 -700h-86l9 81q-26 -42 -74 -67.5t-100 -25.5q-107 0 -160.5 68t-42.5 174q11 105 81 174t175 69q54 0 94.5 -25t57.5 -68l5 48h-1zM285 66q73 0 119.5 47.5t53.5 116.5q8 70 -28.5 117.5t-109.5 47.5q-70 0 -117 -46.5t-55 -118.5t29.5 -118t107.5 -46z
" />
    <glyph glyph-name="e" unicode="e" horiz-adv-x="521" 
d="M511 257q-2 -18 -8 -52h-357q-6 -66 29 -103.5t101 -37.5q91 0 129 68h87q-19 -64 -81 -104t-143 -40q-106 0 -161.5 65.5t-44.5 177.5q12 110 81 176t172 66q98 0 152 -60t44 -156zM153 272h274q6 61 -26 96t-95 35q-62 0 -103 -36t-50 -95z" />
    <glyph glyph-name="f" unicode="f" horiz-adv-x="351" 
d="M355 628q-16 0 -28.5 -2.5t-27.5 -10.5t-24 -26t-12 -46l-9 -82h130l-7 -73h-130l-41 -388h-87l41 388h-98l7 73h98l9 80q5 51 24 86t45.5 51t49 22t45.5 6q46 0 69 -10l-8 -75q-25 7 -46 7z" />
    <glyph glyph-name="g" unicode="g" horiz-adv-x="591" 
d="M478 461h86l-47 -449q-14 -132 -100 -194q-62 -43 -164 -43q-101 0 -158 45q-61 45 -56 122h91q1 -42 34 -68t97 -26q153 0 170 158l8 75q-27 -43 -75 -68t-99 -25q-104 0 -159 69t-44 173t83 173.5t173 69.5q53 0 94 -25t58 -68zM285 66q71 0 118.5 47t54.5 117
q8 70 -29.5 117.5t-108.5 47.5q-68 0 -116 -46.5t-56 -118.5q-8 -71 30.5 -117.5t106.5 -46.5z" />
    <glyph glyph-name="h" unicode="h" horiz-adv-x="566" 
d="M374 473q172 0 152 -189l-30 -284h-87l26 246q8 78 -15.5 115t-84.5 37q-63 0 -100.5 -41t-45.5 -113l-26 -244h-87l74 700h87l-34 -324q24 45 68 71t103 26z" />
    <glyph glyph-name="i" unicode="i" horiz-adv-x="237" 
d="M176 540q-31 0 -49 20t-15 50t25.5 50.5t53.5 20.5q30 0 47.5 -20.5t14.5 -50.5t-25 -50t-52 -20zM75 0l48 461h87l-48 -461h-87z" />
    <glyph glyph-name="j" unicode="j" horiz-adv-x="240" 
d="M179 540q-31 0 -49 20t-15 50t25.5 50.5t53.5 20.5q30 0 47.5 -20.5t14.5 -50.5t-25 -50t-52 -20zM21 -219q-44 0 -63 11l8 79q19 -7 47 -7q51 0 57 62l56 535h87l-58 -559q-6 -58 -41 -89.5t-93 -31.5z" />
    <glyph glyph-name="k" unicode="k" horiz-adv-x="505" 
d="M526 461l-247 -223l199 -238h-115l-178 217l-23 -217h-87l74 700h87l-48 -449l226 210h112z" />
    <glyph glyph-name="l" unicode="l" horiz-adv-x="237" 
d="M75 0l74 700h87l-74 -700h-87z" />
    <glyph glyph-name="m" unicode="m" horiz-adv-x="832" 
d="M75 0l48 461h87l-8 -84q18 41 57 68.5t91 27.5q119 0 137 -99q20 43 63.5 71t95.5 28q165 0 147 -181l-31 -292h-87l29 275q13 123 -87 123q-113 0 -130 -158l-25 -240h-87l28 269q14 129 -85 129q-113 0 -131 -158l-25 -240h-87z" />
    <glyph glyph-name="n" unicode="n" horiz-adv-x="565" 
d="M75 0l48 461h87l-8 -85q24 45 68 71t103 26q172 0 152 -189l-30 -284h-87l26 246q8 78 -15.5 115t-84.5 37q-63 0 -100.5 -41t-45.5 -113l-26 -244h-87z" />
    <glyph glyph-name="o" unicode="o" horiz-adv-x="556" 
d="M277 -12q-110 0 -168 69.5t-47 173.5t83.5 173t182.5 69q109 0 167 -69t47 -173t-83.5 -173.5t-181.5 -69.5zM285 66q71 0 117 46.5t53 118.5q8 71 -28 117.5t-107 46.5t-117.5 -46.5t-54.5 -118.5q-7 -71 29.5 -117.5t107.5 -46.5z" />
    <glyph glyph-name="p" unicode="p" horiz-adv-x="591" 
d="M381 473q99 0 153.5 -67.5t43.5 -175.5q-11 -106 -82 -174t-171 -68q-53 0 -95 25t-59 68l-31 -294h-87l70 674h87l-8 -81q26 43 74.5 68t104.5 25zM321 66q67 0 115 46t55 118q8 72 -30 118.5t-105 46.5q-69 0 -118 -46t-56 -119q-8 -72 31 -118t108 -46z" />
    <glyph glyph-name="q" unicode="q" horiz-adv-x="591" 
d="M478 461h86l-70 -674h-87l25 246h1l6 48q-26 -42 -74 -67.5t-100 -25.5q-107 0 -160.5 68t-42.5 174q11 105 81 174t175 69q54 0 94.5 -25t57.5 -68zM285 66q73 0 119.5 47.5t53.5 116.5q8 70 -28.5 117.5t-109.5 47.5q-70 0 -117 -46.5t-55 -118.5t29.5 -118t107.5 -46z
" />
    <glyph glyph-name="r" unicode="r" horiz-adv-x="361" 
d="M75 0l48 461h87l-11 -105q20 55 60.5 83.5t86.5 28.5q27 0 42 -4l-9 -80q-14 3 -42 3q-65 0 -105 -52t-49 -133l-21 -202h-87z" />
    <glyph glyph-name="s" unicode="s" horiz-adv-x="450" 
d="M229 -12q-87 0 -135 43.5t-41 106.5h86q-4 -35 23.5 -57.5t77.5 -22.5q39 0 64 18t28 49q6 49 -39 60l-119 32q-96 27 -86 124q6 57 58 94.5t129 37.5q84 0 126.5 -38.5t35.5 -100.5h-86q4 33 -19 52.5t-68 19.5q-36 0 -61.5 -16.5t-28.5 -44.5q-5 -46 45 -59l112 -32
q47 -13 71 -46t19 -75q-7 -66 -58 -105.5t-134 -39.5z" />
    <glyph glyph-name="t" unicode="t" horiz-adv-x="356" 
d="M276 73q36 0 58 5l-8 -77q-30 -7 -78 -7q-21 0 -36.5 2t-35.5 11t-32 25.5t-19 47t-2 73.5l25 235h-83l7 73h83l16 146h87l-16 -146h116l-7 -73h-116l-23 -216q-6 -61 10 -80t54 -19z" />
    <glyph glyph-name="u" unicode="u" horiz-adv-x="562" 
d="M244 -12q-80 0 -122.5 48.5t-32.5 140.5l29 284h87l-27 -263q-15 -135 98 -135q66 0 102.5 42.5t43.5 103.5l26 252h87l-48 -461h-87l9 84q-24 -44 -67 -70t-98 -26z" />
    <glyph glyph-name="v" unicode="v" horiz-adv-x="483" 
d="M206 0l-155 461h93l109 -345l182 345h93l-251 -461h-71z" />
    <glyph glyph-name="w" unicode="w" horiz-adv-x="745" 
d="M178 0l-122 461h95l76 -336l147 336h93l77 -336l146 336h96l-219 -461h-74l-84 354l-157 -354h-74z" />
    <glyph glyph-name="x" unicode="x" horiz-adv-x="478" 
d="M15 0l197 232l-147 229h107l98 -165l131 165h107l-195 -229l150 -232h-108l-98 169l-135 -169h-107z" />
    <glyph glyph-name="y" unicode="y" horiz-adv-x="567" 
d="M453 461h87l-49 -470q-12 -109 -80 -166q-63 -50 -157 -50q-100 0 -151 48q-45 42 -39 119h88q-2 -45 23 -69.5t86 -24.5q128 0 144 149l9 86q-56 -95 -170 -95q-87 0 -125.5 53.5t-28.5 144.5l28 275h87l-27 -257q-7 -67 16 -102.5t87 -35.5q63 0 102 45.5t46 112.5z
" />
    <glyph glyph-name="z" unicode="z" horiz-adv-x="440" 
d="M13 0l311 387h-251l7 74h397l-311 -388h258l-8 -73h-403z" />
    <glyph glyph-name="braceleft" unicode="{" horiz-adv-x="314" 
d="M229 -193q-53 0 -90 36.5t-30 102.5l21 197q5 44 -23 67.5t-59 23.5l7 72q31 0 64 24t38 68l20 196q7 66 51.5 102.5t97.5 36.5h59l-7 -69h-47q-35 0 -54 -24.5t-22 -61.5l-20 -192q-6 -55 -38.5 -81.5t-68.5 -34.5q34 -6 61 -33t21 -83l-20 -192q-4 -37 9.5 -61.5
t48.5 -24.5h47l-7 -69h-59z" />
    <glyph glyph-name="bar" unicode="|" horiz-adv-x="228" 
d="M60 -192l97 925h68l-97 -925h-68z" />
    <glyph glyph-name="braceright" unicode="}" horiz-adv-x="314" 
d="M45 -193h-59l7 69h47q66 0 76 86l20 192q6 56 38.5 82.5t67.5 33.5q-20 5 -37.5 14.5t-32.5 36t-11 65.5l20 192q8 86 -58 86h-47l7 69h59q53 0 89.5 -36.5t29.5 -102.5l-20 -196q-5 -44 23 -68t59 -24l-7 -72q-31 0 -64 -23.5t-38 -67.5l-21 -197q-7 -66 -51 -102.5
t-97 -36.5z" />
    <glyph glyph-name="asciitilde" unicode="~" horiz-adv-x="543" 
d="M403 199q-41 0 -106 35q-64 33 -116 33t-109 -53l9 77q49 54 112 54q42 0 115 -32q83 -36 104 -36q53 0 116 55l-8 -76q-51 -57 -117 -57z" />
    <glyph glyph-name="uni00A0" unicode="&#xa0;" horiz-adv-x="265" 
 />
    <glyph glyph-name="exclamdown" unicode="&#xa1;" horiz-adv-x="268" 
d="M185 495q31 0 50.5 -21.5t15.5 -51.5q-3 -30 -26.5 -51.5t-54.5 -21.5q-30 0 -49 21.5t-16 51.5q4 30 27 51.5t53 21.5zM119 277h87l-51 -489h-87z" />
    <glyph glyph-name="cent" unicode="&#xa2;" horiz-adv-x="520" 
d="M285 175q110 0 138 90h87q-15 -69 -67 -113.5t-131 -52.5l-10 -99h-67l10 99q-90 10 -136 75t-35 165t70 165t152 75l10 101h67l-10 -101q77 -8 119.5 -53t42.5 -116h-87q-8 93 -118 93q-67 0 -110 -43.5t-50 -120.5q-8 -77 25 -120.5t100 -43.5z" />
    <glyph glyph-name="sterling" unicode="&#xa3;" horiz-adv-x="513" 
d="M217 258q-6 -60 -25.5 -107.5t-42.5 -68.5h335l-9 -82h-436l6 61q66 55 79 179l10 91h-63l7 67h63l8 78q11 109 72.5 162.5t153.5 53.5q94 0 142 -51.5t38 -142.5h-91q6 57 -18.5 88t-78.5 31q-113 0 -127 -143l-8 -76h170l-7 -67h-170z" />
    <glyph glyph-name="currency" unicode="&#xa4;" horiz-adv-x="588" 
d="M96 108l-49 55l75 68q-36 61 -28 139q7 77 57 139l-59 68l59 55l61 -68q64 45 146 45q80 0 137 -44l73 67l51 -55l-75 -67q37 -61 29 -140q-9 -81 -59 -140l60 -67l-61 -55l-59 67q-64 -43 -146 -43q-80 0 -137 43zM316 210q68 0 115.5 46.5t54.5 113.5t-30.5 114
t-105.5 47q-67 0 -114.5 -47t-54.5 -114t30.5 -113.5t104.5 -46.5z" />
    <glyph glyph-name="yen" unicode="&#xa5;" horiz-adv-x="549" 
d="M610 680l-258 -404h143l-6 -61h-145l-8 -68h145l-6 -61h-145l-9 -86h-93l9 86h-145l6 61h145l8 68h-145l6 61h143l-174 404h102l129 -330l196 330h102z" />
    <glyph glyph-name="brokenbar" unicode="&#xa6;" horiz-adv-x="228" 
d="M114 323l43 410h68l-43 -410h-68zM60 -192l45 426h68l-45 -426h-68z" />
    <glyph glyph-name="section" unicode="&#xa7;" horiz-adv-x="553" 
d="M522 234q-10 -90 -111 -135q77 -55 67 -153q-8 -80 -71.5 -125t-160.5 -45q-107 0 -157.5 51.5t-41.5 135.5h94q-5 -51 23.5 -80.5t91.5 -29.5q55 0 88.5 24t37.5 68q5 47 -26 78t-78 49.5t-94 39t-77 59t-24 95.5q9 89 107 133q-73 53 -64 147q8 76 71.5 123.5
t158.5 47.5q108 0 159.5 -51.5t42.5 -136.5h-96q5 51 -23 81.5t-90 30.5q-56 0 -89.5 -24.5t-37.5 -68.5q-4 -34 12 -59.5t43.5 -41t61.5 -29t68 -28.5t61.5 -33.5t42.5 -50t11 -72.5zM340 137q84 30 91 92q2 22 -5 39t-28 31t-35.5 21.5t-51 21t-49.5 19.5q-81 -28 -88 -90
q-2 -22 4.5 -39t28.5 -32t34 -21.5t50.5 -22t48.5 -19.5z" />
    <glyph glyph-name="dieresis" unicode="&#xa8;" horiz-adv-x="600" 
d="M185 539q-28 0 -45.5 19.5t-14.5 47.5t24.5 47.5t49.5 19.5q29 0 46 -19.5t14 -47.5t-24.5 -47.5t-49.5 -19.5zM385 539q-28 0 -45.5 19.5t-14.5 47.5t24.5 47.5t49.5 19.5q29 0 46 -19.5t14 -47.5t-24.5 -47.5t-49.5 -19.5z" />
    <glyph glyph-name="copyright" unicode="&#xa9;" horiz-adv-x="797" 
d="M396 -17q-164 0 -251 105t-70 262q16 157 125 262t273 105t251.5 -105t71.5 -262q-17 -157 -126.5 -262t-273.5 -105zM403 44q131 0 219.5 88t102.5 218q13 130 -57 218t-201 88t-219.5 -88t-101.5 -218q-14 -130 56 -218t201 -88zM418 143q-94 0 -143 60.5t-40 146.5
t71 147t156 61q76 0 119 -39t46 -101h-61q-5 39 -33.5 63t-77.5 24q-66 0 -110.5 -45.5t-50.5 -109.5q-7 -64 28 -109t101 -45q48 0 82 24t47 62h61q-16 -62 -67.5 -100.5t-127.5 -38.5z" />
    <glyph glyph-name="ordfeminine" unicode="&#xaa;" horiz-adv-x="369" 
d="M200 394q-62 0 -94.5 39.5t-26.5 100.5q7 61 49 101.5t103 40.5q73 0 94 -55l5 47h71l-28 -268h-71l5 47q-14 -24 -43 -38.5t-64 -14.5zM226 452q38 0 64 24t29 58q4 35 -17 58.5t-59 23.5q-37 0 -62.5 -23.5t-29.5 -58.5q-4 -34 17 -58t58 -24z" />
    <glyph glyph-name="guillemotleft" unicode="&#xab;" horiz-adv-x="498" 
d="M220 69l-187 192l228 192l43 -50l-167 -142l138 -141zM442 69l-187 192l228 192l43 -50l-167 -142l138 -141z" />
    <glyph glyph-name="logicalnot" unicode="&#xac;" horiz-adv-x="504" 
d="M386 199l16 149h-312l8 78h399l-24 -227h-87z" />
    <glyph glyph-name="uni00AD" unicode="&#xad;" horiz-adv-x="410" 
d="M76 223l9 78h305l-9 -78h-305z" />
    <glyph glyph-name="registered" unicode="&#xae;" horiz-adv-x="602" 
d="M321 181q-120 0 -183.5 76.5t-51.5 191.5t91.5 191.5t199.5 76.5q119 0 183 -76.5t52 -191.5t-92 -191.5t-199 -76.5zM326 225q96 0 160 64.5t74 159.5t-40.5 159t-146.5 64t-160.5 -64.5t-74.5 -158.5q-10 -95 41 -159.5t147 -64.5zM241 311l29 283h109q42 0 66.5 -28.5
t19.5 -68.5q-3 -31 -22 -55.5t-50 -34.5l51 -96h-49l-47 91h-55l-9 -91h-43zM298 440h62q25 0 42 16.5t19 40.5q3 25 -10.5 41.5t-38.5 16.5h-62z" />
    <glyph glyph-name="macron" unicode="&#xaf;" horiz-adv-x="600" 
d="M126 555l8 70h318l-8 -70h-318z" />
    <glyph glyph-name="degree" unicode="&#xb0;" horiz-adv-x="358" 
d="M219 384q-65 0 -104.5 44.5t-32.5 109.5t56 109.5t114 44.5t105 -44.5t33 -109.5t-56.5 -109.5t-114.5 -44.5zM226 451q39 0 65 25.5t30 61.5q4 37 -16.5 62t-59.5 25t-64.5 -25t-29.5 -62t16.5 -62t58.5 -25z" />
    <glyph glyph-name="plusminus" unicode="&#xb1;" horiz-adv-x="504" 
d="M237 279l12 110h-155l8 78h155l12 111h87l-12 -111h157l-8 -78h-157l-12 -110h-87zM68 142l8 77h399l-8 -77h-399z" />
    <glyph glyph-name="uni00B2" unicode="&#xb2;" horiz-adv-x="380" 
d="M76 400q8 71 36 112.5t88 69.5l71 32q54 24 59 72q3 26 -12.5 41.5t-43.5 15.5q-36 0 -57.5 -20.5t-25.5 -58.5h-77q7 63 52 100.5t113 37.5q65 0 100 -30t30 -82q-9 -80 -94 -119l-66 -32q-35 -16 -51 -33t-22 -44h207l-7 -62h-300z" />
    <glyph glyph-name="uni00B3" unicode="&#xb3;" horiz-adv-x="387" 
d="M232 392q-73 0 -109.5 35t-29.5 97h76q-4 -34 15.5 -53t56.5 -19q34 0 55 16.5t24 44.5q3 30 -14.5 46.5t-55.5 16.5h-38l6 58h39q71 0 77 57q2 25 -15.5 40t-47.5 15q-33 0 -54 -17t-24 -47h-75q5 54 48.5 87t112.5 33q64 0 100 -29t31 -78q-8 -72 -89 -90q38 -5 59 -31
t17 -64q-6 -53 -51 -85.5t-114 -32.5z" />
    <glyph glyph-name="acute" unicode="&#xb4;" horiz-adv-x="600" 
d="M139 506l-22 68l286 114l22 -65z" />
    <glyph glyph-name="uni00B5" unicode="&#xb5;" horiz-adv-x="567" 
d="M453 461h87l-48 -461h-87l9 84q-24 -44 -67 -70t-98 -26q-52 0 -86 19l-23 -220h-87l70 674h87l-27 -263q-15 -135 98 -135q66 0 102.5 42.5t43.5 103.5z" />
    <glyph glyph-name="paragraph" unicode="&#xb6;" horiz-adv-x="668" 
d="M250 -148l51 477q-97 0 -151.5 48.5t-44.5 142.5q5 50 27 87.5t50 58t65.5 32.5t66.5 15.5t60 3.5h319l-7 -72h-53l-84 -793h-83l84 792h-134l-84 -792h-82z" />
    <glyph glyph-name="periodcentered" unicode="&#xb7;" horiz-adv-x="286" 
d="M168 240q-31 0 -49.5 21.5t-15.5 51.5t26.5 51.5t54.5 21.5q30 0 49 -21.5t16 -51.5t-27 -51.5t-54 -21.5z" />
    <glyph glyph-name="cedilla" unicode="&#xb8;" horiz-adv-x="600" 
d="M117 -216q-37 0 -58 19t-20 53h46q-1 -14 9.5 -23t26.5 -9q42 0 47 47q5 46 -36 46q-25 0 -40 -20h-41l11 103h47l-7 -63q15 15 48 15q32 0 52 -21.5t16 -58.5q-5 -38 -31.5 -63t-69.5 -25z" />
    <glyph glyph-name="uni00B9" unicode="&#xb9;" horiz-adv-x="276" 
d="M165 400l28 267h-92l6 57q59 0 81.5 16t26.5 54h63l-41 -394h-72z" />
    <glyph glyph-name="ordmasculine" unicode="&#xba;" horiz-adv-x="356" 
d="M219 393q-70 0 -107.5 40t-31.5 102q7 61 53 101t116 40t108.5 -40t31.5 -101q-6 -62 -53 -102t-117 -40zM226 453q38 0 62.5 23t28.5 59q4 35 -16 58t-58 23t-64 -23t-30 -58t17.5 -58.5t59.5 -23.5z" />
    <glyph glyph-name="guillemotright" unicode="&#xbb;" horiz-adv-x="498" 
d="M70 69l-43 51l166 141l-137 142l55 50l186 -192zM292 69l-43 51l166 141l-137 142l55 50l186 -192z" />
    <glyph glyph-name="onequarter" unicode="&#xbc;" horiz-adv-x="815" 
d="M632 700l54 -38l-544 -682l-55 38zM153 286l28 267h-92l6 57q59 0 81.5 16t26.5 54h63l-41 -394h-72zM799 184l-6 -64h-57l-13 -120h-74l13 120h-171l28 274h74l-22 -210h97l12 109h74l-12 -109h57z" />
    <glyph glyph-name="onehalf" unicode="&#xbd;" horiz-adv-x="795" 
d="M142 -20l-55 38l545 682l54 -38zM153 286l28 267h-92l6 57q59 0 81.5 16t26.5 54h63l-41 -394h-72zM449 0q8 71 36 112.5t88 69.5l70 32q55 24 60 72q3 26 -12.5 41.5t-43.5 15.5q-36 0 -57.5 -20.5t-25.5 -58.5h-77q7 63 52 100.5t113 37.5q65 0 100 -30t29 -82
q-8 -79 -93 -119l-66 -32q-35 -16 -51 -33t-22 -44h207l-7 -62h-300z" />
    <glyph glyph-name="threequarters" unicode="&#xbe;" horiz-adv-x="908" 
d="M725 700l54 -38l-544 -682l-55 38zM385 396q-6 -53 -51 -85.5t-114 -32.5q-73 0 -109.5 35t-29.5 97h76q-4 -34 15.5 -53t56.5 -19q34 0 55 16.5t24 44.5q3 30 -14.5 46.5t-55.5 16.5h-38l6 58h39q71 0 77 57q2 25 -15.5 40t-47.5 15q-33 0 -54 -17t-24 -47h-75
q5 54 48.5 87t112.5 33q64 0 100 -29t31 -78q-8 -72 -89 -90q38 -5 59 -31t17 -64zM892 184l-6 -64h-57l-13 -120h-74l13 120h-171l28 274h74l-22 -210h97l12 109h74l-12 -109h57z" />
    <glyph glyph-name="questiondown" unicode="&#xbf;" horiz-adv-x="472" 
d="M314 516q31 0 50 -21.5t16 -51.5q-4 -30 -27.5 -51.5t-53.5 -21.5q-31 0 -50 21.5t-15 51.5q3 30 26 51.5t54 21.5zM334 298l-1 -15q-6 -50 -22 -80t-58 -59l-55 -35q-72 -48 -80 -125q-5 -50 23.5 -81t82.5 -31q62 0 102.5 37t47.5 106h91q-11 -105 -79 -164t-175 -59
q-98 0 -147.5 52t-40.5 137q6 60 37 101t83 79l46 31q30 21 41.5 39.5t15.5 50.5l1 16h87z" />
    <glyph glyph-name="Agrave" unicode="&#xc0;" horiz-adv-x="590" 
d="M499 791l-38 -60l-206 104l37 59zM474 0l-22 107h-291l-44 -107h-99l311 700h81l163 -700h-99zM196 190h239l-80 384z" />
    <glyph glyph-name="Aacute" unicode="&#xc1;" horiz-adv-x="590" 
d="M512 835l-228 -104l-26 60l229 103zM474 0l-22 107h-291l-44 -107h-99l311 700h81l163 -700h-99zM196 190h239l-80 384z" />
    <glyph glyph-name="Acircumflex" unicode="&#xc2;" horiz-adv-x="590" 
d="M379 816l-99 -81l-41 41l148 116l123 -116l-51 -41zM474 0l-22 107h-291l-44 -107h-99l311 700h81l163 -700h-99zM196 190h239l-80 384z" />
    <glyph glyph-name="Atilde" unicode="&#xc3;" horiz-adv-x="590" 
d="M299 801q-41 0 -79 -46l-33 35q54 77 113 77q34 0 82.5 -31t72.5 -31q46 0 85 48l33 -39q-50 -73 -119 -75q-38 -3 -86 29.5t-69 32.5zM474 0l-22 107h-291l-44 -107h-99l311 700h81l163 -700h-99zM196 190h239l-80 384z" />
    <glyph glyph-name="Adieresis" unicode="&#xc4;" horiz-adv-x="590" 
d="M256 747q-28 0 -45 19.5t-14 47.5t24 47.5t49 19.5q29 0 46.5 -19.5t14.5 -47.5t-25 -47.5t-50 -19.5zM493 747q-28 0 -45.5 19.5t-14.5 47.5t24.5 47.5t49.5 19.5t45.5 -19.5t14.5 -47.5t-24.5 -47.5t-49.5 -19.5zM474 0l-22 107h-291l-44 -107h-99l311 700h81l163 -700
h-99zM196 190h239l-80 384z" />
    <glyph glyph-name="Aring" unicode="&#xc5;" horiz-adv-x="590" 
d="M474 0l-22 107h-291l-44 -107h-99l296 666q-31 15 -47.5 44.5t-12.5 65.5q5 52 44.5 87.5t91.5 35.5q53 0 87 -36.5t29 -86.5q-4 -37 -28.5 -67t-59.5 -44l155 -665h-99zM385 846q-28 0 -50 -20.5t-25 -49.5q-3 -28 15 -47.5t46 -19.5q30 0 52 19.5t25 48.5t-15 49
t-48 20zM196 190h239l-80 384z" />
    <glyph glyph-name="AE" unicode="&#xc6;" horiz-adv-x="841" 
d="M838 618h-276l-24 -229h276l-9 -82h-276l-23 -225h276l-9 -82h-367l12 111h-241l-65 -111h-99l422 700h412zM223 190h203l45 426z" />
    <glyph glyph-name="Ccedilla" unicode="&#xc7;" horiz-adv-x="771" 
d="M408 66q94 0 158.5 44t92.5 120h100q-30 -105 -119 -172t-219 -73l-5 -48q15 15 48 15q32 0 52 -21.5t16 -58.5q-5 -38 -31.5 -63t-69.5 -25q-37 0 -58 19t-20 53h46q-1 -14 9.5 -23t26.5 -9q42 0 47 47q5 46 -36 46q-25 0 -40 -20h-41l9 88q-155 7 -235 109t-64 256
q17 161 125 263.5t275 102.5q138 0 219 -68t90 -178h-100q-12 76 -67 120t-149 44q-124 0 -204.5 -79t-93.5 -205q-14 -126 49.5 -205t188.5 -79z" />
    <glyph glyph-name="Egrave" unicode="&#xc8;" horiz-adv-x="545" 
d="M450 731l-206 104l37 59l207 -103zM80 0l74 700h398l-9 -82h-307l-24 -229h307l-9 -82h-307l-23 -225h307l-9 -82h-398z" />
    <glyph glyph-name="Eacute" unicode="&#xc9;" horiz-adv-x="545" 
d="M273 731l-26 60l229 103l25 -59zM80 0l74 700h398l-9 -82h-307l-24 -229h307l-9 -82h-307l-23 -225h307l-9 -82h-398z" />
    <glyph glyph-name="Ecircumflex" unicode="&#xca;" horiz-adv-x="545" 
d="M376 892l123 -116l-51 -41l-80 81l-99 -81l-41 41zM80 0l74 700h398l-9 -82h-307l-24 -229h307l-9 -82h-307l-23 -225h307l-9 -82h-398z" />
    <glyph glyph-name="Edieresis" unicode="&#xcb;" horiz-adv-x="545" 
d="M245 747q-28 0 -45 19.5t-14 47.5t24 47.5t49 19.5q29 0 46.5 -19.5t14.5 -47.5t-25 -47.5t-50 -19.5zM482 747q-28 0 -45.5 19.5t-14.5 47.5t24.5 47.5t49.5 19.5t45.5 -19.5t14.5 -47.5t-24.5 -47.5t-49.5 -19.5zM80 0l74 700h398l-9 -82h-307l-24 -229h307l-9 -82
h-307l-23 -225h307l-9 -82h-398z" />
    <glyph glyph-name="Igrave" unicode="&#xcc;" horiz-adv-x="251" 
d="M259 738l-141 89l46 59l140 -89zM80 0l74 700h91l-74 -700h-91z" />
    <glyph glyph-name="Iacute" unicode="&#xcd;" horiz-adv-x="251" 
d="M141 737l-33 57l172 100l34 -57zM80 0l74 700h91l-74 -700h-91z" />
    <glyph glyph-name="Icircumflex" unicode="&#xce;" horiz-adv-x="251" 
d="M273 743l-63 61l-77 -61l-35 45l119 92l102 -92zM80 0l74 700h91l-74 -700h-91z" />
    <glyph glyph-name="Idieresis" unicode="&#xcf;" horiz-adv-x="251" 
d="M134 751q-27 0 -42.5 17.5t-13.5 44.5q3 27 22.5 44.5t46.5 17.5t42.5 -17.5t12.5 -44.5q-2 -27 -21.5 -44.5t-46.5 -17.5zM276 751q-26 0 -42 17.5t-14 44.5q3 27 23 44.5t46 17.5q27 0 43 -17.5t13 -44.5q-2 -27 -22 -44.5t-47 -17.5zM80 0l74 700h91l-74 -700h-91z
" />
    <glyph glyph-name="Eth" unicode="&#xd0;" horiz-adv-x="691" 
d="M377 700q84 0 150 -29t104 -78t55 -111.5t10 -131.5q-15 -144 -121 -247t-272 -103h-223l33 313h-79l8 78h79l33 309h223zM305 82q129 0 207.5 79t89.5 189q11 111 -50.5 189.5t-190.5 78.5h-125l-24 -227h133l-8 -78h-133l-24 -231h125z" />
    <glyph glyph-name="Ntilde" unicode="&#xd1;" horiz-adv-x="659" 
d="M488 739q-38 -3 -86 29.5t-69 32.5q-41 0 -79 -46l-33 35q54 77 113 77q34 0 82.5 -31t72.5 -31q46 0 85 48l33 -39q-50 -73 -119 -75zM80 0l74 700h97l257 -548l58 548h87l-74 -700h-96l-257 548l-58 -548h-88z" />
    <glyph glyph-name="Ograve" unicode="&#xd2;" horiz-adv-x="797" 
d="M564 731l-206 104l37 59l207 -103zM397 -16q-164 0 -251 106t-71 260q16 153 125.5 259.5t273.5 106.5t251.5 -106t71.5 -260t-126 -260t-274 -106zM406 66q122 0 202.5 82t92.5 202q13 120 -50 202t-185 82t-202.5 -82t-93.5 -202t50.5 -202t185.5 -82z" />
    <glyph glyph-name="Oacute" unicode="&#xd3;" horiz-adv-x="797" 
d="M387 731l-26 60l229 103l25 -59zM397 -16q-164 0 -251 106t-71 260q16 153 125.5 259.5t273.5 106.5t251.5 -106t71.5 -260t-126 -260t-274 -106zM406 66q122 0 202.5 82t92.5 202q13 120 -50 202t-185 82t-202.5 -82t-93.5 -202t50.5 -202t185.5 -82z" />
    <glyph glyph-name="Ocircumflex" unicode="&#xd4;" horiz-adv-x="797" 
d="M490 892l123 -116l-51 -41l-80 81l-99 -81l-41 41zM397 -16q-164 0 -251 106t-71 260q16 153 125.5 259.5t273.5 106.5t251.5 -106t71.5 -260t-126 -260t-274 -106zM406 66q122 0 202.5 82t92.5 202q13 120 -50 202t-185 82t-202.5 -82t-93.5 -202t50.5 -202t185.5 -82z
" />
    <glyph glyph-name="Otilde" unicode="&#xd5;" horiz-adv-x="797" 
d="M557 739q-38 -3 -86 29.5t-69 32.5q-41 0 -79 -46l-33 35q54 77 113 77q34 0 82.5 -31t72.5 -31q46 0 85 48l33 -39q-50 -73 -119 -75zM397 -16q-164 0 -251 106t-71 260q16 153 125.5 259.5t273.5 106.5t251.5 -106t71.5 -260t-126 -260t-274 -106zM406 66
q122 0 202.5 82t92.5 202q13 120 -50 202t-185 82t-202.5 -82t-93.5 -202t50.5 -202t185.5 -82z" />
    <glyph glyph-name="Odieresis" unicode="&#xd6;" horiz-adv-x="797" 
d="M359 747q-28 0 -45 19.5t-14 47.5t24 47.5t49 19.5q29 0 46.5 -19.5t14.5 -47.5t-25 -47.5t-50 -19.5zM596 747q-28 0 -45.5 19.5t-14.5 47.5t24.5 47.5t49.5 19.5t45.5 -19.5t14.5 -47.5t-24.5 -47.5t-49.5 -19.5zM397 -16q-164 0 -251 106t-71 260q16 153 125.5 259.5
t273.5 106.5t251.5 -106t71.5 -260t-126 -260t-274 -106zM406 66q122 0 202.5 82t92.5 202q13 120 -50 202t-185 82t-202.5 -82t-93.5 -202t50.5 -202t185.5 -82z" />
    <glyph glyph-name="multiply" unicode="&#xd7;" horiz-adv-x="486" 
d="M481 451l-150 -136l121 -136l-61 -55l-121 136l-149 -135l-49 54l149 136l-121 135l60 55l122 -135l150 135z" />
    <glyph glyph-name="Oslash" unicode="&#xd8;" horiz-adv-x="797" 
d="M647 675q82 -46 121.5 -133t28.5 -192q-16 -154 -126 -260t-274 -106q-61 0 -110 15l-45 -83l-59 27l44 81q-84 46 -123.5 133t-28.5 193q16 153 125.5 259.5t273.5 106.5q60 0 114 -16l42 80l58 -27zM170 350q-8 -79 17.5 -144.5t81.5 -101.5l277 519q-38 11 -80 11
q-122 0 -202.5 -82t-93.5 -202zM406 66q122 0 202.5 82t92.5 202q9 78 -16.5 143t-79.5 102l-277 -518q36 -11 78 -11z" />
    <glyph glyph-name="Ugrave" unicode="&#xd9;" horiz-adv-x="635" 
d="M483 731l-206 104l37 59l207 -103zM316 -16q-118 0 -180 64t-49 182l50 470h91l-49 -465q-9 -82 30.5 -125.5t115.5 -43.5t124 43.5t57 125.5l49 465h92l-50 -470q-13 -118 -88 -182t-193 -64z" />
    <glyph glyph-name="Uacute" unicode="&#xda;" horiz-adv-x="635" 
d="M306 731l-26 60l229 103l25 -59zM316 -16q-118 0 -180 64t-49 182l50 470h91l-49 -465q-9 -82 30.5 -125.5t115.5 -43.5t124 43.5t57 125.5l49 465h92l-50 -470q-13 -118 -88 -182t-193 -64z" />
    <glyph glyph-name="Ucircumflex" unicode="&#xdb;" horiz-adv-x="635" 
d="M409 892l123 -116l-51 -41l-80 81l-99 -81l-41 41zM316 -16q-118 0 -180 64t-49 182l50 470h91l-49 -465q-9 -82 30.5 -125.5t115.5 -43.5t124 43.5t57 125.5l49 465h92l-50 -470q-13 -118 -88 -182t-193 -64z" />
    <glyph glyph-name="Udieresis" unicode="&#xdc;" horiz-adv-x="635" 
d="M278 747q-28 0 -45 19.5t-14 47.5t24 47.5t49 19.5q29 0 46.5 -19.5t14.5 -47.5t-25 -47.5t-50 -19.5zM515 747q-28 0 -45.5 19.5t-14.5 47.5t24.5 47.5t49.5 19.5t45.5 -19.5t14.5 -47.5t-24.5 -47.5t-49.5 -19.5zM316 -16q-118 0 -180 64t-49 182l50 470h91l-49 -465
q-9 -82 30.5 -125.5t115.5 -43.5t124 43.5t57 125.5l49 465h92l-50 -470q-13 -118 -88 -182t-193 -64z" />
    <glyph glyph-name="Yacute" unicode="&#xdd;" horiz-adv-x="552" 
d="M504 835l-228 -104l-26 60l229 103zM541 700h100l-426 -700h-101l170 278l-220 422h106l170 -328z" />
    <glyph glyph-name="Thorn" unicode="&#xde;" horiz-adv-x="581" 
d="M394 589q106 0 163 -69.5t47 -169.5q-11 -100 -82.5 -169t-177.5 -69h-161l-12 -112h-91l74 700h91l-12 -111h161zM347 194q66 0 112.5 45.5t53.5 110.5t-30 110.5t-103 45.5h-156l-33 -312h156z" />
    <glyph glyph-name="germandbls" unicode="&#xdf;" horiz-adv-x="566" 
d="M302 -12q-56 0 -90 12l8 76q32 -10 82 -10q63 0 104 33t48 94q5 52 -26.5 92.5t-104.5 40.5h-58l8 78h48q69 0 107 32t44 85q5 52 -25.5 84.5t-88.5 32.5q-62 0 -100 -39t-45 -101l-52 -498h-87l52 498q11 97 75 157.5t165 60.5q100 0 151 -51.5t43 -135.5
q-7 -65 -50 -108.5t-103 -52.5q67 -7 104 -61t29 -125q-10 -93 -77 -143.5t-161 -50.5z" />
    <glyph glyph-name="agrave" unicode="&#xe0;" horiz-adv-x="591" 
d="M449 505l-262 117l36 65l262 -114zM265 -12q-107 0 -160.5 68t-42.5 174q11 105 81 174t175 69q54 0 94.5 -25t57.5 -68l8 81h86l-48 -461h-86l9 81q-26 -42 -74 -67.5t-100 -25.5zM285 66q73 0 119.5 47.5t53.5 116.5q8 70 -28.5 117.5t-109.5 47.5q-70 0 -117 -46.5
t-55 -118.5t29.5 -118t107.5 -46z" />
    <glyph glyph-name="aacute" unicode="&#xe1;" horiz-adv-x="591" 
d="M202 506l-22 68l286 114l22 -65zM265 -12q-107 0 -160.5 68t-42.5 174q11 105 81 174t175 69q54 0 94.5 -25t57.5 -68l8 81h86l-48 -461h-86l9 81q-26 -42 -74 -67.5t-100 -25.5zM285 66q73 0 119.5 47.5t53.5 116.5q8 70 -28.5 117.5t-109.5 47.5q-70 0 -117 -46.5
t-55 -118.5t29.5 -118t107.5 -46z" />
    <glyph glyph-name="acircumflex" unicode="&#xe2;" horiz-adv-x="591" 
d="M353 698l160 -146l-52 -52l-117 112l-139 -111l-42 51zM265 -12q-107 0 -160.5 68t-42.5 174q11 105 81 174t175 69q54 0 94.5 -25t57.5 -68l8 81h86l-48 -461h-86l9 81q-26 -42 -74 -67.5t-100 -25.5zM285 66q73 0 119.5 47.5t53.5 116.5q8 70 -28.5 117.5t-109.5 47.5
q-70 0 -117 -46.5t-55 -118.5t29.5 -118t107.5 -46z" />
    <glyph glyph-name="atilde" unicode="&#xe3;" horiz-adv-x="591" 
d="M411 531q-29 0 -72 28.5t-65 28.5q-37 0 -76 -42l-28 47q48 67 107 67q27 0 70.5 -28.5t65.5 -28.5q37 0 74 41l29 -46q-47 -67 -105 -67zM265 -12q-107 0 -160.5 68t-42.5 174q11 105 81 174t175 69q54 0 94.5 -25t57.5 -68l8 81h86l-48 -461h-86l9 81
q-26 -42 -74 -67.5t-100 -25.5zM285 66q73 0 119.5 47.5t53.5 116.5q8 70 -28.5 117.5t-109.5 47.5q-70 0 -117 -46.5t-55 -118.5t29.5 -118t107.5 -46z" />
    <glyph glyph-name="adieresis" unicode="&#xe4;" horiz-adv-x="591" 
d="M237 539q-28 0 -45.5 19.5t-14.5 47.5t24.5 47.5t49.5 19.5q29 0 46 -19.5t14 -47.5t-24.5 -47.5t-49.5 -19.5zM437 539q-28 0 -45.5 19.5t-14.5 47.5t24.5 47.5t49.5 19.5q29 0 46 -19.5t14 -47.5t-24.5 -47.5t-49.5 -19.5zM265 -12q-107 0 -160.5 68t-42.5 174
q11 105 81 174t175 69q54 0 94.5 -25t57.5 -68l8 81h86l-48 -461h-86l9 81q-26 -42 -74 -67.5t-100 -25.5zM285 66q73 0 119.5 47.5t53.5 116.5q8 70 -28.5 117.5t-109.5 47.5q-70 0 -117 -46.5t-55 -118.5t29.5 -118t107.5 -46z" />
    <glyph glyph-name="aring" unicode="&#xe5;" horiz-adv-x="591" 
d="M333 500q-47 0 -76 31t-24 78q5 48 40 78.5t82 30.5t76 -31t24 -78q-5 -48 -40 -78.5t-82 -30.5zM337 545q26 0 45.5 18t22.5 46t-12.5 46t-41.5 18t-45.5 -18t-22.5 -46t12.5 -46t41.5 -18zM265 -12q-107 0 -160.5 68t-42.5 174q11 105 81 174t175 69q54 0 94.5 -25
t57.5 -68l8 81h86l-48 -461h-86l9 81q-26 -42 -74 -67.5t-100 -25.5zM285 66q73 0 119.5 47.5t53.5 116.5q8 70 -28.5 117.5t-109.5 47.5q-70 0 -117 -46.5t-55 -118.5t29.5 -118t107.5 -46z" />
    <glyph glyph-name="ae" unicode="&#xe6;" horiz-adv-x="871" 
d="M860 255q-3 -29 -8 -52h-358q-4 -66 31.5 -103t101.5 -37q90 0 127 74h88q-19 -67 -81 -109t-142 -42q-63 0 -110 26.5t-71 74.5q-72 -99 -213 -99q-82 0 -129 37t-40 97q8 75 66 113q32 20 73.5 27t121.5 7h104l4 40q5 42 -22 68t-90 26q-118 0 -134 -93h-87
q12 74 75 118.5t155 44.5q126 0 168 -76q71 74 176 74q96 0 150 -60.5t44 -155.5zM502 270h274q7 61 -25 97t-93 36q-62 0 -105 -36.5t-51 -96.5zM412 183l2 20h-136q-126 0 -133 -74q-4 -36 23.5 -54t80.5 -18q61 0 109 32.5t54 93.5z" />
    <glyph glyph-name="ccedilla" unicode="&#xe7;" horiz-adv-x="520" 
d="M274 66q109 0 137 90h87q-15 -72 -70.5 -117t-140.5 -50l-6 -52q15 15 48 15q32 0 52 -21.5t16 -58.5q-5 -38 -31.5 -63t-69.5 -25q-37 0 -58 19t-20 53h46q-1 -14 9.5 -23t26.5 -9q42 0 47 47q5 46 -36 46q-25 0 -40 -20h-41l10 92q-94 9 -141.5 74.5t-36.5 166.5
q11 108 80.5 175t174.5 67q92 0 144 -46.5t53 -124.5h-87q-9 93 -119 93q-67 0 -109.5 -43.5t-50.5 -120.5q-8 -76 25.5 -120t100.5 -44z" />
    <glyph glyph-name="egrave" unicode="&#xe8;" horiz-adv-x="521" 
d="M471 573l-36 -68l-262 117l36 65zM511 257q-2 -18 -8 -52h-357q-6 -66 29 -103.5t101 -37.5q91 0 129 68h87q-19 -64 -81 -104t-143 -40q-106 0 -161.5 65.5t-44.5 177.5q12 110 81 176t172 66q98 0 152 -60t44 -156zM153 272h274q6 61 -26 96t-95 35q-62 0 -103 -36
t-50 -95z" />
    <glyph glyph-name="eacute" unicode="&#xe9;" horiz-adv-x="521" 
d="M474 623l-286 -117l-22 68l286 114zM511 257q-2 -18 -8 -52h-357q-6 -66 29 -103.5t101 -37.5q91 0 129 68h87q-19 -64 -81 -104t-143 -40q-106 0 -161.5 65.5t-44.5 177.5q12 110 81 176t172 66q98 0 152 -60t44 -156zM153 272h274q6 61 -26 96t-95 35q-62 0 -103 -36
t-50 -95z" />
    <glyph glyph-name="ecircumflex" unicode="&#xea;" horiz-adv-x="521" 
d="M330 612l-139 -111l-42 51l190 146l160 -146l-52 -52zM511 257q-2 -18 -8 -52h-357q-6 -66 29 -103.5t101 -37.5q91 0 129 68h87q-19 -64 -81 -104t-143 -40q-106 0 -161.5 65.5t-44.5 177.5q12 110 81 176t172 66q98 0 152 -60t44 -156zM153 272h274q6 61 -26 96t-95 35
q-62 0 -103 -36t-50 -95z" />
    <glyph glyph-name="edieresis" unicode="&#xeb;" horiz-adv-x="521" 
d="M223 539q-28 0 -45.5 19.5t-14.5 47.5t24.5 47.5t49.5 19.5q29 0 46 -19.5t14 -47.5t-24.5 -47.5t-49.5 -19.5zM423 539q-28 0 -45.5 19.5t-14.5 47.5t24.5 47.5t49.5 19.5q29 0 46 -19.5t14 -47.5t-24.5 -47.5t-49.5 -19.5zM511 257q-2 -18 -8 -52h-357
q-6 -66 29 -103.5t101 -37.5q91 0 129 68h87q-19 -64 -81 -104t-143 -40q-106 0 -161.5 65.5t-44.5 177.5q12 110 81 176t172 66q98 0 152 -60t44 -156zM153 272h274q6 61 -26 96t-95 35q-62 0 -103 -36t-50 -95z" />
    <glyph glyph-name="igrave" unicode="&#xec;" horiz-adv-x="237" 
d="M227 516l-139 100l46 60l140 -100zM75 0l48 461h87l-48 -461h-87z" />
    <glyph glyph-name="iacute" unicode="&#xed;" horiz-adv-x="237" 
d="M117 516l-33 60l160 100l34 -60zM75 0l48 461h87l-48 -461h-87z" />
    <glyph glyph-name="icircumflex" unicode="&#xee;" horiz-adv-x="237" 
d="M100 518l-42 50l132 111l110 -111l-53 -51l-66 71zM75 0l48 461h87l-48 -461h-87z" />
    <glyph glyph-name="idieresis" unicode="&#xef;" horiz-adv-x="237" 
d="M109 547q-24 0 -38.5 17t-12.5 40q3 24 21 40.5t42 16.5t39.5 -16.5t12.5 -40.5q-2 -23 -21 -40t-43 -17zM242 547q-23 0 -38 17t-13 40q3 24 21.5 40.5t41.5 16.5q25 0 40 -16.5t12 -40.5q-2 -23 -20.5 -40t-43.5 -17zM75 0l48 461h87l-48 -461h-87z" />
    <glyph glyph-name="eth" unicode="&#xf0;" horiz-adv-x="556" 
d="M517 371q34 -61 25 -140q-11 -104 -83.5 -173.5t-181.5 -69.5q-110 0 -168 69.5t-47 173.5t83.5 173t182.5 69q17 0 25 -1l-47 78l-91 -47l-21 48l86 44l-62 105h109l36 -63l86 44l21 -46l-82 -42l130 -222h-1zM285 66q71 0 117 46.5t53 118.5q8 71 -28 117.5t-107 46.5
t-117.5 -46.5t-54.5 -118.5q-7 -71 29.5 -117.5t107.5 -46.5z" />
    <glyph glyph-name="ntilde" unicode="&#xf1;" horiz-adv-x="565" 
d="M413 531q-29 0 -72 28.5t-65 28.5q-37 0 -76 -42l-28 47q48 67 107 67q27 0 70.5 -28.5t65.5 -28.5q37 0 74 41l29 -46q-47 -67 -105 -67zM75 0l48 461h87l-8 -85q24 45 68 71t103 26q172 0 152 -189l-30 -284h-87l26 246q8 78 -15.5 115t-84.5 37q-63 0 -100.5 -41
t-45.5 -113l-26 -244h-87z" />
    <glyph glyph-name="ograve" unicode="&#xf2;" horiz-adv-x="556" 
d="M447 505l-262 117l36 65l262 -114zM277 -12q-110 0 -168 69.5t-47 173.5t83.5 173t182.5 69q109 0 167 -69t47 -173t-83.5 -173.5t-181.5 -69.5zM285 66q71 0 117 46.5t53 118.5q8 71 -28 117.5t-107 46.5t-117.5 -46.5t-54.5 -118.5q-7 -71 29.5 -117.5t107.5 -46.5z
" />
    <glyph glyph-name="oacute" unicode="&#xf3;" horiz-adv-x="556" 
d="M200 506l-22 68l286 114l22 -65zM277 -12q-110 0 -168 69.5t-47 173.5t83.5 173t182.5 69q109 0 167 -69t47 -173t-83.5 -173.5t-181.5 -69.5zM285 66q71 0 117 46.5t53 118.5q8 71 -28 117.5t-107 46.5t-117.5 -46.5t-54.5 -118.5q-7 -71 29.5 -117.5t107.5 -46.5z" />
    <glyph glyph-name="ocircumflex" unicode="&#xf4;" horiz-adv-x="556" 
d="M351 698l160 -146l-52 -52l-117 112l-139 -111l-42 51zM277 -12q-110 0 -168 69.5t-47 173.5t83.5 173t182.5 69q109 0 167 -69t47 -173t-83.5 -173.5t-181.5 -69.5zM285 66q71 0 117 46.5t53 118.5q8 71 -28 117.5t-107 46.5t-117.5 -46.5t-54.5 -118.5
q-7 -71 29.5 -117.5t107.5 -46.5z" />
    <glyph glyph-name="otilde" unicode="&#xf5;" horiz-adv-x="556" 
d="M409 531q-29 0 -72 28.5t-65 28.5q-37 0 -76 -42l-28 47q48 67 107 67q27 0 70.5 -28.5t65.5 -28.5q37 0 74 41l29 -46q-47 -67 -105 -67zM277 -12q-110 0 -168 69.5t-47 173.5t83.5 173t182.5 69q109 0 167 -69t47 -173t-83.5 -173.5t-181.5 -69.5zM285 66
q71 0 117 46.5t53 118.5q8 71 -28 117.5t-107 46.5t-117.5 -46.5t-54.5 -118.5q-7 -71 29.5 -117.5t107.5 -46.5z" />
    <glyph glyph-name="odieresis" unicode="&#xf6;" horiz-adv-x="556" 
d="M235 539q-28 0 -45.5 19.5t-14.5 47.5t24.5 47.5t49.5 19.5q29 0 46 -19.5t14 -47.5t-24.5 -47.5t-49.5 -19.5zM435 539q-28 0 -45.5 19.5t-14.5 47.5t24.5 47.5t49.5 19.5q29 0 46 -19.5t14 -47.5t-24.5 -47.5t-49.5 -19.5zM277 -12q-110 0 -168 69.5t-47 173.5
t83.5 173t182.5 69q109 0 167 -69t47 -173t-83.5 -173.5t-181.5 -69.5zM285 66q71 0 117 46.5t53 118.5q8 71 -28 117.5t-107 46.5t-117.5 -46.5t-54.5 -118.5q-7 -71 29.5 -117.5t107.5 -46.5z" />
    <glyph glyph-name="divide" unicode="&#xf7;" horiz-adv-x="504" 
d="M294 400q-29 0 -47 20.5t-15 49.5t25.5 49.5t51.5 20.5t47.5 -20.5t15.5 -49.5t-26 -49.5t-52 -20.5zM82 273l8 77h399l-8 -77h-399zM261 89q-28 0 -46 20.5t-15 49.5t25 49.5t51 20.5t48 -20.5t16 -49.5t-26.5 -49.5t-52.5 -20.5z" />
    <glyph glyph-name="oslash" unicode="&#xf8;" horiz-adv-x="556" 
d="M451 441q51 -31 75 -86.5t16 -123.5q-11 -104 -83.5 -173.5t-181.5 -69.5q-33 0 -65 8l-38 -71l-49 22l37 68q-55 30 -81.5 87t-18.5 129q11 104 83.5 173t182.5 69q37 0 75 -10l36 66l47 -22zM148 230q-10 -98 54 -140l162 299q-21 6 -44 6q-71 0 -117.5 -46.5
t-54.5 -118.5zM285 66q71 0 117 46.5t53 118.5q10 89 -45 134l-159 -296q17 -3 34 -3z" />
    <glyph glyph-name="ugrave" unicode="&#xf9;" horiz-adv-x="562" 
d="M451 505l-262 117l36 65l262 -114zM244 -12q-80 0 -122.5 48.5t-32.5 140.5l29 284h87l-27 -263q-15 -135 98 -135q66 0 102.5 42.5t43.5 103.5l26 252h87l-48 -461h-87l9 84q-24 -44 -67 -70t-98 -26z" />
    <glyph glyph-name="uacute" unicode="&#xfa;" horiz-adv-x="562" 
d="M204 506l-22 68l286 114l22 -65zM244 -12q-80 0 -122.5 48.5t-32.5 140.5l29 284h87l-27 -263q-15 -135 98 -135q66 0 102.5 42.5t43.5 103.5l26 252h87l-48 -461h-87l9 84q-24 -44 -67 -70t-98 -26z" />
    <glyph glyph-name="ucircumflex" unicode="&#xfb;" horiz-adv-x="562" 
d="M355 698l160 -146l-52 -52l-117 112l-139 -111l-42 51zM244 -12q-80 0 -122.5 48.5t-32.5 140.5l29 284h87l-27 -263q-15 -135 98 -135q66 0 102.5 42.5t43.5 103.5l26 252h87l-48 -461h-87l9 84q-24 -44 -67 -70t-98 -26z" />
    <glyph glyph-name="udieresis" unicode="&#xfc;" horiz-adv-x="562" 
d="M239 539q-28 0 -45.5 19.5t-14.5 47.5t24.5 47.5t49.5 19.5q29 0 46 -19.5t14 -47.5t-24.5 -47.5t-49.5 -19.5zM439 539q-28 0 -45.5 19.5t-14.5 47.5t24.5 47.5t49.5 19.5q29 0 46 -19.5t14 -47.5t-24.5 -47.5t-49.5 -19.5zM244 -12q-80 0 -122.5 48.5t-32.5 140.5
l29 284h87l-27 -263q-15 -135 98 -135q66 0 102.5 42.5t43.5 103.5l26 252h87l-48 -461h-87l9 84q-24 -44 -67 -70t-98 -26z" />
    <glyph glyph-name="yacute" unicode="&#xfd;" horiz-adv-x="567" 
d="M199 506l-22 68l286 114l22 -65zM453 461h87l-49 -470q-12 -109 -80 -166q-63 -50 -157 -50q-100 0 -151 48q-45 42 -39 119h88q-2 -45 23 -69.5t86 -24.5q128 0 144 149l9 86q-56 -95 -170 -95q-87 0 -125.5 53.5t-28.5 144.5l28 275h87l-27 -257q-7 -67 16 -102.5
t87 -35.5q63 0 102 45.5t46 112.5z" />
    <glyph glyph-name="thorn" unicode="&#xfe;" horiz-adv-x="591" 
d="M381 473q99 0 153.5 -67.5t43.5 -175.5q-11 -106 -82 -174t-171 -68q-53 0 -95 25t-59 68l-31 -294h-87l96 913h87l-34 -320q26 43 74.5 68t104.5 25zM321 66q67 0 115 46t55 118q8 72 -30 118.5t-105 46.5q-69 0 -118 -46t-56 -119q-8 -72 31 -118t108 -46z" />
    <glyph glyph-name="ydieresis" unicode="&#xff;" horiz-adv-x="567" 
d="M234 539q-28 0 -45.5 19.5t-14.5 47.5t24.5 47.5t49.5 19.5q29 0 46 -19.5t14 -47.5t-24.5 -47.5t-49.5 -19.5zM434 539q-28 0 -45.5 19.5t-14.5 47.5t24.5 47.5t49.5 19.5q29 0 46 -19.5t14 -47.5t-24.5 -47.5t-49.5 -19.5zM453 461h87l-49 -470q-12 -109 -80 -166
q-63 -50 -157 -50q-100 0 -151 48q-45 42 -39 119h88q-2 -45 23 -69.5t86 -24.5q128 0 144 149l9 86q-56 -95 -170 -95q-87 0 -125.5 53.5t-28.5 144.5l28 275h87l-27 -257q-7 -67 16 -102.5t87 -35.5q63 0 102 45.5t46 112.5z" />
    <glyph glyph-name="Amacron" unicode="&#x100;" horiz-adv-x="590" 
d="M570 837l-7 -69h-372l7 69h372zM474 0l-22 107h-291l-44 -107h-99l311 700h81l163 -700h-99zM196 190h239l-80 384z" />
    <glyph glyph-name="amacron" unicode="&#x101;" horiz-adv-x="591" 
d="M179 555l8 70h318l-8 -70h-318zM265 -12q-107 0 -160.5 68t-42.5 174q11 105 81 174t175 69q54 0 94.5 -25t57.5 -68l8 81h86l-48 -461h-86l9 81q-26 -42 -74 -67.5t-100 -25.5zM285 66q73 0 119.5 47.5t53.5 116.5q8 70 -28.5 117.5t-109.5 47.5q-70 0 -117 -46.5
t-55 -118.5t29.5 -118t107.5 -46z" />
    <glyph glyph-name="Abreve" unicode="&#x102;" horiz-adv-x="590" 
d="M373 734q-68 0 -111 38t-42 97h72q1 -36 25.5 -54t62.5 -18t65.5 18t36.5 54h72q-11 -59 -62 -97t-119 -38zM474 0l-22 107h-291l-44 -107h-99l311 700h81l163 -700h-99zM196 190h239l-80 384z" />
    <glyph glyph-name="abreve" unicode="&#x103;" horiz-adv-x="591" 
d="M333 508q-75 0 -118 40t-40 111h74q-1 -43 24 -65t67 -22q43 0 73 22t37 65h74q-13 -71 -64 -111t-127 -40zM265 -12q-107 0 -160.5 68t-42.5 174q11 105 81 174t175 69q54 0 94.5 -25t57.5 -68l8 81h86l-48 -461h-86l9 81q-26 -42 -74 -67.5t-100 -25.5zM285 66
q73 0 119.5 47.5t53.5 116.5q8 70 -28.5 117.5t-109.5 47.5q-70 0 -117 -46.5t-55 -118.5t29.5 -118t107.5 -46z" />
    <glyph glyph-name="Aogonek" unicode="&#x104;" horiz-adv-x="590" 
d="M526 -146q28 0 58 13l-8 -64q-41 -15 -80 -15q-53 0 -82.5 28t-24.5 70q8 68 97 114h-12l-22 107h-291l-44 -107h-99l311 700h81l163 -700q-49 -11 -74 -35t-27 -53q-3 -26 12 -42t42 -16zM196 190h239l-80 384z" />
    <glyph glyph-name="aogonek" unicode="&#x105;" horiz-adv-x="591" 
d="M476 -146q28 0 58 13l-8 -64q-41 -15 -80 -15q-53 0 -82.5 28t-24.5 70q8 68 97 114h-6l9 81q-26 -42 -74 -67.5t-100 -25.5q-107 0 -160.5 68t-42.5 174q11 105 81 174t175 69q54 0 94.5 -25t57.5 -68l8 81h86l-48 -461h7q-49 -11 -74 -35t-27 -53q-3 -26 12 -42t42 -16
zM285 66q73 0 119.5 47.5t53.5 116.5q8 70 -28.5 117.5t-109.5 47.5q-70 0 -117 -46.5t-55 -118.5t29.5 -118t107.5 -46z" />
    <glyph glyph-name="Cacute" unicode="&#x106;" horiz-adv-x="771" 
d="M388 731l-26 60l229 103l25 -59zM398 -16q-167 0 -253.5 103t-69.5 263q17 161 125 263.5t275 102.5q138 0 219 -68t90 -178h-100q-12 76 -67 120t-149 44q-124 0 -204.5 -79t-93.5 -205q-14 -126 49.5 -205t188.5 -79q94 0 158.5 44t92.5 120h100q-32 -110 -127.5 -178
t-233.5 -68z" />
    <glyph glyph-name="cacute" unicode="&#x107;" horiz-adv-x="520" 
d="M187 506l-22 68l286 114l22 -65zM266 -12q-105 0 -160 67t-44 175t80.5 175t174.5 67q92 0 144 -46.5t53 -124.5h-87q-9 93 -119 93q-67 0 -109.5 -43.5t-50.5 -120.5q-8 -76 25.5 -120t100.5 -44q109 0 137 90h87q-16 -77 -77.5 -122.5t-154.5 -45.5z" />
    <glyph glyph-name="Ccircumflex" unicode="&#x108;" horiz-adv-x="771" 
d="M491 892l123 -116l-51 -41l-80 81l-99 -81l-41 41zM398 -16q-167 0 -253.5 103t-69.5 263q17 161 125 263.5t275 102.5q138 0 219 -68t90 -178h-100q-12 76 -67 120t-149 44q-124 0 -204.5 -79t-93.5 -205q-14 -126 49.5 -205t188.5 -79q94 0 158.5 44t92.5 120h100
q-32 -110 -127.5 -178t-233.5 -68z" />
    <glyph glyph-name="ccircumflex" unicode="&#x109;" horiz-adv-x="520" 
d="M338 698l160 -146l-52 -52l-117 112l-139 -111l-42 51zM266 -12q-105 0 -160 67t-44 175t80.5 175t174.5 67q92 0 144 -46.5t53 -124.5h-87q-9 93 -119 93q-67 0 -109.5 -43.5t-50.5 -120.5q-8 -76 25.5 -120t100.5 -44q109 0 137 90h87q-16 -77 -77.5 -122.5
t-154.5 -45.5z" />
    <glyph glyph-name="Cdotaccent" unicode="&#x10a;" horiz-adv-x="771" 
d="M478 744q-30 0 -46.5 19.5t-13.5 48.5q3 28 24 47.5t50 19.5q30 0 46.5 -19.5t13.5 -47.5q-3 -29 -23.5 -48.5t-50.5 -19.5zM398 -16q-167 0 -253.5 103t-69.5 263q17 161 125 263.5t275 102.5q138 0 219 -68t90 -178h-100q-12 76 -67 120t-149 44q-124 0 -204.5 -79
t-93.5 -205q-14 -126 49.5 -205t188.5 -79q94 0 158.5 44t92.5 120h100q-32 -110 -127.5 -178t-233.5 -68z" />
    <glyph glyph-name="cdotaccent" unicode="&#x10b;" horiz-adv-x="520" 
d="M322 540q-31 0 -49 20t-15 50t25.5 50.5t53.5 20.5q30 0 47.5 -20.5t14.5 -50.5t-25 -50t-52 -20zM266 -12q-105 0 -160 67t-44 175t80.5 175t174.5 67q92 0 144 -46.5t53 -124.5h-87q-9 93 -119 93q-67 0 -109.5 -43.5t-50.5 -120.5q-8 -76 25.5 -120t100.5 -44
q109 0 137 90h87q-16 -77 -77.5 -122.5t-154.5 -45.5z" />
    <glyph glyph-name="Ccaron" unicode="&#x10c;" horiz-adv-x="771" 
d="M476 736l-122 116l50 41l80 -81l99 81l42 -41zM398 -16q-167 0 -253.5 103t-69.5 263q17 161 125 263.5t275 102.5q138 0 219 -68t90 -178h-100q-12 76 -67 120t-149 44q-124 0 -204.5 -79t-93.5 -205q-14 -126 49.5 -205t188.5 -79q94 0 158.5 44t92.5 120h100
q-32 -110 -127.5 -178t-233.5 -68z" />
    <glyph glyph-name="ccaron" unicode="&#x10d;" horiz-adv-x="520" 
d="M318 502l-160 146l52 51l117 -111l140 112l41 -52zM266 -12q-105 0 -160 67t-44 175t80.5 175t174.5 67q92 0 144 -46.5t53 -124.5h-87q-9 93 -119 93q-67 0 -109.5 -43.5t-50.5 -120.5q-8 -76 25.5 -120t100.5 -44q109 0 137 90h87q-16 -77 -77.5 -122.5t-154.5 -45.5z
" />
    <glyph glyph-name="Dcaron" unicode="&#x10e;" horiz-adv-x="691" 
d="M399 736l-122 116l50 41l80 -81l99 81l42 -41zM80 0l74 700h223q84 0 150 -29t104 -78t55 -111.5t10 -131.5q-15 -144 -121 -247t-272 -103h-223zM180 82h125q129 0 207.5 79t89.5 189q11 111 -50.5 189.5t-190.5 78.5h-125z" />
    <glyph glyph-name="dcaron" unicode="&#x10f;" horiz-adv-x="721" 
d="M709 715q36 0 55.5 -27t14.5 -75q-5 -55 -36.5 -86t-81.5 -31q-13 0 -19 2l5 40q6 -1 17 -1q38 0 54 28q10 17 10 45q-12 -17 -41 -17q-24 0 -37.5 17t-10.5 43q2 27 21.5 44.5t48.5 17.5zM474 428l29 272h87l-74 -700h-86l9 81q-26 -42 -74 -67.5t-100 -25.5
q-107 0 -160.5 68t-42.5 174q11 105 81 174t175 69q54 0 94.5 -25t57.5 -68l5 48h-1zM285 66q73 0 119.5 47.5t53.5 116.5q8 70 -28.5 117.5t-109.5 47.5q-70 0 -117 -46.5t-55 -118.5t29.5 -118t107.5 -46z" />
    <glyph glyph-name="Dcroat" unicode="&#x110;" horiz-adv-x="691" 
d="M377 700q84 0 150 -29t104 -78t55 -111.5t10 -131.5q-15 -144 -121 -247t-272 -103h-223l33 313h-79l8 78h79l33 309h223zM305 82q129 0 207.5 79t89.5 189q11 111 -50.5 189.5t-190.5 78.5h-125l-24 -227h133l-8 -78h-133l-24 -231h125z" />
    <glyph glyph-name="dcroat" unicode="&#x111;" horiz-adv-x="591" 
d="M632 595l-7 -59h-53l-56 -536h-86l9 81q-26 -42 -74 -67.5t-100 -25.5q-107 0 -160.5 68t-42.5 174q11 105 81 174t175 69q54 0 94.5 -25t57.5 -68l5 48h-1l11 108h-155l7 59h155l11 105h87l-11 -105h53zM285 66q73 0 119.5 47.5t53.5 116.5q8 70 -28.5 117.5
t-109.5 47.5q-70 0 -117 -46.5t-55 -118.5t29.5 -118t107.5 -46z" />
    <glyph glyph-name="Emacron" unicode="&#x112;" horiz-adv-x="545" 
d="M180 768l7 69h372l-7 -69h-372zM80 0l74 700h398l-9 -82h-307l-24 -229h307l-9 -82h-307l-23 -225h307l-9 -82h-398z" />
    <glyph glyph-name="emacron" unicode="&#x113;" horiz-adv-x="521" 
d="M491 625l-8 -70h-318l8 70h318zM511 257q-2 -18 -8 -52h-357q-6 -66 29 -103.5t101 -37.5q91 0 129 68h87q-19 -64 -81 -104t-143 -40q-106 0 -161.5 65.5t-44.5 177.5q12 110 81 176t172 66q98 0 152 -60t44 -156zM153 272h274q6 61 -26 96t-95 35q-62 0 -103 -36
t-50 -95z" />
    <glyph glyph-name="Ebreve" unicode="&#x114;" horiz-adv-x="545" 
d="M362 734q-68 0 -111 38t-42 97h72q1 -36 25.5 -54t62.5 -18t65.5 18t36.5 54h72q-11 -59 -62 -97t-119 -38zM80 0l74 700h398l-9 -82h-307l-24 -229h307l-9 -82h-307l-23 -225h307l-9 -82h-398z" />
    <glyph glyph-name="ebreve" unicode="&#x115;" horiz-adv-x="521" 
d="M319 508q-75 0 -118 40t-40 111h74q-1 -43 24 -65t67 -22q43 0 73 22t37 65h74q-13 -71 -64 -111t-127 -40zM511 257q-2 -18 -8 -52h-357q-6 -66 29 -103.5t101 -37.5q91 0 129 68h87q-19 -64 -81 -104t-143 -40q-106 0 -161.5 65.5t-44.5 177.5q12 110 81 176t172 66
q98 0 152 -60t44 -156zM153 272h274q6 61 -26 96t-95 35q-62 0 -103 -36t-50 -95z" />
    <glyph glyph-name="Edotaccent" unicode="&#x116;" horiz-adv-x="545" 
d="M363 744q-30 0 -46.5 19.5t-13.5 48.5q3 28 24 47.5t50 19.5q30 0 46.5 -19.5t13.5 -47.5q-3 -29 -23.5 -48.5t-50.5 -19.5zM80 0l74 700h398l-9 -82h-307l-24 -229h307l-9 -82h-307l-23 -225h307l-9 -82h-398z" />
    <glyph glyph-name="edotaccent" unicode="&#x117;" horiz-adv-x="521" 
d="M323 540q-31 0 -49 20t-15 50t25.5 50.5t53.5 20.5q30 0 47.5 -20.5t14.5 -50.5t-25 -50t-52 -20zM511 257q-2 -18 -8 -52h-357q-6 -66 29 -103.5t101 -37.5q91 0 129 68h87q-19 -64 -81 -104t-143 -40q-106 0 -161.5 65.5t-44.5 177.5q12 110 81 176t172 66
q98 0 152 -60t44 -156zM153 272h274q6 61 -26 96t-95 35q-62 0 -103 -36t-50 -95z" />
    <glyph glyph-name="Eogonek" unicode="&#x118;" horiz-adv-x="545" 
d="M431 -146q28 0 58 13l-8 -64q-41 -15 -80 -15q-53 0 -82.5 28t-24.5 70q8 68 97 114h-311l74 700h398l-9 -82h-307l-24 -229h307l-9 -82h-307l-23 -225h307l-9 -82q-49 -11 -74 -35t-27 -53q-3 -26 12 -42t42 -16z" />
    <glyph glyph-name="eogonek" unicode="&#x119;" horiz-adv-x="521" 
d="M511 257q-2 -18 -8 -52h-357q-6 -66 29 -103.5t101 -37.5q91 0 129 68h87q-15 -51 -59 -87.5t-106 -50.5q-73 -24 -79 -82q-3 -26 12 -42t42 -16q28 0 58 13l-8 -64q-41 -15 -80 -15q-53 0 -82.5 28t-24.5 70q6 60 78 103q-95 8 -143.5 72.5t-37.5 169.5q12 110 81 176
t172 66q98 0 152 -60t44 -156zM153 272h274q6 61 -26 96t-95 35q-62 0 -103 -36t-50 -95z" />
    <glyph glyph-name="Ecaron" unicode="&#x11a;" horiz-adv-x="545" 
d="M361 736l-122 116l50 41l80 -81l99 81l42 -41zM80 0l74 700h398l-9 -82h-307l-24 -229h307l-9 -82h-307l-23 -225h307l-9 -82h-398z" />
    <glyph glyph-name="ecaron" unicode="&#x11b;" horiz-adv-x="521" 
d="M509 648l-190 -146l-160 146l52 51l117 -111l140 112zM511 257q-2 -18 -8 -52h-357q-6 -66 29 -103.5t101 -37.5q91 0 129 68h87q-19 -64 -81 -104t-143 -40q-106 0 -161.5 65.5t-44.5 177.5q12 110 81 176t172 66q98 0 152 -60t44 -156zM153 272h274q6 61 -26 96t-95 35
q-62 0 -103 -36t-50 -95z" />
    <glyph glyph-name="Gcircumflex" unicode="&#x11c;" horiz-adv-x="829" 
d="M487 816l-99 -81l-41 41l148 116l123 -116l-51 -41zM843 340l-9 -82h-77q-36 -127 -130 -200.5t-232 -73.5q-164 0 -251 103t-70 259q17 157 124.5 263.5t278.5 106.5q121 0 197.5 -61t81.5 -155h-100q-9 60 -58.5 97t-128.5 37q-130 0 -208.5 -81t-91.5 -207
q-12 -120 51 -200t184 -80q98 0 163.5 49.5t94.5 142.5h-170l9 82h342z" />
    <glyph glyph-name="gcircumflex" unicode="&#x11d;" horiz-adv-x="591" 
d="M348 612l-139 -111l-42 51l190 146l160 -146l-52 -52zM478 461h86l-47 -449q-14 -132 -100 -194q-62 -43 -164 -43q-101 0 -158 45q-61 45 -56 122h91q1 -42 34 -68t97 -26q153 0 170 158l8 75q-27 -43 -75 -68t-99 -25q-104 0 -159 69t-44 173t83 173.5t173 69.5
q53 0 94 -25t58 -68zM285 66q71 0 118.5 47t54.5 117q8 70 -29.5 117.5t-108.5 47.5q-68 0 -116 -46.5t-56 -118.5q-8 -71 30.5 -117.5t106.5 -46.5z" />
    <glyph glyph-name="Gbreve" unicode="&#x11e;" horiz-adv-x="829" 
d="M481 734q-68 0 -111 38t-42 97h72q1 -36 25.5 -54t62.5 -18t65.5 18t36.5 54h72q-11 -59 -62 -97t-119 -38zM843 340l-9 -82h-77q-36 -127 -130 -200.5t-232 -73.5q-164 0 -251 103t-70 259q17 157 124.5 263.5t278.5 106.5q121 0 197.5 -61t81.5 -155h-100
q-9 60 -58.5 97t-128.5 37q-130 0 -208.5 -81t-91.5 -207q-12 -120 51 -200t184 -80q98 0 163.5 49.5t94.5 142.5h-170l9 82h342z" />
    <glyph glyph-name="gbreve" unicode="&#x11f;" horiz-adv-x="591" 
d="M337 508q-75 0 -118 40t-40 111h74q-1 -43 24 -65t67 -22q43 0 73 22t37 65h74q-13 -71 -64 -111t-127 -40zM478 461h86l-47 -449q-14 -132 -100 -194q-62 -43 -164 -43q-101 0 -158 45q-61 45 -56 122h91q1 -42 34 -68t97 -26q153 0 170 158l8 75q-27 -43 -75 -68
t-99 -25q-104 0 -159 69t-44 173t83 173.5t173 69.5q53 0 94 -25t58 -68zM285 66q71 0 118.5 47t54.5 117q8 70 -29.5 117.5t-108.5 47.5q-68 0 -116 -46.5t-56 -118.5q-8 -71 30.5 -117.5t106.5 -46.5z" />
    <glyph glyph-name="Gdotaccent" unicode="&#x120;" horiz-adv-x="829" 
d="M482 744q-30 0 -46.5 19.5t-13.5 48.5q3 28 24 47.5t50 19.5q30 0 46.5 -19.5t13.5 -47.5q-3 -29 -23.5 -48.5t-50.5 -19.5zM843 340l-9 -82h-77q-36 -127 -130 -200.5t-232 -73.5q-164 0 -251 103t-70 259q17 157 124.5 263.5t278.5 106.5q121 0 197.5 -61t81.5 -155
h-100q-9 60 -58.5 97t-128.5 37q-130 0 -208.5 -81t-91.5 -207q-12 -120 51 -200t184 -80q98 0 163.5 49.5t94.5 142.5h-170l9 82h342z" />
    <glyph glyph-name="gdotaccent" unicode="&#x121;" horiz-adv-x="591" 
d="M341 540q-31 0 -49 20t-15 50t25.5 50.5t53.5 20.5q30 0 47.5 -20.5t14.5 -50.5t-25 -50t-52 -20zM478 461h86l-47 -449q-14 -132 -100 -194q-62 -43 -164 -43q-101 0 -158 45q-61 45 -56 122h91q1 -42 34 -68t97 -26q153 0 170 158l8 75q-27 -43 -75 -68t-99 -25
q-104 0 -159 69t-44 173t83 173.5t173 69.5q53 0 94 -25t58 -68zM285 66q71 0 118.5 47t54.5 117q8 70 -29.5 117.5t-108.5 47.5q-68 0 -116 -46.5t-56 -118.5q-8 -71 30.5 -117.5t106.5 -46.5z" />
    <glyph glyph-name="Gcommaaccent" unicode="&#x122;" horiz-adv-x="829" 
d="M843 340l-9 -82h-77q-36 -127 -130 -200.5t-232 -73.5q-164 0 -251 103t-70 259q17 157 124.5 263.5t278.5 106.5q121 0 197.5 -61t81.5 -155h-100q-9 60 -58.5 97t-128.5 37q-130 0 -208.5 -81t-91.5 -207q-12 -120 51 -200t184 -80q98 0 163.5 49.5t94.5 142.5h-170
l9 82h342zM397 -30q29 0 44 -19.5t11 -51.5q-10 -105 -115 -105l4 30q41 0 56 26q10 10 12 30q-5 -9 -21 -9q-23 0 -36 14t-11 35t18 35.5t38 14.5z" />
    <glyph glyph-name="gcommaaccent" unicode="&#x123;" horiz-adv-x="591" 
d="M325 514q-27 0 -42.5 22.5t-11.5 57.5q5 45 37 72t83 27l-3 -31q-40 0 -57 -24q-15 -15 -15 -32q4 10 24 10q21 0 33 -15t10 -36q-2 -22 -19 -36.5t-39 -14.5zM478 461h86l-47 -449q-14 -132 -100 -194q-62 -43 -164 -43q-101 0 -158 45q-61 45 -56 122h91q1 -42 34 -68
t97 -26q153 0 170 158l8 75q-27 -43 -75 -68t-99 -25q-104 0 -159 69t-44 173t83 173.5t173 69.5q53 0 94 -25t58 -68zM285 66q71 0 118.5 47t54.5 117q8 70 -29.5 117.5t-108.5 47.5q-68 0 -116 -46.5t-56 -118.5q-8 -71 30.5 -117.5t106.5 -46.5z" />
    <glyph glyph-name="Hcircumflex" unicode="&#x124;" horiz-adv-x="668" 
d="M425 892l123 -116l-51 -41l-80 81l-99 -81l-41 41zM80 0l74 700h91l-33 -311h326l33 311h91l-74 -700h-91l32 307h-326l-32 -307h-91z" />
    <glyph glyph-name="hcircumflex" unicode="&#x125;" horiz-adv-x="566" 
d="M267 743l-63 61l-77 -61l-35 45l119 92l102 -92zM374 473q172 0 152 -189l-30 -284h-87l26 246q8 78 -15.5 115t-84.5 37q-63 0 -100.5 -41t-45.5 -113l-26 -244h-87l74 700h87l-34 -324q24 45 68 71t103 26z" />
    <glyph glyph-name="Hbar" unicode="&#x126;" horiz-adv-x="668" 
d="M682 565l-6 -59h-35l-53 -506h-91l32 307h-326l-32 -307h-91l53 506h-35l6 59h35l15 135h91l-15 -135h326l15 135h91l-15 -135h35zM538 389l12 117h-326l-12 -117h326z" />
    <glyph glyph-name="hbar" unicode="&#x127;" horiz-adv-x="566" 
d="M374 473q172 0 152 -189l-30 -284h-87l26 246q8 78 -15.5 115t-84.5 37q-63 0 -100.5 -41t-45.5 -113l-26 -244h-87l56 536h-48l7 59h48l11 105h87l-11 -105h161l-7 -59h-161l-16 -160q24 45 68 71t103 26z" />
    <glyph glyph-name="Itilde" unicode="&#x128;" horiz-adv-x="251" 
d="M246 758q-22 0 -43 18.5t-32 18.5q-23 0 -44 -30l-18 40q28 50 69 50q22 0 43 -19t32 -19q23 0 42 29l18 -40q-26 -48 -67 -48zM80 0l74 700h91l-74 -700h-91z" />
    <glyph glyph-name="itilde" unicode="&#x129;" horiz-adv-x="237" 
d="M212 526q-22 0 -42.5 25t-33.5 25q-23 0 -43 -33l-16 45q29 62 71 62q24 0 48 -25t35 -25q21 0 38 29l15 -46q-24 -57 -72 -57zM75 0l48 461h87l-48 -461h-87z" />
    <glyph glyph-name="Imacron" unicode="&#x12a;" horiz-adv-x="251" 
d="M114 768l6 62h187l-6 -62h-187zM80 0l74 700h91l-74 -700h-91z" />
    <glyph glyph-name="imacron" unicode="&#x12b;" horiz-adv-x="237" 
d="M78 555l8 70h198l-8 -70h-198zM75 0l48 461h87l-48 -461h-87z" />
    <glyph glyph-name="Ibreve" unicode="&#x12c;" horiz-adv-x="251" 
d="M203 737q-51 0 -80.5 30t-22.5 100h67q-4 -68 43 -68t57 68h68q-8 -70 -44.5 -100t-87.5 -30zM80 0l74 700h91l-74 -700h-91z" />
    <glyph glyph-name="ibreve" unicode="&#x12d;" horiz-adv-x="237" 
d="M172 513q-109 0 -96 128h60q-4 -72 42 -72q47 0 57 72h60q-13 -128 -123 -128zM75 0l48 461h87l-48 -461h-87z" />
    <glyph glyph-name="Iogonek" unicode="&#x12e;" horiz-adv-x="251" 
d="M124 -146q28 0 58 13l-8 -64q-41 -15 -80 -15q-53 0 -82.5 28t-24.5 70q8 68 97 114h-4l74 700h91l-74 -700q-49 -11 -74 -35t-27 -53q-3 -26 12 -42t42 -16z" />
    <glyph glyph-name="iogonek" unicode="&#x12f;" horiz-adv-x="237" 
d="M176 540q-31 0 -49 20t-15 50t25.5 50.5t53.5 20.5q30 0 47.5 -20.5t14.5 -50.5t-25 -50t-52 -20zM61 -88q-3 -26 12 -42t42 -16q28 0 58 13l-8 -64q-41 -15 -80 -15q-53 0 -82.5 28t-24.5 70q8 68 97 114l48 461h87l-48 -461q-49 -11 -74 -35t-27 -53z" />
    <glyph glyph-name="Idotaccent" unicode="&#x130;" horiz-adv-x="251" 
d="M204 744q-30 0 -46.5 19.5t-13.5 48.5q3 28 24 47.5t50 19.5q30 0 46.5 -19.5t13.5 -47.5q-3 -29 -23.5 -48.5t-50.5 -19.5zM80 0l74 700h91l-74 -700h-91z" />
    <glyph glyph-name="dotlessi" unicode="&#x131;" horiz-adv-x="237" 
d="M75 0l48 461h87l-48 -461h-87z" />
    <glyph glyph-name="IJ" unicode="&#x132;" horiz-adv-x="787" 
d="M80 0l74 700h91l-74 -700h-91zM498 -16q-104 0 -158 64.5t-43 173.5h91q-7 -72 25 -114t94 -42q63 0 103 42.5t48 115.5l50 476h91l-50 -476q-12 -110 -79 -175t-172 -65z" />
    <glyph glyph-name="ij" unicode="&#x133;" horiz-adv-x="477" 
d="M176 540q-31 0 -49 20t-15 50t25.5 50.5t53.5 20.5q30 0 47.5 -20.5t14.5 -50.5t-25 -50t-52 -20zM416 540q-31 0 -49 20t-15 50t25.5 50.5t53.5 20.5q30 0 47.5 -20.5t14.5 -50.5t-25 -50t-52 -20zM75 0l48 461h87l-48 -461h-87zM258 -219q-44 0 -63 11l8 79
q19 -7 47 -7q51 0 57 62l56 535h87l-58 -559q-6 -58 -41 -89.5t-93 -31.5z" />
    <glyph glyph-name="Jcircumflex" unicode="&#x134;" horiz-adv-x="536" 
d="M576 743l-63 61l-77 -61l-35 45l119 92l102 -92zM247 -16q-104 0 -158 64.5t-43 173.5h91q-7 -72 25 -114t94 -42q63 0 103 42.5t48 115.5l50 476h91l-50 -476q-12 -110 -79 -175t-172 -65z" />
    <glyph glyph-name="jcircumflex" unicode="&#x135;" horiz-adv-x="240" 
d="M103 518l-42 50l132 111l110 -111l-53 -51l-66 71zM21 -219q-44 0 -63 11l8 79q19 -7 47 -7q51 0 57 62l56 535h87l-58 -559q-6 -58 -41 -89.5t-93 -31.5z" />
    <glyph glyph-name="Kcommaaccent" unicode="&#x136;" horiz-adv-x="595" 
d="M656 700l-362 -346l288 -354h-118l-259 326l-34 -326h-91l74 700h91l-35 -328l329 328h117zM285 -30q29 0 44 -19.5t11 -51.5q-10 -105 -115 -105l4 30q41 0 56 26q10 10 12 30q-5 -9 -21 -9q-23 0 -36 14t-11 35t18 35.5t38 14.5z" />
    <glyph glyph-name="kcommaaccent" unicode="&#x137;" horiz-adv-x="505" 
d="M526 461l-247 -223l199 -238h-115l-178 217l-23 -217h-87l74 700h87l-48 -449l226 210h112zM256 -30q29 0 44 -19.5t11 -51.5q-10 -105 -115 -105l4 30q41 0 56 26q10 10 12 30q-5 -9 -21 -9q-23 0 -36 14t-11 35t18 35.5t38 14.5z" />
    <glyph glyph-name="kgreenlandic" unicode="&#x138;" horiz-adv-x="505" 
d="M526 461l-247 -223l199 -238h-115l-178 217l-23 -217h-87l48 461h87l-22 -210l226 210h112z" />
    <glyph glyph-name="Lacute" unicode="&#x139;" horiz-adv-x="511" 
d="M154 737l-33 57l172 100l34 -57zM80 0l74 700h91l-65 -614h298l-9 -86h-389z" />
    <glyph glyph-name="lacute" unicode="&#x13a;" horiz-adv-x="237" 
d="M134 737l-33 57l172 100l34 -57zM75 0l74 700h87l-74 -700h-87z" />
    <glyph glyph-name="Lcommaaccent" unicode="&#x13b;" horiz-adv-x="511" 
d="M80 0l74 700h91l-65 -614h298l-9 -86h-389zM216 -206l4 30q41 0 56 26q10 10 12 30q-5 -9 -21 -9q-23 0 -36 14t-11 35t18 35.5t38 14.5q29 0 44 -19.5t11 -51.5q-10 -105 -115 -105z" />
    <glyph glyph-name="lcommaaccent" unicode="&#x13c;" horiz-adv-x="237" 
d="M75 0l74 700h87l-74 -700h-87zM52 -206l4 30q41 0 56 26q10 10 12 30q-5 -9 -21 -9q-23 0 -36 14t-11 35t18 35.5t38 14.5q29 0 44 -19.5t11 -51.5q-10 -105 -115 -105z" />
    <glyph glyph-name="Lcaron" unicode="&#x13d;" horiz-adv-x="511" 
d="M382 496q-13 0 -19 2l5 40q6 -1 17 -1q38 0 54 28q10 17 10 45q-12 -17 -41 -17q-24 0 -37.5 17t-10.5 43q2 27 21.5 44.5t48.5 17.5q36 0 55.5 -27t14.5 -75q-5 -55 -36.5 -86t-81.5 -31zM80 0l74 700h91l-65 -614h298l-9 -86h-389z" />
    <glyph glyph-name="lcaron" unicode="&#x13e;" horiz-adv-x="375" 
d="M320 496q-13 0 -19 2l5 40q6 -1 17 -1q38 0 54 28q10 17 10 45q-12 -17 -41 -17q-24 0 -37.5 17t-10.5 43q2 27 21.5 44.5t48.5 17.5q36 0 55.5 -27t14.5 -75q-5 -55 -36.5 -86t-81.5 -31zM75 0l74 700h87l-74 -700h-87z" />
    <glyph glyph-name="Ldot" unicode="&#x13f;" horiz-adv-x="511" 
d="M80 0l74 700h91l-65 -614h298l-9 -86h-389zM380 321q-31 0 -50 21.5t-16 51.5q4 30 27.5 51.5t53.5 21.5t49.5 -21.5t15.5 -51.5q-3 -30 -26.5 -51.5t-53.5 -21.5z" />
    <glyph glyph-name="ldot" unicode="&#x140;" horiz-adv-x="366" 
d="M75 0l74 700h87l-74 -700h-87zM315 278q-31 0 -49.5 21.5t-15.5 51.5t26.5 51.5t54.5 21.5q30 0 49 -21.5t16 -51.5t-27 -51.5t-54 -21.5z" />
    <glyph glyph-name="Lslash" unicode="&#x141;" horiz-adv-x="498" 
d="M180 86h298l-9 -86h-389l28 269l-58 -25l7 73l59 25l38 358h91l-34 -318l170 72l-8 -73l-170 -72z" />
    <glyph glyph-name="lslash" unicode="&#x142;" horiz-adv-x="237" 
d="M280 459l-7 -67l-77 -39l-37 -353h-87l32 306l-71 -36l7 67l71 36l35 327h87l-30 -280z" />
    <glyph glyph-name="Nacute" unicode="&#x143;" horiz-adv-x="659" 
d="M318 731l-26 60l229 103l25 -59zM80 0l74 700h97l257 -548l58 548h87l-74 -700h-96l-257 548l-58 -548h-88z" />
    <glyph glyph-name="nacute" unicode="&#x144;" horiz-adv-x="565" 
d="M204 506l-22 68l286 114l22 -65zM75 0l48 461h87l-8 -85q24 45 68 71t103 26q172 0 152 -189l-30 -284h-87l26 246q8 78 -15.5 115t-84.5 37q-63 0 -100.5 -41t-45.5 -113l-26 -244h-87z" />
    <glyph glyph-name="Ncommaaccent" unicode="&#x145;" horiz-adv-x="659" 
d="M80 0l74 700h97l257 -548l58 548h87l-74 -700h-96l-257 548l-58 -548h-88zM263 -206l4 30q41 0 56 26q10 10 12 30q-5 -9 -21 -9q-23 0 -36 14t-11 35t18 35.5t38 14.5q29 0 44 -19.5t11 -51.5q-10 -105 -115 -105z" />
    <glyph glyph-name="ncommaaccent" unicode="&#x146;" horiz-adv-x="565" 
d="M75 0l48 461h87l-8 -85q24 45 68 71t103 26q172 0 152 -189l-30 -284h-87l26 246q8 78 -15.5 115t-84.5 37q-63 0 -100.5 -41t-45.5 -113l-26 -244h-87zM215 -206l4 30q41 0 56 26q10 10 12 30q-5 -9 -21 -9q-23 0 -36 14t-11 35t18 35.5t38 14.5q29 0 44 -19.5t11 -51.5
q-10 -105 -115 -105z" />
    <glyph glyph-name="Ncaron" unicode="&#x147;" horiz-adv-x="659" 
d="M406 736l-122 116l50 41l80 -81l99 81l42 -41zM80 0l74 700h97l257 -548l58 548h87l-74 -700h-96l-257 548l-58 -548h-88z" />
    <glyph glyph-name="ncaron" unicode="&#x148;" horiz-adv-x="565" 
d="M335 502l-160 146l52 51l117 -111l140 112l41 -52zM75 0l48 461h87l-8 -85q24 45 68 71t103 26q172 0 152 -189l-30 -284h-87l26 246q8 78 -15.5 115t-84.5 37q-63 0 -100.5 -41t-45.5 -113l-26 -244h-87z" />
    <glyph glyph-name="napostrophe" unicode="&#x149;" horiz-adv-x="586" 
d="M107 496q-13 0 -19 2l5 40q6 -1 17 -1q38 0 54 28q10 17 10 45q-12 -17 -41 -17q-24 0 -37.5 17t-10.5 43q2 27 21.5 44.5t48.5 17.5q36 0 55.5 -27t14.5 -75q-5 -55 -36.5 -86t-81.5 -31zM97 0l48 461h87l-8 -85q24 45 68 71t103 26q172 0 152 -189l-30 -284h-87l26 246
q8 78 -15.5 115t-84.5 37q-63 0 -100.5 -41t-45.5 -113l-26 -244h-87z" />
    <glyph glyph-name="Eng" unicode="&#x14a;" horiz-adv-x="659" 
d="M566 700h87l-83 -782q-7 -66 -47 -101.5t-108 -35.5q-43 0 -65 11l9 82q19 -7 51 -7q33 0 50.5 18.5t21.5 59.5l6 55h-5l-257 548l-58 -548h-88l74 700h97l257 -548z" />
    <glyph glyph-name="eng" unicode="&#x14b;" horiz-adv-x="565" 
d="M373 473q172 0 152 -189l-40 -382q-6 -58 -41 -89.5t-93 -31.5q-43 0 -62 11l8 79q17 -7 46 -7q51 0 57 62l34 320q8 78 -15.5 115t-84.5 37q-63 0 -100.5 -41t-45.5 -113l-26 -244h-87l48 461h87l-8 -85q24 45 68 71t103 26z" />
    <glyph glyph-name="Omacron" unicode="&#x14c;" horiz-adv-x="797" 
d="M294 768l7 69h372l-7 -69h-372zM397 -16q-164 0 -251 106t-71 260q16 153 125.5 259.5t273.5 106.5t251.5 -106t71.5 -260t-126 -260t-274 -106zM406 66q122 0 202.5 82t92.5 202q13 120 -50 202t-185 82t-202.5 -82t-93.5 -202t50.5 -202t185.5 -82z" />
    <glyph glyph-name="omacron" unicode="&#x14d;" horiz-adv-x="556" 
d="M177 555l8 70h318l-8 -70h-318zM277 -12q-110 0 -168 69.5t-47 173.5t83.5 173t182.5 69q109 0 167 -69t47 -173t-83.5 -173.5t-181.5 -69.5zM285 66q71 0 117 46.5t53 118.5q8 71 -28 117.5t-107 46.5t-117.5 -46.5t-54.5 -118.5q-7 -71 29.5 -117.5t107.5 -46.5z" />
    <glyph glyph-name="Obreve" unicode="&#x14e;" horiz-adv-x="797" 
d="M476 734q-68 0 -111 38t-42 97h72q1 -36 25.5 -54t62.5 -18t65.5 18t36.5 54h72q-11 -59 -62 -97t-119 -38zM397 -16q-164 0 -251 106t-71 260q16 153 125.5 259.5t273.5 106.5t251.5 -106t71.5 -260t-126 -260t-274 -106zM406 66q122 0 202.5 82t92.5 202
q13 120 -50 202t-185 82t-202.5 -82t-93.5 -202t50.5 -202t185.5 -82z" />
    <glyph glyph-name="obreve" unicode="&#x14f;" horiz-adv-x="556" 
d="M331 508q-75 0 -118 40t-40 111h74q-1 -43 24 -65t67 -22q43 0 73 22t37 65h74q-13 -71 -64 -111t-127 -40zM277 -12q-110 0 -168 69.5t-47 173.5t83.5 173t182.5 69q109 0 167 -69t47 -173t-83.5 -173.5t-181.5 -69.5zM285 66q71 0 117 46.5t53 118.5q8 71 -28 117.5
t-107 46.5t-117.5 -46.5t-54.5 -118.5q-7 -71 29.5 -117.5t107.5 -46.5z" />
    <glyph glyph-name="Ohungarumlaut" unicode="&#x150;" horiz-adv-x="797" 
d="M388 736l-46 21l140 131l75 -30zM566 735l-45 22l140 131l74 -32zM397 -16q-164 0 -251 106t-71 260q16 153 125.5 259.5t273.5 106.5t251.5 -106t71.5 -260t-126 -260t-274 -106zM406 66q122 0 202.5 82t92.5 202q13 120 -50 202t-185 82t-202.5 -82t-93.5 -202
t50.5 -202t185.5 -82z" />
    <glyph glyph-name="ohungarumlaut" unicode="&#x151;" horiz-adv-x="556" 
d="M220 497l-40 23l142 166l72 -38zM410 497l-40 23l142 166l72 -38zM277 -12q-110 0 -168 69.5t-47 173.5t83.5 173t182.5 69q109 0 167 -69t47 -173t-83.5 -173.5t-181.5 -69.5zM285 66q71 0 117 46.5t53 118.5q8 71 -28 117.5t-107 46.5t-117.5 -46.5t-54.5 -118.5
q-7 -71 29.5 -117.5t107.5 -46.5z" />
    <glyph glyph-name="OE" unicode="&#x152;" horiz-adv-x="879" 
d="M877 618h-280l-24 -229h280l-9 -82h-280l-23 -225h280l-9 -82h-438q-152 0 -233.5 101.5t-65.5 248.5t118 248.5t255 101.5h438zM383 82h67l56 536h-67q-111 0 -184 -77.5t-85 -190.5t45 -190.5t168 -77.5z" />
    <glyph glyph-name="oe" unicode="&#x153;" horiz-adv-x="915" 
d="M905 257q-2 -18 -8 -52h-357q-6 -66 29 -103.5t101 -37.5q91 0 129 68h87q-19 -64 -81 -104t-143 -40q-129 0 -181 93q-77 -93 -204 -93q-110 0 -168 69.5t-47 173.5t83.5 173t182.5 69q129 0 184 -93q73 93 197 93q98 0 152 -60t44 -156zM547 272h274q6 61 -26 96
t-95 35q-62 0 -103 -36t-50 -95zM285 66q71 0 117 46.5t53 118.5q8 71 -28 117.5t-107 46.5t-117.5 -46.5t-54.5 -118.5q-7 -71 29.5 -117.5t107.5 -46.5z" />
    <glyph glyph-name="Racute" unicode="&#x154;" horiz-adv-x="606" 
d="M517 835l-228 -104l-26 60l229 103zM614 458q-8 -82 -55.5 -143t-120.5 -85l118 -230h-104l-112 217h-146l-23 -217h-91l74 700h251q103 0 161.5 -68t47.5 -174zM236 618l-34 -319h155q65 0 112 45t54 114q7 70 -30 115t-102 45h-155z" />
    <glyph glyph-name="racute" unicode="&#x155;" horiz-adv-x="361" 
d="M95 505l-22 68l286 114l22 -65zM75 0l48 461h87l-11 -105q20 55 60.5 83.5t86.5 28.5q27 0 42 -4l-9 -80q-14 3 -42 3q-65 0 -105 -52t-49 -133l-21 -202h-87z" />
    <glyph glyph-name="Rcommaaccent" unicode="&#x156;" horiz-adv-x="606" 
d="M614 458q-8 -82 -55.5 -143t-120.5 -85l118 -230h-104l-112 217h-146l-23 -217h-91l74 700h251q103 0 161.5 -68t47.5 -174zM236 618l-34 -319h155q65 0 112 45t54 114q7 70 -30 115t-102 45h-155zM294 -30q29 0 44 -19.5t11 -51.5q-10 -105 -115 -105l4 30q41 0 56 26
q10 10 12 30q-5 -9 -21 -9q-23 0 -36 14t-11 35t18 35.5t38 14.5z" />
    <glyph glyph-name="rcommaaccent" unicode="&#x157;" horiz-adv-x="361" 
d="M75 0l48 461h87l-11 -105q20 55 60.5 83.5t86.5 28.5q27 0 42 -4l-9 -80q-14 3 -42 3q-65 0 -105 -52t-49 -133l-21 -202h-87zM57 -206l4 30q41 0 56 26q10 10 12 30q-5 -9 -21 -9q-23 0 -36 14t-11 35t18 35.5t38 14.5q29 0 44 -19.5t11 -51.5q-10 -105 -115 -105z" />
    <glyph glyph-name="Rcaron" unicode="&#x158;" horiz-adv-x="606" 
d="M526 852l-149 -116l-122 116l50 41l80 -81l99 81zM614 458q-8 -82 -55.5 -143t-120.5 -85l118 -230h-104l-112 217h-146l-23 -217h-91l74 700h251q103 0 161.5 -68t47.5 -174zM236 618l-34 -319h155q65 0 112 45t54 114q7 70 -30 115t-102 45h-155z" />
    <glyph glyph-name="rcaron" unicode="&#x159;" horiz-adv-x="361" 
d="M226 501l-160 146l52 51l117 -111l139 112l42 -52zM75 0l48 461h87l-11 -105q20 55 60.5 83.5t86.5 28.5q27 0 42 -4l-9 -80q-14 3 -42 3q-65 0 -105 -52t-49 -133l-21 -202h-87z" />
    <glyph glyph-name="Sacute" unicode="&#x15a;" horiz-adv-x="557" 
d="M266 731l-26 60l229 103l25 -59zM286 -16q-119 0 -179 63t-49 176h91q-7 -73 32 -116t113 -43q66 0 105 30t45 86q5 46 -18 74t-81 49l-112 41q-135 45 -122 184q9 84 75.5 136t164.5 52q103 0 159 -58t46 -156h-91q7 65 -25.5 100.5t-99.5 35.5q-58 0 -94.5 -28.5
t-41.5 -76.5q-4 -44 21.5 -73t88.5 -51l104 -38q133 -48 118 -189q-9 -89 -77.5 -143.5t-172.5 -54.5z" />
    <glyph glyph-name="sacute" unicode="&#x15b;" horiz-adv-x="450" 
d="M144 506l-22 68l286 114l22 -65zM229 -12q-87 0 -135 43.5t-41 106.5h86q-4 -35 23.5 -57.5t77.5 -22.5q39 0 64 18t28 49q6 49 -39 60l-119 32q-96 27 -86 124q6 57 58 94.5t129 37.5q84 0 126.5 -38.5t35.5 -100.5h-86q4 33 -19 52.5t-68 19.5q-36 0 -61.5 -16.5
t-28.5 -44.5q-5 -46 45 -59l112 -32q47 -13 71 -46t19 -75q-7 -66 -58 -105.5t-134 -39.5z" />
    <glyph glyph-name="Scircumflex" unicode="&#x15c;" horiz-adv-x="557" 
d="M369 892l123 -116l-51 -41l-80 81l-99 -81l-41 41zM286 -16q-119 0 -179 63t-49 176h91q-7 -73 32 -116t113 -43q66 0 105 30t45 86q5 46 -18 74t-81 49l-112 41q-135 45 -122 184q9 84 75.5 136t164.5 52q103 0 159 -58t46 -156h-91q7 65 -25.5 100.5t-99.5 35.5
q-58 0 -94.5 -28.5t-41.5 -76.5q-4 -44 21.5 -73t88.5 -51l104 -38q133 -48 118 -189q-9 -89 -77.5 -143.5t-172.5 -54.5z" />
    <glyph glyph-name="scircumflex" unicode="&#x15d;" horiz-adv-x="450" 
d="M295 698l160 -146l-52 -52l-117 112l-139 -111l-42 51zM229 -12q-87 0 -135 43.5t-41 106.5h86q-4 -35 23.5 -57.5t77.5 -22.5q39 0 64 18t28 49q6 49 -39 60l-119 32q-96 27 -86 124q6 57 58 94.5t129 37.5q84 0 126.5 -38.5t35.5 -100.5h-86q4 33 -19 52.5t-68 19.5
q-36 0 -61.5 -16.5t-28.5 -44.5q-5 -46 45 -59l112 -32q47 -13 71 -46t19 -75q-7 -66 -58 -105.5t-134 -39.5z" />
    <glyph glyph-name="Scedilla" unicode="&#x15e;" horiz-adv-x="557" 
d="M536 182q-9 -86 -72.5 -140t-161.5 -58l-5 -47q15 15 48 15q32 0 52 -21.5t16 -58.5q-5 -38 -31.5 -63t-69.5 -25q-37 0 -58 19t-20 53h46q-1 -14 9.5 -23t26.5 -9q42 0 47 47q5 46 -36 46q-25 0 -40 -20h-41l9 88q-104 8 -155.5 70.5t-41.5 167.5h91q-7 -73 32 -116
t113 -43q66 0 105 30t45 86q5 46 -18 74t-81 49l-112 41q-135 45 -122 184q9 84 75.5 136t164.5 52q103 0 159 -58t46 -156h-91q7 65 -25.5 100.5t-99.5 35.5q-58 0 -94.5 -28.5t-41.5 -76.5q-4 -44 21.5 -73t88.5 -51l104 -38q133 -48 118 -189z" />
    <glyph glyph-name="scedilla" unicode="&#x15f;" horiz-adv-x="450" 
d="M421 133q-7 -63 -54 -102t-123 -43l-6 -51q15 15 48 15q32 0 52 -21.5t16 -58.5q-5 -38 -31.5 -63t-69.5 -25q-37 0 -58 19t-20 53h46q-1 -14 9.5 -23t26.5 -9q42 0 47 47q5 46 -36 46q-25 0 -40 -20h-41l10 93q-72 8 -111 50t-33 98h86q-4 -35 23.5 -57.5t77.5 -22.5
q39 0 64 18t28 49q6 49 -39 60l-119 32q-96 27 -86 124q6 57 58 94.5t129 37.5q84 0 126.5 -38.5t35.5 -100.5h-86q4 33 -19 52.5t-68 19.5q-36 0 -61.5 -16.5t-28.5 -44.5q-5 -46 45 -59l112 -32q47 -13 71 -46t19 -75z" />
    <glyph glyph-name="Scaron" unicode="&#x160;" horiz-adv-x="557" 
d="M354 736l-122 116l50 41l80 -81l99 81l42 -41zM286 -16q-119 0 -179 63t-49 176h91q-7 -73 32 -116t113 -43q66 0 105 30t45 86q5 46 -18 74t-81 49l-112 41q-135 45 -122 184q9 84 75.5 136t164.5 52q103 0 159 -58t46 -156h-91q7 65 -25.5 100.5t-99.5 35.5
q-58 0 -94.5 -28.5t-41.5 -76.5q-4 -44 21.5 -73t88.5 -51l104 -38q133 -48 118 -189q-9 -89 -77.5 -143.5t-172.5 -54.5z" />
    <glyph glyph-name="scaron" unicode="&#x161;" horiz-adv-x="450" 
d="M275 502l-160 146l52 51l117 -111l140 112l41 -52zM229 -12q-87 0 -135 43.5t-41 106.5h86q-4 -35 23.5 -57.5t77.5 -22.5q39 0 64 18t28 49q6 49 -39 60l-119 32q-96 27 -86 124q6 57 58 94.5t129 37.5q84 0 126.5 -38.5t35.5 -100.5h-86q4 33 -19 52.5t-68 19.5
q-36 0 -61.5 -16.5t-28.5 -44.5q-5 -46 45 -59l112 -32q47 -13 71 -46t19 -75q-7 -66 -58 -105.5t-134 -39.5z" />
    <glyph glyph-name="uni0162" unicode="&#x162;" horiz-adv-x="521" 
d="M306 0h-22l-7 -63q15 15 48 15q32 0 52 -21.5t16 -58.5q-5 -38 -31.5 -63t-69.5 -25q-37 0 -58 19t-20 53h46q-1 -14 9.5 -23t26.5 -9q42 0 47 47q5 46 -36 46q-25 0 -40 -20h-41l11 103h-22l65 614h-209l9 86h509l-9 -86h-209z" />
    <glyph glyph-name="uni0163" unicode="&#x163;" horiz-adv-x="356" 
d="M297 -48q32 0 52 -21.5t16 -58.5q-5 -38 -31.5 -63t-69.5 -25q-37 0 -58 19t-20 53h46q-1 -14 9.5 -23t26.5 -9q42 0 47 47q5 46 -36 46q-25 0 -40 -20h-41l11 100q-100 17 -86 156l25 235h-83l7 73h83l16 146h87l-16 -146h116l-7 -73h-116l-23 -216q-6 -61 10 -80
t54 -19q36 0 58 5l-8 -77q-28 -7 -71 -7l-6 -57q15 15 48 15z" />
    <glyph glyph-name="Tcaron" unicode="&#x164;" horiz-adv-x="521" 
d="M337 736l-122 116l50 41l80 -81l99 81l42 -41zM215 0l65 614h-209l9 86h509l-9 -86h-209l-65 -614h-91z" />
    <glyph glyph-name="tcaron" unicode="&#x165;" horiz-adv-x="378" 
d="M375 714q33 0 51 -25.5t14 -69.5q-5 -51 -34 -80t-75 -29q-13 0 -18 2l4 37q6 -1 17 -1q34 0 49 26q8 15 10 42q-13 -16 -39 -16q-22 0 -34.5 16t-10.5 40q2 25 20.5 41.5t45.5 16.5zM212 172q-6 -61 10 -80t54 -19q36 0 58 5l-8 -77q-30 -7 -78 -7q-21 0 -36.5 2
t-35.5 11t-32 25.5t-19 47t-2 73.5l25 235h-83l7 73h83l16 146h87l-16 -146h116l-7 -73h-116z" />
    <glyph glyph-name="Tbar" unicode="&#x166;" horiz-adv-x="521" 
d="M580 614h-209l-17 -158h145l-7 -66h-145l-41 -390h-91l41 390h-144l7 66h144l17 158h-209l9 86h509z" />
    <glyph glyph-name="tbar" unicode="&#x167;" horiz-adv-x="360" 
d="M280 73q36 0 58 5l-8 -77q-30 -7 -78 -7q-21 0 -36.5 2t-35.5 11t-32 25.5t-19 47t-2 73.5l7 64h-87l6 59h87l12 112h-83l7 73h83l16 146h87l-16 -146h116l-7 -73h-116l-12 -112h115l-6 -59h-115l-5 -45q-6 -61 10 -80t54 -19z" />
    <glyph glyph-name="Utilde" unicode="&#x168;" horiz-adv-x="635" 
d="M476 739q-38 -3 -86 29.5t-69 32.5q-41 0 -79 -46l-33 35q54 77 113 77q34 0 82.5 -31t72.5 -31q46 0 85 48l33 -39q-50 -73 -119 -75zM316 -16q-118 0 -180 64t-49 182l50 470h91l-49 -465q-9 -82 30.5 -125.5t115.5 -43.5t124 43.5t57 125.5l49 465h92l-50 -470
q-13 -118 -88 -182t-193 -64z" />
    <glyph glyph-name="utilde" unicode="&#x169;" horiz-adv-x="562" 
d="M413 531q-29 0 -72 28.5t-65 28.5q-37 0 -76 -42l-28 47q48 67 107 67q27 0 70.5 -28.5t65.5 -28.5q37 0 74 41l29 -46q-47 -67 -105 -67zM244 -12q-80 0 -122.5 48.5t-32.5 140.5l29 284h87l-27 -263q-15 -135 98 -135q66 0 102.5 42.5t43.5 103.5l26 252h87l-48 -461
h-87l9 84q-24 -44 -67 -70t-98 -26z" />
    <glyph glyph-name="Umacron" unicode="&#x16a;" horiz-adv-x="635" 
d="M213 768l7 69h372l-7 -69h-372zM316 -16q-118 0 -180 64t-49 182l50 470h91l-49 -465q-9 -82 30.5 -125.5t115.5 -43.5t124 43.5t57 125.5l49 465h92l-50 -470q-13 -118 -88 -182t-193 -64z" />
    <glyph glyph-name="umacron" unicode="&#x16b;" horiz-adv-x="562" 
d="M181 555l8 70h318l-8 -70h-318zM244 -12q-80 0 -122.5 48.5t-32.5 140.5l29 284h87l-27 -263q-15 -135 98 -135q66 0 102.5 42.5t43.5 103.5l26 252h87l-48 -461h-87l9 84q-24 -44 -67 -70t-98 -26z" />
    <glyph glyph-name="Ubreve" unicode="&#x16c;" horiz-adv-x="635" 
d="M395 734q-68 0 -111 38t-42 97h72q1 -36 25.5 -54t62.5 -18t65.5 18t36.5 54h72q-11 -59 -62 -97t-119 -38zM316 -16q-118 0 -180 64t-49 182l50 470h91l-49 -465q-9 -82 30.5 -125.5t115.5 -43.5t124 43.5t57 125.5l49 465h92l-50 -470q-13 -118 -88 -182t-193 -64z" />
    <glyph glyph-name="ubreve" unicode="&#x16d;" horiz-adv-x="562" 
d="M335 508q-75 0 -118 40t-40 111h74q-1 -43 24 -65t67 -22q43 0 73 22t37 65h74q-13 -71 -64 -111t-127 -40zM244 -12q-80 0 -122.5 48.5t-32.5 140.5l29 284h87l-27 -263q-15 -135 98 -135q66 0 102.5 42.5t43.5 103.5l26 252h87l-48 -461h-87l9 84q-24 -44 -67 -70
t-98 -26z" />
    <glyph glyph-name="Uring" unicode="&#x16e;" horiz-adv-x="635" 
d="M387 656q-52 0 -85 36t-28 86t45.5 85.5t92.5 35.5t85.5 -35.5t28.5 -85.5t-46 -86t-93 -36zM393 709q29 0 51 20t25 49t-15 48.5t-47 19.5t-51 -19.5t-25 -48.5t15 -49t47 -20zM316 -16q-118 0 -180 64t-49 182l50 470h91l-49 -465q-9 -82 30.5 -125.5t115.5 -43.5
t124 43.5t57 125.5l49 465h92l-50 -470q-13 -118 -88 -182t-193 -64z" />
    <glyph glyph-name="uring" unicode="&#x16f;" horiz-adv-x="562" 
d="M335 500q-47 0 -76 31t-24 78q5 48 40 78.5t82 30.5t76 -31t24 -78q-5 -48 -40 -78.5t-82 -30.5zM339 545q26 0 45.5 18t22.5 46t-12.5 46t-41.5 18t-45.5 -18t-22.5 -46t12.5 -46t41.5 -18zM244 -12q-80 0 -122.5 48.5t-32.5 140.5l29 284h87l-27 -263q-15 -135 98 -135
q66 0 102.5 42.5t43.5 103.5l26 252h87l-48 -461h-87l9 84q-24 -44 -67 -70t-98 -26z" />
    <glyph glyph-name="Uhungarumlaut" unicode="&#x170;" horiz-adv-x="635" 
d="M307 736l-46 21l140 131l75 -30zM485 735l-45 22l140 131l74 -32zM316 -16q-118 0 -180 64t-49 182l50 470h91l-49 -465q-9 -82 30.5 -125.5t115.5 -43.5t124 43.5t57 125.5l49 465h92l-50 -470q-13 -118 -88 -182t-193 -64z" />
    <glyph glyph-name="uhungarumlaut" unicode="&#x171;" horiz-adv-x="562" 
d="M224 497l-40 23l142 166l72 -38zM414 497l-40 23l142 166l72 -38zM244 -12q-80 0 -122.5 48.5t-32.5 140.5l29 284h87l-27 -263q-15 -135 98 -135q66 0 102.5 42.5t43.5 103.5l26 252h87l-48 -461h-87l9 84q-24 -44 -67 -70t-98 -26z" />
    <glyph glyph-name="Uogonek" unicode="&#x172;" horiz-adv-x="635" 
d="M555 700h92l-50 -470q-10 -98 -64.5 -159.5t-142.5 -79.5q-65 -25 -71 -79q-3 -26 12 -42t42 -16q28 0 58 13l-8 -64q-41 -15 -80 -15q-53 0 -82.5 28t-24.5 70q6 56 69 98q-113 3 -171.5 67t-46.5 179l50 470h91l-49 -465q-9 -82 30.5 -125.5t115.5 -43.5t124 43.5
t57 125.5z" />
    <glyph glyph-name="uogonek" unicode="&#x173;" horiz-adv-x="562" 
d="M440 -146q28 0 58 13l-8 -64q-41 -15 -80 -15q-53 0 -82.5 28t-24.5 70q8 68 97 114l9 84q-24 -44 -67 -70t-98 -26q-80 0 -122.5 48.5t-32.5 140.5l29 284h87l-27 -263q-15 -135 98 -135q66 0 102.5 42.5t43.5 103.5l26 252h87l-48 -461q-49 -11 -74 -35t-27 -53
q-3 -26 12 -42t42 -16z" />
    <glyph glyph-name="Wcircumflex" unicode="&#x174;" horiz-adv-x="958" 
d="M571 892l123 -116l-51 -41l-80 81l-99 -81l-41 41zM242 0l-165 700h96l121 -550l225 550h69l108 -550l238 550h96l-314 -700h-67l-113 542l-226 -542h-68z" />
    <glyph glyph-name="wcircumflex" unicode="&#x175;" horiz-adv-x="745" 
d="M446 698l160 -146l-52 -52l-117 112l-139 -111l-42 51zM178 0l-122 461h95l76 -336l147 336h93l77 -336l146 336h96l-219 -461h-74l-84 354l-157 -354h-74z" />
    <glyph glyph-name="Ycircumflex" unicode="&#x176;" horiz-adv-x="552" 
d="M371 816l-99 -81l-41 41l148 116l123 -116l-51 -41zM541 700h100l-426 -700h-101l170 278l-220 422h106l170 -328z" />
    <glyph glyph-name="ycircumflex" unicode="&#x177;" horiz-adv-x="567" 
d="M350 698l160 -146l-52 -52l-117 112l-139 -111l-42 51zM453 461h87l-49 -470q-12 -109 -80 -166q-63 -50 -157 -50q-100 0 -151 48q-45 42 -39 119h88q-2 -45 23 -69.5t86 -24.5q128 0 144 149l9 86q-56 -95 -170 -95q-87 0 -125.5 53.5t-28.5 144.5l28 275h87l-27 -257
q-7 -67 16 -102.5t87 -35.5q63 0 102 45.5t46 112.5z" />
    <glyph glyph-name="Ydieresis" unicode="&#x178;" horiz-adv-x="552" 
d="M248 747q-28 0 -45 19.5t-14 47.5t24 47.5t49 19.5q29 0 46.5 -19.5t14.5 -47.5t-25 -47.5t-50 -19.5zM485 747q-28 0 -45.5 19.5t-14.5 47.5t24.5 47.5t49.5 19.5t45.5 -19.5t14.5 -47.5t-24.5 -47.5t-49.5 -19.5zM541 700h100l-426 -700h-101l170 278l-220 422h106
l170 -328z" />
    <glyph glyph-name="Zacute" unicode="&#x179;" horiz-adv-x="573" 
d="M288 731l-26 60l229 103l25 -59zM23 0l431 618h-329l9 82h481l-428 -618h359l-9 -82h-514z" />
    <glyph glyph-name="zacute" unicode="&#x17a;" horiz-adv-x="440" 
d="M139 506l-22 68l286 114l22 -65zM13 0l311 387h-251l7 74h397l-311 -388h258l-8 -73h-403z" />
    <glyph glyph-name="Zdotaccent" unicode="&#x17b;" horiz-adv-x="573" 
d="M378 744q-30 0 -46.5 19.5t-13.5 48.5q3 28 24 47.5t50 19.5q30 0 46.5 -19.5t13.5 -47.5q-3 -29 -23.5 -48.5t-50.5 -19.5zM23 0l431 618h-329l9 82h481l-428 -618h359l-9 -82h-514z" />
    <glyph glyph-name="zdotaccent" unicode="&#x17c;" horiz-adv-x="440" 
d="M274 540q-31 0 -49 20t-15 50t25.5 50.5t53.5 20.5q30 0 47.5 -20.5t14.5 -50.5t-25 -50t-52 -20zM13 0l311 387h-251l7 74h397l-311 -388h258l-8 -73h-403z" />
    <glyph glyph-name="Zcaron" unicode="&#x17d;" horiz-adv-x="573" 
d="M376 736l-122 116l50 41l80 -81l99 81l42 -41zM23 0l431 618h-329l9 82h481l-428 -618h359l-9 -82h-514z" />
    <glyph glyph-name="zcaron" unicode="&#x17e;" horiz-adv-x="440" 
d="M270 502l-160 146l52 51l117 -111l140 112l41 -52zM13 0l311 387h-251l7 74h397l-311 -388h258l-8 -73h-403z" />
    <glyph glyph-name="florin" unicode="&#x192;" horiz-adv-x="430" 
d="M441 614q-41 0 -66 -21t-41 -76l-17 -63h129l-21 -73h-129l-124 -434q-48 -166 -186 -166q-43 0 -74 12l20 74q20 -8 49 -8q41 0 65.5 19t38.5 68l124 435h-99l21 73h99l18 64q49 173 196 173q44 0 66 -11l-20 -74q-24 8 -49 8z" />
    <glyph glyph-name="AEacute" unicode="&#x1fc;" horiz-adv-x="841" 
d="M805 835l-228 -104l-26 60l229 103zM838 618h-276l-24 -229h276l-9 -82h-276l-23 -225h276l-9 -82h-367l12 111h-241l-65 -111h-99l422 700h412zM223 190h203l45 426z" />
    <glyph glyph-name="aeacute" unicode="&#x1fd;" horiz-adv-x="871" 
d="M652 623l-286 -117l-22 68l286 114zM860 255q-3 -29 -8 -52h-358q-4 -66 31.5 -103t101.5 -37q90 0 127 74h88q-19 -67 -81 -109t-142 -42q-63 0 -110 26.5t-71 74.5q-72 -99 -213 -99q-82 0 -129 37t-40 97q8 75 66 113q32 20 73.5 27t121.5 7h104l4 40q5 42 -22 68
t-90 26q-118 0 -134 -93h-87q12 74 75 118.5t155 44.5q126 0 168 -76q71 74 176 74q96 0 150 -60.5t44 -155.5zM502 270h274q7 61 -25 97t-93 36q-62 0 -105 -36.5t-51 -96.5zM412 183l2 20h-136q-126 0 -133 -74q-4 -36 23.5 -54t80.5 -18q61 0 109 32.5t54 93.5z" />
    <glyph glyph-name="Oslashacute" unicode="&#x1fe;" horiz-adv-x="797" 
d="M618 835l-228 -104l-26 60l229 103zM647 675q82 -46 121.5 -133t28.5 -192q-16 -154 -126 -260t-274 -106q-61 0 -110 15l-45 -83l-59 27l44 81q-84 46 -123.5 133t-28.5 193q16 153 125.5 259.5t273.5 106.5q60 0 114 -16l42 80l58 -27zM170 350q-8 -79 17.5 -144.5
t81.5 -101.5l277 519q-38 11 -80 11q-122 0 -202.5 -82t-93.5 -202zM406 66q122 0 202.5 82t92.5 202q9 78 -16.5 143t-79.5 102l-277 -518q36 -11 78 -11z" />
    <glyph glyph-name="oslashacute" unicode="&#x1ff;" horiz-adv-x="556" 
d="M485 616l-287 -117l-21 68l286 114zM451 441q51 -31 75 -86.5t16 -123.5q-11 -104 -83.5 -173.5t-181.5 -69.5q-33 0 -65 8l-38 -71l-49 22l37 68q-55 30 -81.5 87t-18.5 129q11 104 83.5 173t182.5 69q37 0 75 -10l36 66l47 -22zM148 230q-10 -98 54 -140l162 299
q-21 6 -44 6q-71 0 -117.5 -46.5t-54.5 -118.5zM285 66q71 0 117 46.5t53 118.5q10 89 -45 134l-159 -296q17 -3 34 -3z" />
    <glyph glyph-name="Scommaaccent" unicode="&#x218;" horiz-adv-x="557" 
d="M286 -16q-119 0 -179 63t-49 176h91q-7 -73 32 -116t113 -43q66 0 105 30t45 86q5 46 -18 74t-81 49l-112 41q-135 45 -122 184q9 84 75.5 136t164.5 52q103 0 159 -58t46 -156h-91q7 65 -25.5 100.5t-99.5 35.5q-58 0 -94.5 -28.5t-41.5 -76.5q-4 -44 21.5 -73t88.5 -51
l104 -38q133 -48 118 -189q-9 -89 -77.5 -143.5t-172.5 -54.5zM214 -206l4 30q41 0 56 26q10 10 12 30q-5 -9 -21 -9q-23 0 -36 14t-11 35t18 35.5t38 14.5q29 0 44 -19.5t11 -51.5q-10 -105 -115 -105z" />
    <glyph glyph-name="scommaaccent" unicode="&#x219;" horiz-adv-x="450" 
d="M229 -12q-87 0 -135 43.5t-41 106.5h86q-4 -35 23.5 -57.5t77.5 -22.5q39 0 64 18t28 49q6 49 -39 60l-119 32q-96 27 -86 124q6 57 58 94.5t129 37.5q84 0 126.5 -38.5t35.5 -100.5h-86q4 33 -19 52.5t-68 19.5q-36 0 -61.5 -16.5t-28.5 -44.5q-5 -46 45 -59l112 -32
q47 -13 71 -46t19 -75q-7 -66 -58 -105.5t-134 -39.5zM155 -206l4 30q41 0 56 26q10 10 12 30q-5 -9 -21 -9q-23 0 -36 14t-11 35t18 35.5t38 14.5q29 0 44 -19.5t11 -51.5q-10 -105 -115 -105z" />
    <glyph glyph-name="uni021A" unicode="&#x21a;" horiz-adv-x="521" 
d="M215 0l65 614h-209l9 86h509l-9 -86h-209l-65 -614h-91zM194 -206l4 30q41 0 56 26q10 10 12 30q-5 -9 -21 -9q-23 0 -36 14t-11 35t18 35.5t38 14.5q29 0 44 -19.5t11 -51.5q-10 -105 -115 -105z" />
    <glyph glyph-name="uni021B" unicode="&#x21b;" horiz-adv-x="356" 
d="M276 73q36 0 58 5l-8 -77q-30 -7 -78 -7q-21 0 -36.5 2t-35.5 11t-32 25.5t-19 47t-2 73.5l25 235h-83l7 73h83l16 146h87l-16 -146h116l-7 -73h-116l-23 -216q-6 -61 10 -80t54 -19zM226 -30q29 0 44 -19.5t11 -51.5q-10 -105 -115 -105l4 30q41 0 56 26q10 10 12 30
q-5 -9 -21 -9q-23 0 -36 14t-11 35t18 35.5t38 14.5z" />
    <glyph glyph-name="uni0237" unicode="&#x237;" horiz-adv-x="240" 
d="M21 -219q-44 0 -63 11l8 79q19 -7 47 -7q51 0 57 62l56 535h87l-58 -559q-6 -58 -41 -89.5t-93 -31.5z" />
    <glyph glyph-name="uni0243" unicode="&#x243;" horiz-adv-x="582" 
d="M557 186q-8 -76 -59 -124t-134 -59l-10 -102h-66l10 99h-60l-10 -99h-66l10 99h-92l72 681h92l10 99h66l-10 -99h60l10 99h66l-11 -103q76 -12 114.5 -57t31.5 -116q-7 -67 -46.5 -107t-102.5 -50q60 -6 96 -49t29 -112zM370 601h-136l-23 -216h142q57 0 94 29t42 79
q5 51 -26.5 79.5t-92.5 28.5zM328 81q59 0 96 30t42 84q5 49 -25 80t-83 31h-155l-23 -225h148z" />
    <glyph glyph-name="uni02BC" unicode="&#x2bc;" horiz-adv-x="276" 
d="M212 740q33 0 56 -28t17 -80q-6 -59 -42 -96t-93 -37q-18 0 -30 3l4 40q11 -2 31 -2q40 0 58 33q17 22 19 50q-14 -15 -39 -15q-27 0 -43.5 18t-13.5 47t24 48t52 19z" />
    <glyph glyph-name="circumflex" unicode="&#x2c6;" horiz-adv-x="600" 
d="M282 698l160 -146l-52 -52l-117 112l-139 -111l-42 51z" />
    <glyph glyph-name="caron" unicode="&#x2c7;" horiz-adv-x="600" 
d="M262 502l-160 146l52 51l117 -111l140 112l41 -52z" />
    <glyph glyph-name="breve" unicode="&#x2d8;" horiz-adv-x="600" 
d="M287 508q-75 0 -118 40t-40 111h74q-1 -43 24 -65t67 -22q43 0 73 22t37 65h74q-13 -71 -64 -111t-127 -40z" />
    <glyph glyph-name="dotaccent" unicode="&#x2d9;" horiz-adv-x="600" 
d="M357 540q-31 0 -49 20t-15 50t25.5 50.5t53.5 20.5q30 0 47.5 -20.5t14.5 -50.5t-25 -50t-52 -20z" />
    <glyph glyph-name="ring" unicode="&#x2da;" horiz-adv-x="600" 
d="M209 481q-47 0 -76 31t-24 78q5 48 40 78.5t82 30.5t76 -31t24 -78q-5 -48 -40 -78.5t-82 -30.5zM213 526q26 0 45.5 18t22.5 46t-12.5 46t-41.5 18t-45.5 -18t-22.5 -46t12.5 -46t41.5 -18z" />
    <glyph glyph-name="ogonek" unicode="&#x2db;" horiz-adv-x="600" 
d="M130 -212q-53 0 -82.5 28t-24.5 70q8 68 97 114h87q-49 -11 -74 -35t-27 -53q-3 -26 12 -42t42 -16q28 0 58 13l-8 -64q-41 -15 -80 -15z" />
    <glyph glyph-name="tilde" unicode="&#x2dc;" horiz-adv-x="600" 
d="M347 531q-29 0 -72 28.5t-65 28.5q-37 0 -76 -42l-28 47q48 67 107 67q27 0 70.5 -28.5t65.5 -28.5q37 0 74 41l29 -46q-47 -67 -105 -67z" />
    <glyph glyph-name="hungarumlaut" unicode="&#x2dd;" horiz-adv-x="600" 
d="M142 497l-40 23l142 166l72 -38zM332 497l-40 23l142 166l72 -38z" />
    <glyph glyph-name="gravecomb" unicode="&#x300;" horiz-adv-x="0" 
d="M-32 506l-262 117l36 65l262 -114z" />
    <glyph glyph-name="acutecomb" unicode="&#x301;" horiz-adv-x="0" 
d="M-231 506l-22 68l286 114l22 -65z" />
    <glyph glyph-name="uni0302" unicode="&#x302;" horiz-adv-x="0" 
d="M-136 698l160 -146l-52 -52l-117 112l-139 -111l-42 51z" />
    <glyph glyph-name="tildecomb" unicode="&#x303;" horiz-adv-x="0" 
d="M-82 531q-29 0 -72 28.5t-65 28.5q-37 0 -76 -42l-28 47q48 67 107 67q27 0 70.5 -28.5t65.5 -28.5q37 0 74 41l29 -46q-47 -67 -105 -67z" />
    <glyph glyph-name="uni0304" unicode="&#x304;" horiz-adv-x="0" 
d="M-328 555l8 70h318l-8 -70h-318z" />
    <glyph glyph-name="uni0306" unicode="&#x306;" horiz-adv-x="0" 
d="M-182 508q-75 0 -118 40t-40 111h74q-1 -43 24 -65t67 -22q43 0 73 22t37 65h74q-13 -71 -64 -111t-127 -40z" />
    <glyph glyph-name="uni0307" unicode="&#x307;" horiz-adv-x="0" 
d="M-54 540q-31 0 -49 20t-15 50t25.5 50.5t53.5 20.5q30 0 47.5 -20.5t14.5 -50.5t-25 -50t-52 -20z" />
    <glyph glyph-name="uni0308" unicode="&#x308;" horiz-adv-x="0" 
d="M-271 539q-28 0 -45.5 19.5t-14.5 47.5t24.5 47.5t49.5 19.5q29 0 46 -19.5t14 -47.5t-24.5 -47.5t-49.5 -19.5zM-71 539q-28 0 -45.5 19.5t-14.5 47.5t24.5 47.5t49.5 19.5q29 0 46 -19.5t14 -47.5t-24.5 -47.5t-49.5 -19.5z" />
    <glyph glyph-name="uni030A" unicode="&#x30a;" horiz-adv-x="0" 
d="M-106 481q-47 0 -76 31t-24 78q5 48 40 78.5t82 30.5t76 -31t24 -78q-5 -48 -40 -78.5t-82 -30.5zM-102 526q26 0 45.5 18t22.5 46t-12.5 46t-41.5 18t-45.5 -18t-22.5 -46t12.5 -46t41.5 -18z" />
    <glyph glyph-name="uni030B" unicode="&#x30b;" horiz-adv-x="0" 
d="M-328 497l-40 23l142 166l72 -38zM-138 497l-40 23l142 166l72 -38z" />
    <glyph glyph-name="uni030C" unicode="&#x30c;" horiz-adv-x="0" 
d="M-156 502l-160 146l52 51l117 -111l140 112l41 -52z" />
    <glyph glyph-name="uni0312" unicode="&#x312;" horiz-adv-x="0" 
d="M-332 693l-3 -31q-40 0 -57 -24q-15 -15 -15 -32q4 10 24 10q21 0 33 -15t10 -36q-2 -22 -19 -36.5t-39 -14.5q-27 0 -42.5 22.5t-11.5 57.5q5 45 37 72t83 27z" />
    <glyph glyph-name="uni0326" unicode="&#x326;" horiz-adv-x="0" 
d="M-169 -206l4 30q41 0 56 26q10 10 12 30q-5 -9 -21 -9q-23 0 -36 14t-11 35t18 35.5t38 14.5q29 0 44 -19.5t11 -51.5q-10 -105 -115 -105z" />
    <glyph glyph-name="uni0327" unicode="&#x327;" horiz-adv-x="0" 
d="M-157 -216q-37 0 -58 19t-20 53h46q-1 -14 9.5 -23t26.5 -9q42 0 47 47q5 46 -36 46q-25 0 -40 -20h-41l11 103h47l-7 -63q15 15 48 15q32 0 52 -21.5t16 -58.5q-5 -38 -31.5 -63t-69.5 -25z" />
    <glyph glyph-name="uni0328" unicode="&#x328;" horiz-adv-x="0" 
d="M-146 -212q-53 0 -82.5 28t-24.5 70q8 68 97 114h87q-49 -11 -74 -35t-27 -53q-3 -26 12 -42t42 -16q28 0 58 13l-8 -64q-41 -15 -80 -15z" />
    <glyph glyph-name="uni0394" unicode="&#x394;" horiz-adv-x="584" 
d="M18 0l315 700h66l168 -700h-549zM153 82h296l-99 469z" />
    <glyph glyph-name="uni03A9" unicode="&#x3a9;" horiz-adv-x="702" 
d="M58 0l9 82h183l3 28q-90 32 -137 110.5t-36 178.5q14 132 109 222.5t237 90.5t218 -91t62 -222q-11 -100 -74 -179t-159 -110l-3 -28h183l-9 -82h-255l17 160q90 17 145 85t64 158q10 96 -42 161.5t-156 65.5t-170 -65.5t-76 -161.5q-9 -90 31.5 -158t127.5 -85l-17 -160
h-255z" />
    <glyph glyph-name="uni03BC" unicode="&#x3bc;" horiz-adv-x="567" 
d="M453 461h87l-48 -461h-87l9 84q-24 -44 -67 -70t-98 -26q-52 0 -86 19l-23 -220h-87l70 674h87l-27 -263q-15 -135 98 -135q66 0 102.5 42.5t43.5 103.5z" />
    <glyph glyph-name="pi" unicode="&#x3c0;" horiz-adv-x="629" 
d="M138 0l40 377h-63l8 77h479l-8 -77h-63l-40 -377h-86l40 377h-181l-40 -377h-86z" />
    <glyph glyph-name="uni0401" unicode="&#x401;" horiz-adv-x="545" 
d="M245 747q-28 0 -45 19.5t-14 47.5t24 47.5t49 19.5q29 0 46.5 -19.5t14.5 -47.5t-25 -47.5t-50 -19.5zM482 747q-28 0 -45.5 19.5t-14.5 47.5t24.5 47.5t49.5 19.5t45.5 -19.5t14.5 -47.5t-24.5 -47.5t-49.5 -19.5zM80 0l74 700h398l-9 -82h-307l-24 -229h307l-9 -82
h-307l-23 -225h307l-9 -82h-398z" />
    <glyph glyph-name="uni0402" unicode="&#x402;" horiz-adv-x="711" 
d="M500 482q95 0 152.5 -64t45.5 -176q-13 -127 -82 -190t-184 -63q-30 0 -51 5l9 80q22 -4 39 -4q78 0 124 43.5t54 123.5q9 83 -28 122.5t-105 39.5q-77 0 -130 -35l-38 -364h-91l65 614h-209l9 86h509l-9 -86h-209l-18 -168q63 36 147 36z" />
    <glyph glyph-name="uni0403" unicode="&#x403;" horiz-adv-x="479" 
d="M274 731l-26 60l229 103l25 -59zM154 700h393l-9 -86h-302l-65 -614h-91z" />
    <glyph glyph-name="uni0404" unicode="&#x404;" horiz-adv-x="739" 
d="M395 66q84 0 146.5 42t85.5 111h99q-31 -106 -123 -170.5t-217 -64.5q-156 0 -242 101t-69 265t124.5 265t263.5 101q122 0 201.5 -63t89.5 -170h-99q-9 68 -62.5 109.5t-137.5 41.5q-104 0 -179.5 -65.5t-99.5 -176.5h346l-9 -83h-346q1 -112 62 -177.5t166 -65.5z" />
    <glyph glyph-name="uni0405" unicode="&#x405;" horiz-adv-x="557" 
d="M286 -16q-119 0 -179 63t-49 176h91q-7 -73 32 -116t113 -43q66 0 105 30t45 86q5 46 -18 74t-81 49l-112 41q-135 45 -122 184q9 84 75.5 136t164.5 52q103 0 159 -58t46 -156h-91q7 65 -25.5 100.5t-99.5 35.5q-58 0 -94.5 -28.5t-41.5 -76.5q-4 -44 21.5 -73t88.5 -51
l104 -38q133 -48 118 -189q-9 -89 -77.5 -143.5t-172.5 -54.5z" />
    <glyph glyph-name="uni0406" unicode="&#x406;" horiz-adv-x="251" 
d="M80 0l74 700h91l-74 -700h-91z" />
    <glyph glyph-name="uni0407" unicode="&#x407;" horiz-adv-x="251" 
d="M134 751q-27 0 -42.5 17.5t-13.5 44.5q3 27 22.5 44.5t46.5 17.5t42.5 -17.5t12.5 -44.5q-2 -27 -21.5 -44.5t-46.5 -17.5zM276 751q-26 0 -42 17.5t-14 44.5q3 27 23 44.5t46 17.5q27 0 43 -17.5t13 -44.5q-2 -27 -22 -44.5t-47 -17.5zM80 0l74 700h91l-74 -700h-91z
" />
    <glyph glyph-name="uni0408" unicode="&#x408;" horiz-adv-x="536" 
d="M247 -16q-104 0 -158 64.5t-43 173.5h91q-7 -72 25 -114t94 -42q63 0 103 42.5t48 115.5l50 476h91l-50 -476q-12 -110 -79 -175t-172 -65z" />
    <glyph glyph-name="uni0409" unicode="&#x409;" horiz-adv-x="994" 
d="M805 400q86 0 135 -58t41 -142q-8 -83 -70.5 -141.5t-148.5 -58.5h-259l65 619h-262l-37 -357q-29 -268 -209 -268h-40l9 86h26q51 0 81.5 41.5t41.5 142.5l46 436h444l-32 -300h169zM771 82q46 0 80 34.5t39 83.5t-21.5 83.5t-72.5 34.5h-169l-24 -236h168z" />
    <glyph glyph-name="uni040A" unicode="&#x40a;" horiz-adv-x="988" 
d="M799 400q86 0 135 -58t41 -142q-8 -83 -70.5 -141.5t-148.5 -58.5h-259l32 307h-326l-32 -307h-91l74 700h91l-33 -311h326l33 311h91l-32 -300h169zM765 82q46 0 80 34.5t39 83.5t-21.5 83.5t-72.5 34.5h-169l-24 -236h168z" />
    <glyph glyph-name="uni040B" unicode="&#x40b;" horiz-adv-x="739" 
d="M508 478q100 0 149 -61t39 -157l-27 -260h-91l25 237q17 159 -127 159q-83 0 -132 -37l-38 -359h-91l65 614h-209l9 86h509l-9 -86h-209l-19 -173q62 37 156 37z" />
    <glyph glyph-name="uni040C" unicode="&#x40c;" horiz-adv-x="597" 
d="M519 835l-228 -104l-26 60l229 103zM303 358l281 -358h-116l-261 344l-36 -344h-91l74 700h91l-32 -300h30q46 0 82 52l115 156q37 52 67 74t70 22h54l-9 -83h-35q-22 0 -39.5 -12.5t-43.5 -48.5l-114 -156q-32 -46 -75 -46h-12z" />
    <glyph glyph-name="uni040E" unicode="&#x40e;" horiz-adv-x="552" 
d="M365 734q-68 0 -111 38t-42 97h72q1 -36 25.5 -54t62.5 -18t65.5 18t36.5 54h72q-11 -59 -62 -97t-119 -38zM541 700h100l-426 -700h-101l170 278l-220 422h106l170 -328z" />
    <glyph glyph-name="uni040F" unicode="&#x40f;" horiz-adv-x="646" 
d="M640 700l-74 -700h-198l-13 -120h-91l13 120h-197l74 700h91l-65 -618h304l65 618h91z" />
    <glyph glyph-name="uni0410" unicode="&#x410;" horiz-adv-x="590" 
d="M474 0l-22 107h-291l-44 -107h-99l311 700h81l163 -700h-99zM196 190h239l-80 384z" />
    <glyph glyph-name="uni0411" unicode="&#x411;" horiz-adv-x="571" 
d="M80 0l74 700h398l-9 -82h-307l-23 -218h169q86 0 135 -58t41 -142q-8 -83 -70.5 -141.5t-148.5 -58.5h-259zM180 82h168q46 0 80 34.5t39 83.5t-21.5 83.5t-72.5 34.5h-169z" />
    <glyph glyph-name="uni0412" unicode="&#x412;" horiz-adv-x="582" 
d="M434 358q59 -7 94.5 -51.5t28.5 -115.5q-9 -88 -72.5 -139.5t-164.5 -51.5h-240l74 700h230q101 0 154 -48t45 -133q-7 -69 -46.5 -109t-102.5 -52zM372 619h-136l-23 -224h142q56 0 93 30t42 82q6 54 -25.5 83t-92.5 29zM328 81q59 0 96 31.5t43 87.5q5 51 -25 83
t-83 32h-155l-24 -234h148z" />
    <glyph glyph-name="uni0413" unicode="&#x413;" horiz-adv-x="479" 
d="M154 700h393l-9 -86h-302l-65 -614h-91z" />
    <glyph glyph-name="uni0414" unicode="&#x414;" horiz-adv-x="642" 
d="M564 82h45l-22 -202h-87l13 120h-401l-13 -120h-91l22 202h33q38 0 61 40.5t34 141.5l46 436h425zM191 82h281l56 536h-240l-37 -352q-13 -115 -60 -184z" />
    <glyph glyph-name="uni0415" unicode="&#x415;" horiz-adv-x="545" 
d="M80 0l74 700h398l-9 -82h-307l-24 -229h307l-9 -82h-307l-23 -225h307l-9 -82h-398z" />
    <glyph glyph-name="uni0416" unicode="&#x416;" horiz-adv-x="943" 
d="M649 358l281 -358h-116l-261 344l-36 -344h-91l36 344l-333 -344h-116l357 358h-12q-43 0 -67 46l-80 156q-19 36 -34 48.5t-37 12.5h-35l9 83h54q40 0 65.5 -22t51.5 -74l83 -156q23 -52 70 -52h30l32 300h91l-32 -300h30q46 0 82 52l115 156q37 52 67 74t70 22h54
l-9 -83h-35q-22 0 -39.5 -12.5t-43.5 -48.5l-114 -156q-32 -46 -75 -46h-12z" />
    <glyph glyph-name="uni0417" unicode="&#x417;" horiz-adv-x="564" 
d="M156 214q-7 -68 30.5 -108t105.5 -40q65 0 107 37t48 93q5 59 -26 91t-103 32h-54l8 81h54q66 0 102 33t41 83q5 51 -27 84.5t-91 33.5q-64 0 -108.5 -35.5t-50.5 -96.5h-92q10 95 81 154.5t175 59.5q98 0 156 -51t49 -142q-7 -61 -44.5 -104t-92.5 -55q57 -10 89.5 -55
t25.5 -113q-11 -95 -80.5 -153.5t-173.5 -58.5q-109 0 -170 61.5t-50 168.5h91z" />
    <glyph glyph-name="uni0418" unicode="&#x418;" horiz-adv-x="667" 
d="M551 519l-375 -472l-5 -47h-91l74 700h91l-55 -519l375 472l5 47h91l-74 -700h-91z" />
    <glyph glyph-name="uni0419" unicode="&#x419;" horiz-adv-x="667" 
d="M410 714q-73 0 -118 31t-44 84h72q4 -56 96 -56t109 56h72q-10 -53 -62 -84t-125 -31zM551 519l-375 -472l-5 -47h-91l74 700h91l-55 -519l375 472l5 47h91l-74 -700h-91z" />
    <glyph glyph-name="uni041A" unicode="&#x41a;" horiz-adv-x="597" 
d="M303 358l281 -358h-116l-261 344l-36 -344h-91l74 700h91l-32 -300h30q46 0 82 52l115 156q37 52 67 74t70 22h54l-9 -83h-35q-22 0 -39.5 -12.5t-43.5 -48.5l-114 -156q-32 -46 -75 -46h-12z" />
    <glyph glyph-name="uni041B" unicode="&#x41b;" horiz-adv-x="674" 
d="M29 80h26q51 0 81.5 41.5t41.5 142.5l46 436h444l-74 -700h-91l65 619h-262l-37 -357q-29 -268 -209 -268h-40z" />
    <glyph glyph-name="uni041C" unicode="&#x41c;" horiz-adv-x="816" 
d="M80 0l74 700h88l180 -571l300 571h88l-74 -700h-88l54 511l-259 -511h-70l-151 514l-54 -514h-88z" />
    <glyph glyph-name="uni041D" unicode="&#x41d;" horiz-adv-x="668" 
d="M80 0l74 700h91l-33 -311h326l33 311h91l-74 -700h-91l32 307h-326l-32 -307h-91z" />
    <glyph glyph-name="uni041E" unicode="&#x41e;" horiz-adv-x="797" 
d="M397 -16q-164 0 -251 106t-71 260q16 153 125.5 259.5t273.5 106.5t251.5 -106t71.5 -260t-126 -260t-274 -106zM406 66q122 0 202.5 82t92.5 202q13 120 -50 202t-185 82t-202.5 -82t-93.5 -202t50.5 -202t185.5 -82z" />
    <glyph glyph-name="uni041F" unicode="&#x41f;" horiz-adv-x="665" 
d="M236 618l-65 -618h-91l74 700h505l-74 -700h-91l65 618h-323z" />
    <glyph glyph-name="uni0420" unicode="&#x420;" horiz-adv-x="580" 
d="M405 700q103 0 161.5 -68t47.5 -174q-11 -105 -84 -173t-176 -68h-160l-23 -217h-91l74 700h251zM357 299q65 0 112 45t54 114q7 70 -30 115t-102 45h-155l-34 -319h155z" />
    <glyph glyph-name="uni0421" unicode="&#x421;" horiz-adv-x="771" 
d="M398 -16q-167 0 -253.5 103t-69.5 263q17 161 125 263.5t275 102.5q138 0 219 -68t90 -178h-100q-12 76 -67 120t-149 44q-124 0 -204.5 -79t-93.5 -205q-14 -126 49.5 -205t188.5 -79q94 0 158.5 44t92.5 120h100q-32 -110 -127.5 -178t-233.5 -68z" />
    <glyph glyph-name="uni0422" unicode="&#x422;" horiz-adv-x="521" 
d="M215 0l65 614h-209l9 86h509l-9 -86h-209l-65 -614h-91z" />
    <glyph glyph-name="uni0423" unicode="&#x423;" horiz-adv-x="552" 
d="M541 700h100l-426 -700h-101l170 278l-220 422h106l170 -328z" />
    <glyph glyph-name="uni0424" unicode="&#x424;" horiz-adv-x="705" 
d="M511 605q109 0 169 -74t49 -181q-12 -107 -87.5 -181t-184.5 -74h-49l-10 -95h-91l10 95h-49q-108 0 -168.5 74t-48.5 181q11 107 86.5 181t184.5 74h49l10 95h91l-10 -95h49zM142 350q-8 -73 29.5 -123t105.5 -50h49l36 346h-49q-68 0 -115.5 -50t-55.5 -123zM466 177
q68 0 115.5 50t55.5 123t-29.5 123t-105.5 50h-49l-36 -346h49z" />
    <glyph glyph-name="uni0425" unicode="&#x425;" horiz-adv-x="604" 
d="M20 0l267 350l-193 350h103l150 -275l208 275h103l-267 -350l193 -350h-103l-150 274l-208 -274h-103z" />
    <glyph glyph-name="uni0426" unicode="&#x426;" horiz-adv-x="653" 
d="M575 82h45l-22 -202h-87l13 120h-444l74 700h91l-65 -618h304l65 618h91z" />
    <glyph glyph-name="uni0427" unicode="&#x427;" horiz-adv-x="579" 
d="M408 0l27 259q-63 -37 -156 -37q-100 0 -149 61t-39 157l28 260h91l-25 -237q-17 -159 127 -159q82 0 132 37l38 359h91l-74 -700h-91z" />
    <glyph glyph-name="uni0428" unicode="&#x428;" horiz-adv-x="913" 
d="M80 0l74 700h91l-65 -618h240l65 618h91l-65 -618h240l65 618h91l-74 -700h-753z" />
    <glyph glyph-name="uni0429" unicode="&#x429;" horiz-adv-x="920" 
d="M842 82h46l-22 -202h-87l13 120h-712l74 700h91l-65 -618h240l65 618h91l-65 -618h240l65 618h91z" />
    <glyph glyph-name="uni042A" unicode="&#x42a;" horiz-adv-x="695" 
d="M506 400q86 0 135 -58t41 -142q-8 -83 -70.5 -141.5t-148.5 -58.5h-259l65 618h-198l9 82h289l-32 -300h169zM472 82q46 0 80 34.5t39 83.5t-21.5 83.5t-72.5 34.5h-169l-24 -236h168z" />
    <glyph glyph-name="uni042B" unicode="&#x42b;" horiz-adv-x="775" 
d="M80 0l74 700h91l-32 -300h169q86 0 135 -58t41 -142q-8 -83 -70.5 -141.5t-148.5 -58.5h-259zM604 0l74 700h91l-74 -700h-91zM180 82h168q46 0 80 34.5t39 83.5t-21.5 83.5t-72.5 34.5h-169z" />
    <glyph glyph-name="uni042C" unicode="&#x42c;" horiz-adv-x="571" 
d="M80 0l74 700h91l-32 -300h169q86 0 135 -58t41 -142q-8 -83 -70.5 -141.5t-148.5 -58.5h-259zM180 82h168q46 0 80 34.5t39 83.5t-21.5 83.5t-72.5 34.5h-169z" />
    <glyph glyph-name="uni042D" unicode="&#x42d;" horiz-adv-x="739" 
d="M426 716q156 0 242.5 -101t69.5 -265t-125 -265t-264 -101q-125 0 -203.5 64.5t-86.5 170.5h99q8 -69 61.5 -111t138.5 -42q105 0 180 65.5t98 177.5h-346l9 83h346q0 111 -61.5 176.5t-165.5 65.5q-84 0 -146.5 -41.5t-85.5 -109.5h-99q33 107 125 170t214 63z" />
    <glyph glyph-name="uni042E" unicode="&#x42e;" horiz-adv-x="1033" 
d="M710 716q164 0 251.5 -106t71.5 -260t-126 -260t-274 -106q-152 0 -238.5 92t-86.5 231h-105l-32 -307h-91l74 700h91l-33 -311h105q27 140 133.5 233.5t259.5 93.5zM642 66q122 0 202.5 82t92.5 202q13 120 -50 202t-185 82t-202.5 -82t-93.5 -202t50.5 -202t185.5 -82z
" />
    <glyph glyph-name="uni042F" unicode="&#x42f;" horiz-adv-x="606" 
d="M349 700h251l-74 -700h-91l23 217h-146l-158 -217h-104l166 230q-67 24 -101.5 85t-26.5 143q11 106 84.5 174t176.5 68zM311 299h155l34 319h-155q-65 0 -112 -45t-54 -115q-7 -69 30 -114t102 -45z" />
    <glyph glyph-name="uni0430" unicode="&#x430;" horiz-adv-x="591" 
d="M265 -12q-107 0 -160.5 68t-42.5 174q11 105 81 174t175 69q54 0 94.5 -25t57.5 -68l8 81h86l-48 -461h-86l9 81q-26 -42 -74 -67.5t-100 -25.5zM285 66q73 0 119.5 47.5t53.5 116.5q8 70 -28.5 117.5t-109.5 47.5q-70 0 -117 -46.5t-55 -118.5t29.5 -118t107.5 -46z" />
    <glyph glyph-name="uni0431" unicode="&#x431;" horiz-adv-x="572" 
d="M299 -13q-122 0 -177 87t-40 229q21 200 113.5 298.5t273.5 98.5h94l-9 -84h-118q-119 0 -182 -65t-84 -198q25 56 78.5 88t112.5 32q103 0 156 -70t42 -172q-11 -101 -84 -172.5t-176 -71.5zM302 65q70 0 116.5 47.5t53.5 117.5q8 69 -29 116.5t-107 47.5
q-72 0 -117.5 -46t-53.5 -118t28.5 -118.5t108.5 -46.5z" />
    <glyph glyph-name="uni0432" unicode="&#x432;" horiz-adv-x="490" 
d="M123 461h217q78 0 107.5 -36t24.5 -84q-4 -40 -37 -69t-77 -34q46 -2 75 -33t24 -79t-46.5 -87t-123.5 -39h-212zM314 266q27 0 47 19.5t23 46.5q3 28 -13 47.5t-44 19.5h-125l-14 -133h126zM181 204l-14 -142h129q28 0 50 20.5t25 49.5t-15 50.5t-46 21.5h-129z" />
    <glyph glyph-name="uni0433" unicode="&#x433;" horiz-adv-x="375" 
d="M401 461l-8 -81h-191l-40 -380h-87l48 461h278z" />
    <glyph glyph-name="uni0434" unicode="&#x434;" horiz-adv-x="560" 
d="M480 82h46l-22 -202h-87l13 120h-319l-13 -120h-91l22 202h46q45 24 55 118l27 261h362zM170 73h222l33 315h-188l-20 -184q-7 -78 -47 -131z" />
    <glyph glyph-name="uni0435" unicode="&#x435;" horiz-adv-x="521" 
d="M511 257q-2 -18 -8 -52h-357q-6 -66 29 -103.5t101 -37.5q91 0 129 68h87q-19 -64 -81 -104t-143 -40q-106 0 -161.5 65.5t-44.5 177.5q12 110 81 176t172 66q98 0 152 -60t44 -156zM153 272h274q6 61 -26 96t-95 35q-62 0 -103 -36t-50 -95z" />
    <glyph glyph-name="uni0436" unicode="&#x436;" horiz-adv-x="769" 
d="M733 0h-109l-173 217l-23 -217h-87l23 217l-219 -217h-109l243 239h-6q-23 0 -38 10.5t-32 41.5l-36 61q-12 20 -23 27.5t-29 7.5h-20l8 79h37q34 0 53 -13t39 -47l64 -105q22 -40 55 -40h17l21 200h87l-21 -200h17q33 0 65 40l86 105q26 34 48 47t56 13h37l-8 -79h-20
q-18 0 -30.5 -7.5t-29.5 -27.5l-48 -61q-24 -31 -41.5 -41.5t-40.5 -10.5h-6z" />
    <glyph glyph-name="uni0437" unicode="&#x437;" horiz-adv-x="478" 
d="M147 137q-3 -35 24 -56t80 -21q102 0 110 73q3 29 -18 48t-62 19h-69l7 65h65q36 0 60.5 18.5t27.5 50.5q3 30 -20.5 49.5t-66.5 19.5q-50 0 -77.5 -20.5t-31.5 -54.5h-87q8 65 63.5 105t139.5 40q81 0 126.5 -35.5t39.5 -91.5q-4 -45 -34 -73.5t-77 -35.5
q48 -5 75.5 -35t22.5 -79q-7 -62 -65.5 -98.5t-141.5 -36.5q-89 0 -137 41t-41 108h87z" />
    <glyph glyph-name="uni0438" unicode="&#x438;" horiz-adv-x="561" 
d="M433 322l-267 -285l-4 -37h-87l48 461h87l-34 -326l267 287l4 39h87l-48 -461h-87z" />
    <glyph glyph-name="uni0439" unicode="&#x439;" horiz-adv-x="561" 
d="M330 491q-75 0 -118.5 38.5t-40.5 104.5h74q-1 -38 24 -58t67 -20q43 0 73 20t37 58h74q-13 -67 -64 -105t-126 -38zM433 322l-267 -285l-4 -37h-87l48 461h87l-34 -326l267 287l4 39h87l-48 -461h-87z" />
    <glyph glyph-name="uni043A" unicode="&#x43a;" horiz-adv-x="503" 
d="M467 0h-109l-173 217l-23 -217h-87l48 461h87l-21 -200h17q33 0 65 40l86 105q26 34 48 47t56 13h37l-8 -79h-20q-18 0 -30.5 -7.5t-29.5 -27.5l-48 -61q-24 -31 -41.5 -41.5t-40.5 -10.5h-6z" />
    <glyph glyph-name="uni043B" unicode="&#x43b;" horiz-adv-x="550" 
d="M38 79h18q75 0 87 115l28 267h352l-48 -461h-86l40 380h-180l-19 -182q-10 -98 -53 -150t-111 -52h-36z" />
    <glyph glyph-name="uni043C" unicode="&#x43c;" horiz-adv-x="708" 
d="M75 0l48 461h131l112 -343l184 343h131l-49 -461h-83l40 376l-206 -376h-58l-127 376l-40 -376h-83z" />
    <glyph glyph-name="uni043D" unicode="&#x43d;" horiz-adv-x="564" 
d="M75 0l48 461h87l-20 -192h241l20 192h86l-48 -461h-86l21 196h-241l-21 -196h-87z" />
    <glyph glyph-name="uni043E" unicode="&#x43e;" horiz-adv-x="556" 
d="M277 -12q-110 0 -168 69.5t-47 173.5t83.5 173t182.5 69q109 0 167 -69t47 -173t-83.5 -173.5t-181.5 -69.5zM285 66q71 0 117 46.5t53 118.5q8 71 -28 117.5t-107 46.5t-117.5 -46.5t-54.5 -118.5q-7 -71 29.5 -117.5t107.5 -46.5z" />
    <glyph glyph-name="uni043F" unicode="&#x43f;" horiz-adv-x="561" 
d="M486 0h-87l41 388h-237l-41 -388h-87l48 461h411z" />
    <glyph glyph-name="uni0440" unicode="&#x440;" horiz-adv-x="591" 
d="M381 473q99 0 153.5 -67.5t43.5 -175.5q-11 -106 -82 -174t-171 -68q-53 0 -95 25t-59 68l-31 -294h-87l70 674h87l-8 -81q26 43 74.5 68t104.5 25zM321 66q67 0 115 46t55 118q8 72 -30 118.5t-105 46.5q-69 0 -118 -46t-56 -119q-8 -72 31 -118t108 -46z" />
    <glyph glyph-name="uni0441" unicode="&#x441;" horiz-adv-x="520" 
d="M266 -12q-105 0 -160 67t-44 175t80.5 175t174.5 67q92 0 144 -46.5t53 -124.5h-87q-9 93 -119 93q-67 0 -109.5 -43.5t-50.5 -120.5q-8 -76 25.5 -120t100.5 -44q109 0 137 90h87q-16 -77 -77.5 -122.5t-154.5 -45.5z" />
    <glyph glyph-name="uni0442" unicode="&#x442;" horiz-adv-x="432" 
d="M449 461l-8 -81h-142l-40 -380h-87l40 380h-141l8 81h370z" />
    <glyph glyph-name="uni0443" unicode="&#x443;" horiz-adv-x="567" 
d="M453 461h87l-49 -470q-12 -109 -80 -166q-63 -50 -157 -50q-100 0 -151 48q-45 42 -39 119h88q-2 -45 23 -69.5t86 -24.5q128 0 144 149l9 86q-56 -95 -170 -95q-87 0 -125.5 53.5t-28.5 144.5l28 275h87l-27 -257q-7 -67 16 -102.5t87 -35.5q63 0 102 45.5t46 112.5z
" />
    <glyph glyph-name="uni0444" unicode="&#x444;" horiz-adv-x="613" 
d="M599 231q-10 -96 -81 -167.5t-169 -74.5l-21 -202h-87l21 202q-98 3 -154 74t-46 168q10 96 81.5 167t169.5 74l24 228h87l-24 -228q97 -3 153 -74.5t46 -166.5zM148 231q-7 -69 27 -118.5t100 -50.5l35 337q-67 -1 -111 -50t-51 -118zM352 62q66 1 109.5 50.5
t50.5 118.5t-26 118t-99 50z" />
    <glyph glyph-name="uni0445" unicode="&#x445;" horiz-adv-x="478" 
d="M15 0l197 232l-147 229h107l98 -165l131 165h107l-195 -229l150 -232h-108l-98 169l-135 -169h-107z" />
    <glyph glyph-name="uni0446" unicode="&#x446;" horiz-adv-x="573" 
d="M493 82h46l-22 -202h-87l13 120h-368l48 461h87l-40 -388h235l40 388h87z" />
    <glyph glyph-name="uni0447" unicode="&#x447;" horiz-adv-x="503" 
d="M341 0l18 171q-56 -30 -127 -30q-174 0 -158 158l17 162h86l-16 -152q-4 -49 19.5 -72t77.5 -23q69 0 109 32l22 215h87l-48 -461h-87z" />
    <glyph glyph-name="uni0448" unicode="&#x448;" horiz-adv-x="785" 
d="M444 73h188l40 388h86l-48 -461h-635l48 461h87l-40 -388h187l40 388h87z" />
    <glyph glyph-name="uni0449" unicode="&#x449;" horiz-adv-x="800" 
d="M719 82h46l-22 -202h-87l13 120h-594l48 461h87l-40 -388h187l40 388h87l-40 -388h188l40 388h86z" />
    <glyph glyph-name="uni044A" unicode="&#x44a;" horiz-adv-x="523" 
d="M365 300q72 0 111.5 -43t33.5 -107q-7 -62 -58 -106t-120 -44h-206l40 383h-105l8 78h192l-16 -161h120zM329 70q38 0 62.5 22.5t28.5 57.5t-15.5 58t-56.5 23h-111l-17 -161h109z" />
    <glyph glyph-name="uni044B" unicode="&#x44b;" horiz-adv-x="669" 
d="M123 461h87l-16 -161h120q72 0 111.5 -43t33.5 -107q-7 -62 -58 -106t-120 -44h-206zM507 0l48 461h87l-48 -461h-87zM186 231l-17 -161h109q38 0 62.5 22.5t28.5 57.5t-15.5 58t-56.5 23h-111z" />
    <glyph glyph-name="uni044C" unicode="&#x44c;" horiz-adv-x="472" 
d="M123 461h87l-16 -161h120q72 0 111.5 -43t33.5 -107q-7 -62 -58 -106t-120 -44h-206zM186 231l-17 -161h109q38 0 62.5 22.5t28.5 57.5t-15.5 58t-56.5 23h-111z" />
    <glyph glyph-name="uni044D" unicode="&#x44d;" horiz-adv-x="530" 
d="M157 293h-87q11 76 75 128t162 52q77 0 128 -35t69.5 -88.5t11.5 -118.5q-11 -102 -78.5 -172.5t-181.5 -70.5q-97 0 -151 48t-50 122h87q2 -42 33.5 -67t92.5 -25q67 0 107 36t49 96h-193l7 65h193q3 59 -29 95.5t-99 36.5q-62 0 -98.5 -28.5t-47.5 -73.5z" />
    <glyph glyph-name="uni044E" unicode="&#x44e;" horiz-adv-x="744" 
d="M516 473q109 0 167 -69t47 -173t-83.5 -173.5t-181.5 -69.5q-99 0 -156.5 57t-60.5 148h-66l-20 -193h-87l48 461h87l-20 -195h66q20 91 90 149t170 58zM473 66q71 0 117 46.5t53 118.5q8 71 -28 117.5t-107 46.5t-117.5 -46.5t-54.5 -118.5q-7 -71 29.5 -117.5
t107.5 -46.5z" />
    <glyph glyph-name="uni044F" unicode="&#x44f;" horiz-adv-x="524" 
d="M55 0l124 158q-49 13 -75.5 55t-21.5 92q7 65 56.5 110.5t120.5 45.5h238l-48 -461h-85l16 149h-113l-111 -149h-101zM252 222h135l18 168h-135q-41 0 -68.5 -25t-31.5 -60t18.5 -59t63.5 -24z" />
    <glyph glyph-name="uni0451" unicode="&#x451;" horiz-adv-x="521" 
d="M223 539q-28 0 -45.5 19.5t-14.5 47.5t24.5 47.5t49.5 19.5q29 0 46 -19.5t14 -47.5t-24.5 -47.5t-49.5 -19.5zM423 539q-28 0 -45.5 19.5t-14.5 47.5t24.5 47.5t49.5 19.5q29 0 46 -19.5t14 -47.5t-24.5 -47.5t-49.5 -19.5zM511 257q-2 -18 -8 -52h-357
q-6 -66 29 -103.5t101 -37.5q91 0 129 68h87q-19 -64 -81 -104t-143 -40q-106 0 -161.5 65.5t-44.5 177.5q12 110 81 176t172 66q98 0 152 -60t44 -156zM153 272h274q6 61 -26 96t-95 35q-62 0 -103 -36t-50 -95z" />
    <glyph glyph-name="uni0452" unicode="&#x452;" horiz-adv-x="566" 
d="M374 473q172 0 152 -189l-40 -382q-6 -58 -41 -89.5t-93 -31.5q-43 0 -62 11l8 79q18 -7 46 -7q51 0 57 62l34 320q8 78 -15.5 115t-84.5 37q-63 0 -100.5 -41t-45.5 -113l-26 -244h-87l58 548h-48l7 70h48l9 82h87l-9 -82h193l-7 -70h-193l-18 -172q24 45 68 71t103 26z
" />
    <glyph glyph-name="uni0453" unicode="&#x453;" horiz-adv-x="375" 
d="M171 506l-22 68l286 114l22 -65zM401 461l-8 -81h-191l-40 -380h-87l48 461h278z" />
    <glyph glyph-name="uni0454" unicode="&#x454;" horiz-adv-x="530" 
d="M435 293q-2 45 -32 73.5t-92 28.5q-67 0 -106.5 -36t-49.5 -96h193l-7 -65h-193q-3 -60 29.5 -96t98.5 -36q120 0 146 92h87q-12 -74 -76 -122t-161 -48q-114 0 -167.5 70.5t-42.5 172.5t78.5 172t182.5 70q98 0 151 -52t48 -128h-87z" />
    <glyph glyph-name="uni0455" unicode="&#x455;" horiz-adv-x="450" 
d="M229 -12q-87 0 -135 43.5t-41 106.5h86q-4 -35 23.5 -57.5t77.5 -22.5q39 0 64 18t28 49q6 49 -39 60l-119 32q-96 27 -86 124q6 57 58 94.5t129 37.5q84 0 126.5 -38.5t35.5 -100.5h-86q4 33 -19 52.5t-68 19.5q-36 0 -61.5 -16.5t-28.5 -44.5q-5 -46 45 -59l112 -32
q47 -13 71 -46t19 -75q-7 -66 -58 -105.5t-134 -39.5z" />
    <glyph glyph-name="uni0456" unicode="&#x456;" horiz-adv-x="237" 
d="M176 540q-31 0 -49 20t-15 50t25.5 50.5t53.5 20.5q30 0 47.5 -20.5t14.5 -50.5t-25 -50t-52 -20zM75 0l48 461h87l-48 -461h-87z" />
    <glyph glyph-name="uni0457" unicode="&#x457;" horiz-adv-x="237" 
d="M109 547q-24 0 -38.5 17t-12.5 40q3 24 21 40.5t42 16.5t39.5 -16.5t12.5 -40.5q-2 -23 -21 -40t-43 -17zM242 547q-23 0 -38 17t-13 40q3 24 21.5 40.5t41.5 16.5q25 0 40 -16.5t12 -40.5q-2 -23 -20.5 -40t-43.5 -17zM75 0l48 461h87l-48 -461h-87z" />
    <glyph glyph-name="uni0458" unicode="&#x458;" horiz-adv-x="240" 
d="M179 540q-31 0 -49 20t-15 50t25.5 50.5t53.5 20.5q30 0 47.5 -20.5t14.5 -50.5t-25 -50t-52 -20zM21 -219q-44 0 -63 11l8 79q19 -7 47 -7q51 0 57 62l56 535h87l-58 -559q-6 -58 -41 -89.5t-93 -31.5z" />
    <glyph glyph-name="uni0459" unicode="&#x459;" horiz-adv-x="786" 
d="M629 300q72 0 111.5 -43t33.5 -107q-7 -62 -58 -106t-120 -44h-207l40 380h-180l-19 -182q-10 -98 -53 -150t-111 -52h-36l8 83h18q75 0 87 115l28 267h354l-16 -161h120zM593 70q38 0 62.5 22.5t28.5 57.5t-15.5 58t-56.5 23h-111l-17 -161h109z" />
    <glyph glyph-name="uni045A" unicode="&#x45a;" horiz-adv-x="799" 
d="M642 300q72 0 111.5 -43t33.5 -107q-7 -62 -58 -106t-120 -44h-206l21 196h-241l-21 -196h-87l48 461h87l-20 -192h241l20 192h87l-16 -161h120zM606 70q38 0 62.5 22.5t28.5 57.5t-15.5 58t-56.5 23h-111l-17 -161h109z" />
    <glyph glyph-name="uni045B" unicode="&#x45b;" horiz-adv-x="566" 
d="M374 473q172 0 152 -189l-30 -284h-87l26 246q8 78 -15.5 115t-84.5 37q-63 0 -100.5 -41t-45.5 -113l-26 -244h-87l58 548h-48l7 70h48l9 82h87l-9 -82h193l-7 -70h-193l-18 -172q24 45 68 71t103 26z" />
    <glyph glyph-name="uni045C" unicode="&#x45c;" horiz-adv-x="503" 
d="M477 623l-286 -117l-22 68l286 114zM467 0h-109l-173 217l-23 -217h-87l48 461h87l-21 -200h17q33 0 65 40l86 105q26 34 48 47t56 13h37l-8 -79h-20q-18 0 -30.5 -7.5t-29.5 -27.5l-48 -61q-24 -31 -41.5 -41.5t-40.5 -10.5h-6z" />
    <glyph glyph-name="uni045E" unicode="&#x45e;" horiz-adv-x="567" 
d="M330 501q-75 0 -118.5 38.5t-40.5 104.5h74q-1 -38 24 -58t67 -20q43 0 73 20t37 58h74q-13 -67 -64 -105t-126 -38zM453 461h87l-49 -470q-12 -109 -80 -166q-63 -50 -157 -50q-100 0 -151 48q-45 42 -39 119h88q-2 -45 23 -69.5t86 -24.5q128 0 144 149l9 86
q-56 -95 -170 -95q-87 0 -125.5 53.5t-28.5 144.5l28 275h87l-27 -257q-7 -67 16 -102.5t87 -35.5q63 0 102 45.5t46 112.5z" />
    <glyph glyph-name="uni045F" unicode="&#x45f;" horiz-adv-x="559" 
d="M532 461l-48 -461h-158l-10 -91h-87l10 91h-164l48 461h87l-40 -388h235l40 388h87z" />
    <glyph glyph-name="uni0462" unicode="&#x462;" horiz-adv-x="706" 
d="M517 400q86 0 135 -58t41 -142q-8 -83 -70.5 -141.5t-148.5 -58.5h-259l65 614h-209l9 86h509l-9 -86h-209l-23 -214h169zM483 82q46 0 80 34.5t39 83.5t-21.5 83.5t-72.5 34.5h-169l-24 -236h168z" />
    <glyph glyph-name="uni0463" unicode="&#x463;" horiz-adv-x="472" 
d="M314 300q72 0 111.5 -43t33.5 -107q-7 -62 -58 -106t-120 -44h-206l45 425h-61l7 70h61l22 205h87l-22 -205h110l-7 -70h-110l-13 -125h120zM278 70q38 0 62.5 22.5t28.5 57.5t-15.5 58t-56.5 23h-111l-17 -161h109z" />
    <glyph glyph-name="uni0472" unicode="&#x472;" horiz-adv-x="797" 
d="M474 716q164 0 251.5 -106t71.5 -260t-126 -260t-274 -106t-251 106t-71 260q16 153 125.5 259.5t273.5 106.5zM466 634q-114 0 -192.5 -72t-99.5 -182h529q3 109 -60 181.5t-177 72.5zM406 66q114 0 192.5 72.5t98.5 182.5h-529q-2 -110 61 -182.5t177 -72.5z" />
    <glyph glyph-name="uni0473" unicode="&#x473;" horiz-adv-x="556" 
d="M328 473q109 0 167 -69t47 -173t-83.5 -173.5t-181.5 -69.5q-110 0 -168 69.5t-47 173.5t83.5 173t182.5 69zM320 395q-63 0 -107.5 -37.5t-59.5 -97.5h303q-2 60 -37.5 97.5t-98.5 37.5zM285 66q63 0 106.5 37.5t58.5 97.5h-303q2 -60 38.5 -97.5t99.5 -37.5z" />
    <glyph glyph-name="uni0474" unicode="&#x474;" horiz-adv-x="598" 
d="M312 0h-66l-171 700h96l124 -558l194 451q27 61 58 86.5t84 25.5h38l-9 -82h-19q-45 0 -73 -60z" />
    <glyph glyph-name="uni0475" unicode="&#x475;" horiz-adv-x="494" 
d="M270 0h-60l-159 461h93l108 -345l129 243q27 57 55.5 82t73.5 25h31l-9 -82h-14q-21 0 -35 -11.5t-32 -46.5z" />
    <glyph glyph-name="uni048A" unicode="&#x48a;" horiz-adv-x="673" 
d="M410 714q-73 0 -118 31t-44 84h72q4 -56 96 -56t109 56h72q-10 -53 -62 -84t-125 -31zM596 82h45l-22 -202h-87l13 120h-49l55 519l-375 -472l-5 -47h-91l74 700h91l-55 -519l375 472l5 47h91z" />
    <glyph glyph-name="uni048B" unicode="&#x48b;" horiz-adv-x="575" 
d="M330 491q-75 0 -118.5 38.5t-40.5 104.5h74q-1 -38 24 -58t67 -20q43 0 73 20t37 58h74q-13 -67 -64 -105t-126 -38zM495 82h45l-22 -202h-87l13 120h-45l34 322l-267 -285l-4 -37h-87l48 461h87l-34 -326l267 287l4 39h87z" />
    <glyph glyph-name="uni048C" unicode="&#x48c;" horiz-adv-x="571" 
d="M382 400q86 0 135 -58t41 -142q-8 -83 -70.5 -141.5t-148.5 -58.5h-259l57 538h-51l7 70h51l10 92h91l-10 -92h186l-7 -70h-186l-15 -138h169zM348 82q46 0 80 34.5t39 83.5t-21.5 83.5t-72.5 34.5h-169l-24 -236h168z" />
    <glyph glyph-name="uni048D" unicode="&#x48d;" horiz-adv-x="472" 
d="M314 300q72 0 111.5 -43t33.5 -107q-7 -62 -58 -106t-120 -44h-206l45 425h-61l7 70h61l22 205h87l-22 -205h110l-7 -70h-110l-13 -125h120zM278 70q38 0 62.5 22.5t28.5 57.5t-15.5 58t-56.5 23h-111l-17 -161h109z" />
    <glyph glyph-name="uni048E" unicode="&#x48e;" horiz-adv-x="580" 
d="M614 458q-14 -134 -122 -202l53 -58l-47 -42l-65 73q-37 -12 -79 -12h-160l-23 -217h-91l74 700h251q103 0 161.5 -68t47.5 -174zM357 299h12l-61 69l46 42l82 -91q78 45 87 139q7 70 -30 115t-102 45h-155l-34 -319h155z" />
    <glyph glyph-name="uni048F" unicode="&#x48f;" horiz-adv-x="591" 
d="M578 230q-11 -105 -80 -171l48 -53l-47 -42l-51 57q-57 -33 -123 -33q-53 0 -95 25t-59 68l-31 -294h-87l70 674h87l-8 -81q26 43 74.5 68t104.5 25q99 0 153.5 -67.5t43.5 -175.5zM321 66q38 0 72 16l-85 94l47 42l89 -98q41 44 47 110q8 72 -30 118.5t-105 46.5
q-69 0 -118 -46t-56 -119q-8 -72 31 -118t108 -46z" />
    <glyph glyph-name="uni0490" unicode="&#x490;" horiz-adv-x="479" 
d="M465 793h91l-18 -179h-302l-65 -614h-91l74 700h302z" />
    <glyph glyph-name="uni0491" unicode="&#x491;" horiz-adv-x="375" 
d="M320 554h91l-18 -174h-191l-40 -380h-87l48 461h187z" />
    <glyph glyph-name="uni0492" unicode="&#x492;" horiz-adv-x="479" 
d="M538 614h-302l-21 -197h169l-8 -70h-169l-36 -347h-91l36 347h-68l8 70h68l30 283h393z" />
    <glyph glyph-name="uni0493" unicode="&#x493;" horiz-adv-x="375" 
d="M393 380h-191l-11 -100h120l-7 -70h-120l-22 -210h-87l22 210h-51l7 70h51l19 181h278z" />
    <glyph glyph-name="uni0494" unicode="&#x494;" horiz-adv-x="604" 
d="M370 433q100 0 148.5 -60.5t38.5 -157.5l-32 -297q-7 -66 -47 -101.5t-108 -35.5q-43 0 -65 11l9 82q19 -7 51 -7q33 0 50.5 18.5t21.5 59.5l26 247q17 159 -127 159q-82 0 -132 -37l-33 -314h-91l74 700h393l-9 -86h-302l-23 -218q62 37 157 37z" />
    <glyph glyph-name="uni0495" unicode="&#x495;" horiz-adv-x="515" 
d="M326 279q84 0 132.5 -57.5t37.5 -161.5q-11 -112 -74.5 -171t-172.5 -59q-24 0 -48 6l8 78q20 -4 38 -4q146 0 162 148q7 70 -23 106.5t-85 36.5q-64 0 -121 -28l-18 -173h-87l48 461h278l-8 -81h-191l-13 -126q68 25 137 25z" />
    <glyph glyph-name="uni0496" unicode="&#x496;" horiz-adv-x="958" 
d="M866 82h87l-22 -202h-87l13 120h-43l-261 344l-36 -344h-91l36 344l-333 -344h-116l357 358h-12q-43 0 -67 46l-80 156q-19 36 -34 48.5t-37 12.5h-35l9 83h54q40 0 65.5 -22t51.5 -74l83 -156q23 -52 70 -52h30l32 300h91l-32 -300h30q46 0 82 52l115 156q37 52 67 74
t70 22h54l-9 -83h-35q-22 0 -39.5 -12.5t-43.5 -48.5l-114 -156q-32 -46 -75 -46h-12z" />
    <glyph glyph-name="uni0497" unicode="&#x497;" horiz-adv-x="776" 
d="M733 0h-20l-13 -120h-87l13 120h-2l-173 217l-23 -217h-87l23 217l-219 -217h-109l243 239h-6q-23 0 -38 10.5t-32 41.5l-36 61q-12 20 -23 27.5t-29 7.5h-20l8 79h37q34 0 53 -13t39 -47l64 -105q22 -40 55 -40h17l21 200h87l-21 -200h17q33 0 65 40l86 105q26 34 48 47
t56 13h37l-8 -79h-20q-18 0 -30.5 -7.5t-29.5 -27.5l-48 -61q-24 -31 -41.5 -41.5t-40.5 -10.5h-6l128 -159h53l-6 -58z" />
    <glyph glyph-name="uni0498" unicode="&#x498;" horiz-adv-x="564" 
d="M539 196q-10 -89 -72 -146.5t-157 -64.5l-5 -48q15 15 48 15q32 0 52 -21.5t16 -58.5q-5 -38 -31.5 -63t-69.5 -25q-37 0 -58 19t-20 53h46q-1 -14 9.5 -23t26.5 -9q42 0 47 47q5 46 -36 46q-25 0 -40 -20h-41l9 88q-99 6 -153.5 67t-44.5 162h91q-7 -68 30.5 -108
t105.5 -40q65 0 107 37t48 93q5 59 -26 91t-103 32h-54l8 81h54q66 0 102 33t41 83q5 51 -27 84.5t-91 33.5q-64 0 -108.5 -35.5t-50.5 -96.5h-92q10 95 81 154.5t175 59.5q98 0 156 -51t49 -142q-7 -61 -44.5 -104t-92.5 -55q57 -10 89.5 -55t25.5 -113z" />
    <glyph glyph-name="uni0499" unicode="&#x499;" horiz-adv-x="478" 
d="M445 123q-7 -59 -59 -94.5t-128 -39.5l-6 -52q15 15 48 15q32 0 52 -21.5t16 -58.5q-5 -38 -31.5 -63t-69.5 -25q-37 0 -58 19t-20 53h46q-1 -14 9.5 -23t26.5 -9q42 0 47 47q5 46 -36 46q-25 0 -40 -20h-41l10 92q-77 6 -117 46t-34 102h87q-3 -35 24 -56t80 -21
q102 0 110 73q3 29 -18 48t-62 19h-69l7 65h65q36 0 60.5 18.5t27.5 50.5q3 30 -20.5 49.5t-66.5 19.5q-50 0 -77.5 -20.5t-31.5 -54.5h-87q8 65 63.5 105t139.5 40q81 0 126.5 -35.5t39.5 -91.5q-4 -45 -34 -73.5t-77 -35.5q48 -5 75.5 -35t22.5 -79z" />
    <glyph glyph-name="uni049A" unicode="&#x49a;" horiz-adv-x="607" 
d="M520 82h82l-22 -202h-87l13 120h-38l-261 344l-36 -344h-91l74 700h91l-32 -300h30q46 0 82 52l115 156q37 52 67 74t70 22h54l-9 -83h-35q-22 0 -39.5 -12.5t-43.5 -48.5l-114 -156q-32 -46 -75 -46h-12z" />
    <glyph glyph-name="uni049B" unicode="&#x49b;" horiz-adv-x="520" 
d="M402 80h82l-21 -200h-87l13 120h-31l-173 217l-23 -217h-87l48 461h87l-21 -200h17q33 0 65 40l86 105q26 34 48 47t56 13h37l-8 -79h-20q-18 0 -30.5 -7.5t-29.5 -27.5l-48 -61q-24 -31 -41.5 -41.5t-40.5 -10.5h-6z" />
    <glyph glyph-name="uni049C" unicode="&#x49c;" horiz-adv-x="657" 
d="M644 0h-116l-251 326l-14 -138h-35l16 151h-37l-36 -339h-91l74 700h91l-32 -300h37l16 153h35l-16 -153h13q51 0 87 52l115 156q39 52 68 74t69 22h54l-9 -83h-35q-22 0 -39.5 -12.5t-43.5 -48.5l-114 -156q-32 -46 -80 -46h-12z" />
    <glyph glyph-name="uni049D" unicode="&#x49d;" horiz-adv-x="527" 
d="M490 0h-108l-151 195l-10 -97h-24l12 115h-25l-22 -213h-87l48 461h87l-21 -200h25l13 115h24l-12 -114q26 3 55 39l86 105q27 34 49 47t56 13h37l-8 -79h-20q-32 0 -60 -35l-49 -61q-24 -31 -41 -41.5t-40 -10.5h-6z" />
    <glyph glyph-name="uni049E" unicode="&#x49e;" horiz-adv-x="652" 
d="M358 358l281 -358h-116l-261 344l-36 -344h-91l56 534h-55l7 70h55l11 96h91l-11 -96h107l-7 -70h-107l-14 -134h30q46 0 82 52l115 156q37 52 67 74t70 22h54l-9 -83h-35q-22 0 -39.5 -12.5t-43.5 -48.5l-114 -156q-32 -46 -75 -46h-12z" />
    <glyph glyph-name="uni049F" unicode="&#x49f;" horiz-adv-x="503" 
d="M467 0h-109l-173 217l-23 -217h-87l37 350h-40l5 51h40l6 60h87l-6 -60h74l-5 -51h-74l-10 -89h17q33 0 65 40l86 105q26 34 48 47t56 13h37l-8 -79h-20q-18 0 -30.5 -7.5t-29.5 -27.5l-48 -61q-24 -31 -41.5 -41.5t-40.5 -10.5h-6z" />
    <glyph glyph-name="uni04A0" unicode="&#x4a0;" horiz-adv-x="721" 
d="M427 358l281 -358h-116l-261 344l-36 -344h-91l65 618h-198l9 82h289l-32 -300h30q46 0 82 52l115 156q37 52 67 74t70 22h54l-9 -83h-35q-22 0 -39.5 -12.5t-43.5 -48.5l-114 -156q-32 -46 -75 -46h-12z" />
    <glyph glyph-name="uni04A1" unicode="&#x4a1;" horiz-adv-x="554" 
d="M518 0h-109l-173 217l-23 -217h-87l40 383h-105l8 78h192l-21 -200h17q33 0 65 40l86 105q26 34 48 47t56 13h37l-8 -79h-20q-18 0 -30.5 -7.5t-29.5 -27.5l-48 -61q-24 -31 -41.5 -41.5t-40.5 -10.5h-6z" />
    <glyph glyph-name="uni04A2" unicode="&#x4a2;" horiz-adv-x="674" 
d="M597 82h45l-22 -202h-87l13 120h-49l32 307h-326l-32 -307h-91l74 700h91l-33 -311h326l33 311h91z" />
    <glyph glyph-name="uni04A3" unicode="&#x4a3;" horiz-adv-x="578" 
d="M498 82h46l-22 -202h-87l13 120h-45l21 196h-241l-21 -196h-87l48 461h87l-20 -192h241l20 192h86z" />
    <glyph glyph-name="uni04A4" unicode="&#x4a4;" horiz-adv-x="895" 
d="M963 700l-9 -86h-301l-65 -614h-92l32 307h-325l-32 -307h-91l74 700h91l-33 -311h325l33 311h393z" />
    <glyph glyph-name="uni04A5" unicode="&#x4a5;" horiz-adv-x="702" 
d="M729 461l-8 -81h-191l-40 -380h-87l21 196h-241l-21 -196h-87l48 461h87l-20 -192h241l20 192h278z" />
    <glyph glyph-name="uni04A6" unicode="&#x4a6;" horiz-adv-x="1018" 
d="M788 471q100 0 148.5 -61t38.5 -157l-36 -335q-7 -66 -47 -101.5t-108 -35.5q-43 0 -65 11l9 82q19 -7 51 -7q33 0 50.5 18.5t21.5 59.5l30 285q17 158 -127 158q-83 0 -132 -37l-37 -351h-91l65 618h-323l-65 -618h-91l74 700h505l-28 -267q64 38 157 38z" />
    <glyph glyph-name="uni04A7" unicode="&#x4a7;" horiz-adv-x="839" 
d="M651 279q84 0 132 -57.5t37 -161.5q-11 -112 -74.5 -171t-172.5 -59q-24 0 -48 6l8 78q22 -4 38 -4q146 0 162 148q7 70 -23 106.5t-84 36.5q-65 0 -122 -28l-18 -173h-87l41 388h-237l-41 -388h-87l48 461h411l-21 -207q68 25 138 25z" />
    <glyph glyph-name="uni04A8" unicode="&#x4a8;" horiz-adv-x="778" 
d="M633 59q58 -3 112 23l-9 -78q-52 -21 -109 -21q-73 0 -119 23q-50 -23 -132 -23q-157 0 -238 99t-64 261q18 171 136 272.5t309 101.5q79 0 142 -22l-9 -85q-65 23 -142 23q-139 0 -232.5 -80t-107.5 -208q-13 -124 46.5 -204t178.5 -80q19 0 29 1q-98 80 -80 238
q11 111 76 174t160 63q94 0 143.5 -59t38.5 -160q-8 -75 -46.5 -146t-101.5 -112q7 -1 19 -1zM435 296q-7 -71 17.5 -124.5t71.5 -83.5q65 31 104 88.5t47 131.5q7 68 -20.5 106t-82.5 38q-57 0 -93 -40.5t-44 -115.5z" />
    <glyph glyph-name="uni04A9" unicode="&#x4a9;" horiz-adv-x="580" 
d="M464 47q54 1 101 21l-6 -62q-49 -20 -99 -20q-53 0 -85 19q-42 -21 -99 -21q-109 0 -168 61.5t-47 175.5q12 119 93.5 185t205.5 66q50 0 90 -11l-7 -74q-36 10 -91 10q-83 0 -139.5 -44t-65.5 -132q-8 -78 27.5 -122t109.5 -44h2q-45 51 -36 131q7 72 54 115t116 43
t105 -40.5t29 -115.5q-9 -85 -90 -141zM330 188q-9 -83 46 -119q91 30 100 116q5 40 -10.5 65t-52.5 25q-35 0 -57 -23t-26 -64z" />
    <glyph glyph-name="uni04AA" unicode="&#x4aa;" horiz-adv-x="771" 
d="M408 66q94 0 158.5 44t92.5 120h100q-30 -105 -119 -172t-219 -73l-5 -48q15 15 48 15q32 0 52 -21.5t16 -58.5q-5 -38 -31.5 -63t-69.5 -25q-37 0 -58 19t-20 53h46q-1 -14 9.5 -23t26.5 -9q42 0 47 47q5 46 -36 46q-25 0 -40 -20h-41l9 88q-155 7 -235 109t-64 256
q17 161 125 263.5t275 102.5q138 0 219 -68t90 -178h-100q-12 76 -67 120t-149 44q-124 0 -204.5 -79t-93.5 -205q-14 -126 49.5 -205t188.5 -79z" />
    <glyph glyph-name="uni04AB" unicode="&#x4ab;" horiz-adv-x="520" 
d="M274 66q109 0 137 90h87q-15 -72 -70.5 -117t-140.5 -50l-6 -52q15 15 48 15q32 0 52 -21.5t16 -58.5q-5 -38 -31.5 -63t-69.5 -25q-37 0 -58 19t-20 53h46q-1 -14 9.5 -23t26.5 -9q42 0 47 47q5 46 -36 46q-25 0 -40 -20h-41l10 92q-94 9 -141.5 74.5t-36.5 166.5
q11 108 80.5 175t174.5 67q92 0 144 -46.5t53 -124.5h-87q-9 93 -119 93q-67 0 -109.5 -43.5t-50.5 -120.5q-8 -76 25.5 -120t100.5 -44z" />
    <glyph glyph-name="uni04AC" unicode="&#x4ac;" horiz-adv-x="521" 
d="M580 614h-209l-56 -532h45l-22 -202h-87l13 120h-49l65 614h-209l9 86h509z" />
    <glyph glyph-name="uni04AD" unicode="&#x4ad;" horiz-adv-x="432" 
d="M441 380h-142l-31 -298h45l-22 -202h-87l13 120h-45l40 380h-141l8 81h370z" />
    <glyph glyph-name="uni04AE" unicode="&#x4ae;" horiz-adv-x="597" 
d="M252 0l30 285l-212 415h106l161 -328l232 328h105l-299 -415l-30 -285h-93z" />
    <glyph glyph-name="uni04AF" unicode="&#x4af;" horiz-adv-x="483" 
d="M528 461l-242 -445l-24 -229h-86l24 231l-149 443h93l109 -345l182 345h93z" />
    <glyph glyph-name="uni04B0" unicode="&#x4b0;" horiz-adv-x="597" 
d="M375 285l-6 -53h116l-7 -70h-116l-17 -162h-93l17 162h-115l7 70h115l6 53l-212 415h106l161 -328l232 328h105z" />
    <glyph glyph-name="uni04B1" unicode="&#x4b1;" horiz-adv-x="483" 
d="M286 16l-3 -27h126l-8 -70h-126l-13 -132h-86l13 132h-125l8 70h125l3 29l-149 443h93l109 -345l182 345h93z" />
    <glyph glyph-name="uni04B2" unicode="&#x4b2;" horiz-adv-x="636" 
d="M539 82h65l-22 -202h-87l13 120h-27l-150 274l-208 -274h-103l267 350l-193 350h103l150 -275l208 275h103l-267 -350z" />
    <glyph glyph-name="uni04B3" unicode="&#x4b3;" horiz-adv-x="544" 
d="M434 82h75l-22 -202h-87l13 120h-35l-98 169l-135 -169h-107l197 232l-147 229h107l98 -165l131 165h107l-195 -229z" />
    <glyph glyph-name="uni04B4" unicode="&#x4b4;" horiz-adv-x="759" 
d="M681 82h46l-22 -202h-87l13 120h-445l65 614h-180l9 86h454l-9 -86h-182l-56 -532h303l65 618h91z" />
    <glyph glyph-name="uni04B5" unicode="&#x4b5;" horiz-adv-x="655" 
d="M575 82h45l-22 -202h-86l13 120h-368l40 380h-126l8 81h340l-8 -81h-127l-32 -307h235l40 388h87z" />
    <glyph glyph-name="uni04B6" unicode="&#x4b6;" horiz-adv-x="584" 
d="M508 82h44l-22 -202h-87l13 120h-48l27 259q-63 -37 -156 -37q-100 0 -149 61t-39 157l28 260h91l-25 -237q-17 -159 127 -159q82 0 132 37l38 359h91z" />
    <glyph glyph-name="uni04B7" unicode="&#x4b7;" horiz-adv-x="519" 
d="M437 82h47l-22 -202h-87l13 120h-47l18 171q-56 -30 -127 -30q-174 0 -158 158l17 162h86l-16 -152q-4 -49 19.5 -72t77.5 -23q69 0 109 32l22 215h87z" />
    <glyph glyph-name="uni04B8" unicode="&#x4b8;" horiz-adv-x="579" 
d="M482 700h91l-74 -700h-91l27 259q-48 -27 -102 -34l-11 -101h-59l10 98q-97 2 -144.5 62.5t-37.5 155.5l28 260h91l-25 -237q-15 -142 97 -157l12 117h59l-12 -118q58 4 103 36z" />
    <glyph glyph-name="uni04B9" unicode="&#x4b9;" horiz-adv-x="503" 
d="M389 461h87l-48 -461h-87l18 171q-32 -16 -76 -25l-10 -101h-40l10 96h-11q-174 0 -158 158l17 162h86l-16 -152q-9 -92 89 -95l13 115h40l-12 -113q45 5 76 30z" />
    <glyph glyph-name="uni04BA" unicode="&#x4ba;" horiz-adv-x="579" 
d="M245 700l-28 -259q64 37 156 37q100 0 149 -61t39 -157l-27 -260h-91l25 237q16 159 -127 159q-83 0 -132 -37l-38 -359h-91l74 700h91z" />
    <glyph glyph-name="uni04BB" unicode="&#x4bb;" horiz-adv-x="566" 
d="M374 473q172 0 152 -189l-30 -284h-87l26 246q8 78 -15.5 115t-84.5 37q-63 0 -100.5 -41t-45.5 -113l-26 -244h-87l74 700h87l-34 -324q24 45 68 71t103 26z" />
    <glyph glyph-name="uni04BC" unicode="&#x4bc;" horiz-adv-x="918" 
d="M616 712q147 0 232.5 -99t69.5 -250l-6 -54h-601q-2 -107 54 -174t178 -67q173 0 244 141h106q-32 -96 -128 -161t-231 -65q-156 0 -239 91.5t-80 234.5h-25q-55 0 -85 35t-24 90l4 42h82l-4 -40q-3 -25 9 -40t37 -15h13q26 145 131.5 238t262.5 93zM825 381
q10 110 -51.5 180t-170.5 70q-113 0 -192 -68t-92 -182h506z" />
    <glyph glyph-name="uni04BD" unicode="&#x4bd;" horiz-adv-x="619" 
d="M601 205h-357q-6 -66 29 -103.5t101 -37.5q91 0 129 68h87q-19 -64 -81 -104t-143 -40q-100 0 -155.5 58t-51.5 159h-8q-56 0 -87 32.5t-25 84.5l4 42h75l-4 -41q-2 -24 10 -38t37 -14h5q22 93 88 147.5t159 54.5q98 0 152 -60t44 -156q-2 -18 -8 -52zM404 403
q-62 0 -103 -36t-50 -95h274q6 61 -26 96t-95 35z" />
    <glyph glyph-name="uni04BE" unicode="&#x4be;" horiz-adv-x="918" 
d="M485 747q-28 0 -45 19.5t-14 47.5t24 47.5t49 19.5q29 0 46.5 -19.5t14.5 -47.5t-25 -47.5t-50 -19.5zM722 747q-28 0 -45.5 19.5t-14.5 47.5t24.5 47.5t49.5 19.5t45.5 -19.5t14.5 -47.5t-24.5 -47.5t-49.5 -19.5zM616 712q147 0 232.5 -99t69.5 -250l-6 -54h-601
q-2 -107 54 -174t178 -67q173 0 244 141h106q-32 -96 -128 -161t-231 -65q-156 0 -239 91.5t-80 234.5h-25q-55 0 -85 35t-24 90l4 42h82l-4 -40q-3 -25 9 -40t37 -15h13q26 145 131.5 238t262.5 93zM825 381q10 110 -51.5 180t-170.5 70q-113 0 -192 -68t-92 -182h506z" />
    <glyph glyph-name="uni04BF" unicode="&#x4bf;" horiz-adv-x="619" 
d="M601 205h-357q-6 -66 29 -103.5t101 -37.5q91 0 129 68h87q-14 -46 -52 -81t-90 -51h-1q-12 -4 -19 -5q-75 -24 -81 -83q-3 -26 12 -42t42 -16q28 0 58 13l-8 -64q-41 -15 -80 -15q-53 0 -82.5 28t-24.5 70q6 60 78 103q-89 8 -138 65t-45 151h-8q-56 0 -87 32.5
t-25 84.5l4 42h75l-4 -41q-2 -24 10 -38t37 -14h5q22 93 88 147.5t159 54.5q98 0 152 -60t44 -156q-2 -18 -8 -52zM404 403q-62 0 -103 -36t-50 -95h274q6 61 -26 96t-95 35z" />
    <glyph glyph-name="uni04C0" unicode="&#x4c0;" horiz-adv-x="251" 
d="M80 0l74 700h91l-74 -700h-91z" />
    <glyph glyph-name="uni04C1" unicode="&#x4c1;" horiz-adv-x="943" 
d="M548 734q-73 0 -118 31t-44 84h72q4 -56 96 -56t109 56h72q-10 -53 -62 -84t-125 -31zM649 358l281 -358h-116l-261 344l-36 -344h-91l36 344l-333 -344h-116l357 358h-12q-43 0 -67 46l-80 156q-19 36 -34 48.5t-37 12.5h-35l9 83h54q40 0 65.5 -22t51.5 -74l83 -156
q23 -52 70 -52h30l32 300h91l-32 -300h30q46 0 82 52l115 156q37 52 67 74t70 22h54l-9 -83h-35q-22 0 -39.5 -12.5t-43.5 -48.5l-114 -156q-32 -46 -75 -46h-12z" />
    <glyph glyph-name="uni04C2" unicode="&#x4c2;" horiz-adv-x="769" 
d="M438 501q-75 0 -118.5 38.5t-40.5 104.5h74q-1 -38 24 -58t67 -20q43 0 73 20t37 58h74q-13 -67 -64 -105t-126 -38zM733 0h-109l-173 217l-23 -217h-87l23 217l-219 -217h-109l243 239h-6q-23 0 -38 10.5t-32 41.5l-36 61q-12 20 -23 27.5t-29 7.5h-20l8 79h37
q34 0 53 -13t39 -47l64 -105q22 -40 55 -40h17l21 200h87l-21 -200h17q33 0 65 40l86 105q26 34 48 47t56 13h37l-8 -79h-20q-18 0 -30.5 -7.5t-29.5 -27.5l-48 -61q-24 -31 -41.5 -41.5t-40.5 -10.5h-6z" />
    <glyph glyph-name="uni04C3" unicode="&#x4c3;" horiz-adv-x="616" 
d="M408 418q91 0 146.5 -58t44.5 -159q-11 -105 -76 -160.5t-176 -55.5q-36 0 -61 5l8 77q20 -4 51 -4q153 0 167 136q7 70 -29 106t-99 36h-104v1l-64 -1l-3 59h26q51 0 88 52l114 156q39 52 68 74t69 22h55l-9 -83h-35q-22 0 -39 -12.5t-44 -48.5l-104 -142h6zM154 700h91
l-74 -700h-91z" />
    <glyph glyph-name="uni04C4" unicode="&#x4c4;" horiz-adv-x="495" 
d="M332 259q71 -9 112.5 -60.5t32.5 -134.5q-11 -107 -74.5 -163.5t-172.5 -56.5q-29 0 -49 5l8 78q19 -4 45 -4q68 0 108 36.5t48 103.5q7 65 -24 98t-94 33h-90l-20 -194h-87l48 461h87l-21 -200h17q30 0 65 40l86 105q26 34 48 47t56 13h37l-8 -79h-20q-18 0 -30.5 -7.5
t-29.5 -27.5l-48 -61q-19 -22 -30 -32z" />
    <glyph glyph-name="uni04C5" unicode="&#x4c5;" horiz-adv-x="674" 
d="M603 82h51l-99 -202h-86l58 120h-24l65 619h-262l-37 -357q-29 -268 -209 -268h-40l9 86h26q51 0 81.5 41.5t41.5 142.5l46 436h444z" />
    <glyph glyph-name="uni04C6" unicode="&#x4c6;" horiz-adv-x="550" 
d="M484 82h51l-99 -202h-86l58 120h-19l40 380h-180l-19 -182q-10 -98 -53 -150t-111 -52h-36l8 83h18q75 0 87 115l28 267h352z" />
    <glyph glyph-name="uni04C7" unicode="&#x4c7;" horiz-adv-x="668" 
d="M571 700h91l-83 -782q-7 -66 -47 -101.5t-108 -35.5q-43 0 -65 11l9 82q19 -7 51 -7q33 0 50.5 18.5t21.5 59.5l38 362h-326l-32 -307h-91l74 700h91l-33 -311h326z" />
    <glyph glyph-name="uni04C8" unicode="&#x4c8;" horiz-adv-x="564" 
d="M451 461h86l-58 -559q-6 -58 -40.5 -89.5t-92.5 -31.5q-44 0 -63 11l8 79q19 -7 47 -7q51 0 57 62l29 270h-241l-21 -196h-87l48 461h87l-20 -192h241z" />
    <glyph glyph-name="uni04C9" unicode="&#x4c9;" horiz-adv-x="668" 
d="M597 82h51l-99 -202h-86l58 120h-24l32 307h-326l-32 -307h-91l74 700h91l-33 -311h326l33 311h91z" />
    <glyph glyph-name="uni04CA" unicode="&#x4ca;" horiz-adv-x="564" 
d="M498 82h51l-99 -202h-86l58 120h-19l21 196h-241l-21 -196h-87l48 461h87l-20 -192h241l20 192h86z" />
    <glyph glyph-name="uni04CB" unicode="&#x4cb;" horiz-adv-x="579" 
d="M573 700l-74 -700h-48l-13 -120h-91l22 202h48l18 177q-63 -37 -156 -37q-100 0 -149 61t-39 157l28 260h91l-25 -237q-17 -159 127 -159q82 0 132 37l38 359h91z" />
    <glyph glyph-name="uni04CC" unicode="&#x4cc;" horiz-adv-x="503" 
d="M476 461l-48 -461h-44l-13 -120h-91l22 202h48l9 89q-56 -30 -127 -30q-174 0 -158 158l17 162h86l-16 -152q-4 -49 19.5 -72t77.5 -23q69 0 109 32l22 215h87z" />
    <glyph glyph-name="uni04CD" unicode="&#x4cd;" horiz-adv-x="816" 
d="M745 82h51l-99 -202h-86l58 120h-21l54 511l-259 -511h-70l-151 514l-54 -514h-88l74 700h88l180 -571l300 571h88z" />
    <glyph glyph-name="uni04CE" unicode="&#x4ce;" horiz-adv-x="708" 
d="M641 82h51l-99 -202h-86l58 120h-16l40 376l-206 -376h-58l-127 376l-40 -376h-83l48 461h131l112 -343l184 343h131z" />
    <glyph glyph-name="uni04CF" unicode="&#x4cf;" horiz-adv-x="237" 
d="M75 0l48 461h87l-48 -461h-87z" />
    <glyph glyph-name="uni04D0" unicode="&#x4d0;" horiz-adv-x="590" 
d="M373 734q-73 0 -118 31t-44 84h72q4 -56 96 -56t109 56h72q-10 -53 -62 -84t-125 -31zM474 0l-22 107h-291l-44 -107h-99l311 700h81l163 -700h-99zM196 190h239l-80 384z" />
    <glyph glyph-name="uni04D1" unicode="&#x4d1;" horiz-adv-x="591" 
d="M333 501q-75 0 -118.5 38.5t-40.5 104.5h74q-1 -38 24 -58t67 -20q43 0 73 20t37 58h74q-13 -67 -64 -105t-126 -38zM265 -12q-107 0 -160.5 68t-42.5 174q11 105 81 174t175 69q54 0 94.5 -25t57.5 -68l8 81h86l-48 -461h-86l9 81q-26 -42 -74 -67.5t-100 -25.5zM285 66
q73 0 119.5 47.5t53.5 116.5q8 70 -28.5 117.5t-109.5 47.5q-70 0 -117 -46.5t-55 -118.5t29.5 -118t107.5 -46z" />
    <glyph glyph-name="uni04D2" unicode="&#x4d2;" horiz-adv-x="590" 
d="M256 747q-28 0 -45 19.5t-14 47.5t24 47.5t49 19.5q29 0 46.5 -19.5t14.5 -47.5t-25 -47.5t-50 -19.5zM493 747q-28 0 -45.5 19.5t-14.5 47.5t24.5 47.5t49.5 19.5t45.5 -19.5t14.5 -47.5t-24.5 -47.5t-49.5 -19.5zM474 0l-22 107h-291l-44 -107h-99l311 700h81l163 -700
h-99zM196 190h239l-80 384z" />
    <glyph glyph-name="uni04D3" unicode="&#x4d3;" horiz-adv-x="591" 
d="M237 539q-28 0 -45.5 19.5t-14.5 47.5t24.5 47.5t49.5 19.5q29 0 46 -19.5t14 -47.5t-24.5 -47.5t-49.5 -19.5zM437 539q-28 0 -45.5 19.5t-14.5 47.5t24.5 47.5t49.5 19.5q29 0 46 -19.5t14 -47.5t-24.5 -47.5t-49.5 -19.5zM265 -12q-107 0 -160.5 68t-42.5 174
q11 105 81 174t175 69q54 0 94.5 -25t57.5 -68l8 81h86l-48 -461h-86l9 81q-26 -42 -74 -67.5t-100 -25.5zM285 66q73 0 119.5 47.5t53.5 116.5q8 70 -28.5 117.5t-109.5 47.5q-70 0 -117 -46.5t-55 -118.5t29.5 -118t107.5 -46z" />
    <glyph glyph-name="uni04D4" unicode="&#x4d4;" horiz-adv-x="841" 
d="M838 618h-276l-24 -229h276l-9 -82h-276l-23 -225h276l-9 -82h-367l12 111h-241l-65 -111h-99l422 700h412zM223 190h203l45 426z" />
    <glyph glyph-name="uni04D5" unicode="&#x4d5;" horiz-adv-x="871" 
d="M860 255q-3 -29 -8 -52h-358q-4 -66 31.5 -103t101.5 -37q90 0 127 74h88q-19 -67 -81 -109t-142 -42q-63 0 -110 26.5t-71 74.5q-72 -99 -213 -99q-82 0 -129 37t-40 97q8 75 66 113q32 20 73.5 27t121.5 7h104l4 40q5 42 -22 68t-90 26q-118 0 -134 -93h-87
q12 74 75 118.5t155 44.5q126 0 168 -76q71 74 176 74q96 0 150 -60.5t44 -155.5zM502 270h274q7 61 -25 97t-93 36q-62 0 -105 -36.5t-51 -96.5zM412 183l2 20h-136q-126 0 -133 -74q-4 -36 23.5 -54t80.5 -18q61 0 109 32.5t54 93.5z" />
    <glyph glyph-name="uni04D6" unicode="&#x4d6;" horiz-adv-x="545" 
d="M362 734q-73 0 -118 31t-44 84h72q4 -56 96 -56t109 56h72q-10 -53 -62 -84t-125 -31zM80 0l74 700h398l-9 -82h-307l-24 -229h307l-9 -82h-307l-23 -225h307l-9 -82h-398z" />
    <glyph glyph-name="uni04D7" unicode="&#x4d7;" horiz-adv-x="521" 
d="M319 501q-75 0 -118.5 38.5t-40.5 104.5h74q-1 -38 24 -58t67 -20q43 0 73 20t37 58h74q-13 -67 -64 -105t-126 -38zM511 257q-2 -18 -8 -52h-357q-6 -66 29 -103.5t101 -37.5q91 0 129 68h87q-19 -64 -81 -104t-143 -40q-106 0 -161.5 65.5t-44.5 177.5q12 110 81 176
t172 66q98 0 152 -60t44 -156zM153 272h274q6 61 -26 96t-95 35q-62 0 -103 -36t-50 -95z" />
    <glyph glyph-name="uni04D8" unicode="&#x4d8;" horiz-adv-x="774" 
d="M376 -12q-147 0 -233 99t-70 250l6 54h601q3 107 -53.5 174t-178.5 67q-172 0 -243 -141h-106q31 96 126.5 161t231.5 65q167 0 250 -104t67 -261t-123.5 -260.5t-274.5 -103.5zM388 69q113 0 192 68t93 182h-506q-11 -110 50 -180t171 -70z" />
    <glyph glyph-name="uni04D9" unicode="&#x4d9;" horiz-adv-x="521" 
d="M302 473q106 0 161.5 -65.5t43.5 -177.5q-11 -110 -80 -176t-172 -66q-98 0 -152.5 60t-44.5 156q2 14 9 52h357q5 67 -29.5 104t-100.5 37q-93 0 -129 -68h-87q19 64 81 104t143 40zM263 58q62 0 103.5 36t50.5 95h-274q-7 -61 25 -96t95 -35z" />
    <glyph glyph-name="uni04DA" unicode="&#x4da;" horiz-adv-x="774" 
d="M336 747q-28 0 -45 19.5t-14 47.5t24 47.5t49 19.5q29 0 46.5 -19.5t14.5 -47.5t-25 -47.5t-50 -19.5zM573 747q-28 0 -45.5 19.5t-14.5 47.5t24.5 47.5t49.5 19.5t45.5 -19.5t14.5 -47.5t-24.5 -47.5t-49.5 -19.5zM376 -12q-147 0 -233 99t-70 250l6 54h601
q3 107 -53.5 174t-178.5 67q-172 0 -243 -141h-106q31 96 126.5 161t231.5 65q167 0 250 -104t67 -261t-123.5 -260.5t-274.5 -103.5zM388 69q113 0 192 68t93 182h-506q-11 -110 50 -180t171 -70z" />
    <glyph glyph-name="uni04DB" unicode="&#x4db;" horiz-adv-x="521" 
d="M212 539q-28 0 -45.5 19.5t-14.5 47.5t24.5 47.5t49.5 19.5q29 0 46 -19.5t14 -47.5t-24.5 -47.5t-49.5 -19.5zM412 539q-28 0 -45.5 19.5t-14.5 47.5t24.5 47.5t49.5 19.5q29 0 46 -19.5t14 -47.5t-24.5 -47.5t-49.5 -19.5zM302 473q106 0 161.5 -65.5t43.5 -177.5
q-11 -110 -80 -176t-172 -66q-98 0 -152.5 60t-44.5 156q2 14 9 52h357q5 67 -29.5 104t-100.5 37q-93 0 -129 -68h-87q19 64 81 104t143 40zM263 58q62 0 103.5 36t50.5 95h-274q-7 -61 25 -96t95 -35z" />
    <glyph glyph-name="uni04DC" unicode="&#x4dc;" horiz-adv-x="943" 
d="M431 747q-28 0 -45 19.5t-14 47.5t24 47.5t49 19.5q29 0 46.5 -19.5t14.5 -47.5t-25 -47.5t-50 -19.5zM668 747q-28 0 -45.5 19.5t-14.5 47.5t24.5 47.5t49.5 19.5t45.5 -19.5t14.5 -47.5t-24.5 -47.5t-49.5 -19.5zM649 358l281 -358h-116l-261 344l-36 -344h-91l36 344
l-333 -344h-116l357 358h-12q-43 0 -67 46l-80 156q-19 36 -34 48.5t-37 12.5h-35l9 83h54q40 0 65.5 -22t51.5 -74l83 -156q23 -52 70 -52h30l32 300h91l-32 -300h30q46 0 82 52l115 156q37 52 67 74t70 22h54l-9 -83h-35q-22 0 -39.5 -12.5t-43.5 -48.5l-114 -156
q-32 -46 -75 -46h-12z" />
    <glyph glyph-name="uni04DD" unicode="&#x4dd;" horiz-adv-x="769" 
d="M342 539q-28 0 -45.5 19.5t-14.5 47.5t24.5 47.5t49.5 19.5q29 0 46 -19.5t14 -47.5t-24.5 -47.5t-49.5 -19.5zM542 539q-28 0 -45.5 19.5t-14.5 47.5t24.5 47.5t49.5 19.5q29 0 46 -19.5t14 -47.5t-24.5 -47.5t-49.5 -19.5zM733 0h-109l-173 217l-23 -217h-87l23 217
l-219 -217h-109l243 239h-6q-23 0 -38 10.5t-32 41.5l-36 61q-12 20 -23 27.5t-29 7.5h-20l8 79h37q34 0 53 -13t39 -47l64 -105q22 -40 55 -40h17l21 200h87l-21 -200h17q33 0 65 40l86 105q26 34 48 47t56 13h37l-8 -79h-20q-18 0 -30.5 -7.5t-29.5 -27.5l-48 -61
q-24 -31 -41.5 -41.5t-40.5 -10.5h-6z" />
    <glyph glyph-name="uni04DE" unicode="&#x4de;" horiz-adv-x="564" 
d="M239 747q-28 0 -45 19.5t-14 47.5t24 47.5t49 19.5q29 0 46.5 -19.5t14.5 -47.5t-25 -47.5t-50 -19.5zM476 747q-28 0 -45.5 19.5t-14.5 47.5t24.5 47.5t49.5 19.5t45.5 -19.5t14.5 -47.5t-24.5 -47.5t-49.5 -19.5zM156 214q-7 -68 30.5 -108t105.5 -40q65 0 107 37
t48 93q5 59 -26 91t-103 32h-54l8 81h54q66 0 102 33t41 83q5 51 -27 84.5t-91 33.5q-64 0 -108.5 -35.5t-50.5 -96.5h-92q10 95 81 154.5t175 59.5q98 0 156 -51t49 -142q-7 -61 -44.5 -104t-92.5 -55q57 -10 89.5 -55t25.5 -113q-11 -95 -80.5 -153.5t-173.5 -58.5
q-109 0 -170 61.5t-50 168.5h91z" />
    <glyph glyph-name="uni04DF" unicode="&#x4df;" horiz-adv-x="478" 
d="M195 539q-28 0 -45.5 19.5t-14.5 47.5t24.5 47.5t49.5 19.5q29 0 46 -19.5t14 -47.5t-24.5 -47.5t-49.5 -19.5zM395 539q-28 0 -45.5 19.5t-14.5 47.5t24.5 47.5t49.5 19.5q29 0 46 -19.5t14 -47.5t-24.5 -47.5t-49.5 -19.5zM147 137q-3 -35 24 -56t80 -21q102 0 110 73
q3 29 -18 48t-62 19h-69l7 65h65q36 0 60.5 18.5t27.5 50.5q3 30 -20.5 49.5t-66.5 19.5q-50 0 -77.5 -20.5t-31.5 -54.5h-87q8 65 63.5 105t139.5 40q81 0 126.5 -35.5t39.5 -91.5q-4 -45 -34 -73.5t-77 -35.5q48 -5 75.5 -35t22.5 -79q-7 -62 -65.5 -98.5t-141.5 -36.5
q-89 0 -137 41t-41 108h87z" />
    <glyph glyph-name="uni04E0" unicode="&#x4e0;" horiz-adv-x="565" 
d="M285 -12q-108 0 -169 61.5t-50 167.5h91q-7 -67 32.5 -107t105.5 -40q63 0 105 39t48 97q15 140 -133 140h-85l216 272h-288l9 82h438l-237 -289q85 -5 132.5 -60t38.5 -141q-10 -97 -82 -159.5t-172 -62.5z" />
    <glyph glyph-name="uni04E1" unicode="&#x4e1;" horiz-adv-x="488" 
d="M192 -225q-98 0 -150 50t-43 141h85q-4 -55 29.5 -86.5t87.5 -31.5q58 0 97 41.5t47 115.5q7 74 -31 112.5t-117 38.5h-70l212 231h-254l7 74h397l-220 -245q84 -9 127.5 -69t34.5 -143q-11 -108 -76 -168.5t-163 -60.5z" />
    <glyph glyph-name="uni04E2" unicode="&#x4e2;" horiz-adv-x="667" 
d="M228 748l7 69h372l-7 -69h-372zM551 519l-375 -472l-5 -47h-91l74 700h91l-55 -519l375 472l5 47h91l-74 -700h-91z" />
    <glyph glyph-name="uni04E3" unicode="&#x4e3;" horiz-adv-x="561" 
d="M176 545l8 70h318l-8 -70h-318zM433 322l-267 -285l-4 -37h-87l48 461h87l-34 -326l267 287l4 39h87l-48 -461h-87z" />
    <glyph glyph-name="uni04E4" unicode="&#x4e4;" horiz-adv-x="667" 
d="M292 727q-28 0 -44.5 19.5t-14.5 47.5q3 28 24 47.5t49 19.5q29 0 46.5 -19.5t14.5 -47.5q-2 -28 -24 -47.5t-51 -19.5zM529 727q-28 0 -45 19.5t-15 47.5q3 28 24.5 47.5t49.5 19.5t45.5 -19.5t14.5 -47.5q-2 -28 -24 -47.5t-50 -19.5zM551 519l-375 -472l-5 -47h-91
l74 700h91l-55 -519l375 472l5 47h91l-74 -700h-91z" />
    <glyph glyph-name="uni04E5" unicode="&#x4e5;" horiz-adv-x="561" 
d="M234 529q-28 0 -45.5 19.5t-14.5 47.5t24.5 47.5t49.5 19.5q29 0 46 -19.5t14 -47.5t-24.5 -47.5t-49.5 -19.5zM434 529q-28 0 -45.5 19.5t-14.5 47.5t24.5 47.5t49.5 19.5q29 0 46 -19.5t14 -47.5t-24.5 -47.5t-49.5 -19.5zM433 322l-267 -285l-4 -37h-87l48 461h87
l-34 -326l267 287l4 39h87l-48 -461h-87z" />
    <glyph glyph-name="uni04E6" unicode="&#x4e6;" horiz-adv-x="797" 
d="M359 747q-28 0 -45 19.5t-14 47.5t24 47.5t49 19.5q29 0 46.5 -19.5t14.5 -47.5t-25 -47.5t-50 -19.5zM596 747q-28 0 -45.5 19.5t-14.5 47.5t24.5 47.5t49.5 19.5t45.5 -19.5t14.5 -47.5t-24.5 -47.5t-49.5 -19.5zM397 -16q-164 0 -251 106t-71 260q16 153 125.5 259.5
t273.5 106.5t251.5 -106t71.5 -260t-126 -260t-274 -106zM406 66q122 0 202.5 82t92.5 202q13 120 -50 202t-185 82t-202.5 -82t-93.5 -202t50.5 -202t185.5 -82z" />
    <glyph glyph-name="uni04E7" unicode="&#x4e7;" horiz-adv-x="556" 
d="M235 539q-28 0 -45.5 19.5t-14.5 47.5t24.5 47.5t49.5 19.5q29 0 46 -19.5t14 -47.5t-24.5 -47.5t-49.5 -19.5zM435 539q-28 0 -45.5 19.5t-14.5 47.5t24.5 47.5t49.5 19.5q29 0 46 -19.5t14 -47.5t-24.5 -47.5t-49.5 -19.5zM277 -12q-110 0 -168 69.5t-47 173.5
t83.5 173t182.5 69q109 0 167 -69t47 -173t-83.5 -173.5t-181.5 -69.5zM285 66q71 0 117 46.5t53 118.5q8 71 -28 117.5t-107 46.5t-117.5 -46.5t-54.5 -118.5q-7 -71 29.5 -117.5t107.5 -46.5z" />
    <glyph glyph-name="uni04E8" unicode="&#x4e8;" horiz-adv-x="797" 
d="M474 716q164 0 251.5 -106t71.5 -260t-126 -260t-274 -106t-251 106t-71 260q16 153 125.5 259.5t273.5 106.5zM466 634q-114 0 -192.5 -72t-99.5 -182h529q3 109 -60 181.5t-177 72.5zM406 66q114 0 192.5 72.5t98.5 182.5h-529q-2 -110 61 -182.5t177 -72.5z" />
    <glyph glyph-name="uni04E9" unicode="&#x4e9;" horiz-adv-x="556" 
d="M328 473q109 0 167 -69t47 -173t-83.5 -173.5t-181.5 -69.5q-110 0 -168 69.5t-47 173.5t83.5 173t182.5 69zM320 395q-63 0 -107.5 -37.5t-59.5 -97.5h303q-2 60 -37.5 97.5t-98.5 37.5zM285 66q63 0 106.5 37.5t58.5 97.5h-303q2 -60 38.5 -97.5t99.5 -37.5z" />
    <glyph glyph-name="uni04EA" unicode="&#x4ea;" horiz-adv-x="797" 
d="M359 747q-28 0 -45 19.5t-14 47.5t24 47.5t49 19.5q29 0 46.5 -19.5t14.5 -47.5t-25 -47.5t-50 -19.5zM596 747q-28 0 -45.5 19.5t-14.5 47.5t24.5 47.5t49.5 19.5t45.5 -19.5t14.5 -47.5t-24.5 -47.5t-49.5 -19.5zM474 716q164 0 251.5 -106t71.5 -260t-126 -260
t-274 -106t-251 106t-71 260q16 153 125.5 259.5t273.5 106.5zM466 634q-114 0 -192.5 -72t-99.5 -182h529q3 109 -60 181.5t-177 72.5zM406 66q114 0 192.5 72.5t98.5 182.5h-529q-2 -110 61 -182.5t177 -72.5z" />
    <glyph glyph-name="uni04EB" unicode="&#x4eb;" horiz-adv-x="556" 
d="M235 539q-28 0 -45.5 19.5t-14.5 47.5t24.5 47.5t49.5 19.5q29 0 46 -19.5t14 -47.5t-24.5 -47.5t-49.5 -19.5zM435 539q-28 0 -45.5 19.5t-14.5 47.5t24.5 47.5t49.5 19.5q29 0 46 -19.5t14 -47.5t-24.5 -47.5t-49.5 -19.5zM328 473q109 0 167 -69t47 -173t-83.5 -173.5
t-181.5 -69.5q-110 0 -168 69.5t-47 173.5t83.5 173t182.5 69zM320 395q-63 0 -107.5 -37.5t-59.5 -97.5h303q-2 60 -37.5 97.5t-98.5 37.5zM285 66q63 0 106.5 37.5t58.5 97.5h-303q2 -60 38.5 -97.5t99.5 -37.5z" />
    <glyph glyph-name="uni04EC" unicode="&#x4ec;" horiz-adv-x="739" 
d="M310 747q-28 0 -45 19.5t-14 47.5t24 47.5t49 19.5q29 0 46.5 -19.5t14.5 -47.5t-25 -47.5t-50 -19.5zM547 747q-28 0 -45.5 19.5t-14.5 47.5t24.5 47.5t49.5 19.5t45.5 -19.5t14.5 -47.5t-24.5 -47.5t-49.5 -19.5zM426 716q156 0 242.5 -101t69.5 -265t-125 -265
t-264 -101q-125 0 -203.5 64.5t-86.5 170.5h99q8 -69 61.5 -111t138.5 -42q105 0 180 65.5t98 177.5h-346l9 83h346q0 111 -61.5 176.5t-165.5 65.5q-84 0 -146.5 -41.5t-85.5 -109.5h-99q33 107 125 170t214 63z" />
    <glyph glyph-name="uni04ED" unicode="&#x4ed;" horiz-adv-x="530" 
d="M215 539q-28 0 -45.5 19.5t-14.5 47.5t24.5 47.5t49.5 19.5q29 0 46 -19.5t14 -47.5t-24.5 -47.5t-49.5 -19.5zM415 539q-28 0 -45.5 19.5t-14.5 47.5t24.5 47.5t49.5 19.5q29 0 46 -19.5t14 -47.5t-24.5 -47.5t-49.5 -19.5zM157 293h-87q11 76 75 128t162 52
q77 0 128 -35t69.5 -88.5t11.5 -118.5q-11 -102 -78.5 -172.5t-181.5 -70.5q-97 0 -151 48t-50 122h87q2 -42 33.5 -67t92.5 -25q67 0 107 36t49 96h-193l7 65h193q3 59 -29 95.5t-99 36.5q-62 0 -98.5 -28.5t-47.5 -73.5z" />
    <glyph glyph-name="uni04EE" unicode="&#x4ee;" horiz-adv-x="552" 
d="M562 837l-7 -69h-372l7 69h372zM541 700h100l-426 -700h-101l170 278l-220 422h106l170 -328z" />
    <glyph glyph-name="uni04EF" unicode="&#x4ef;" horiz-adv-x="567" 
d="M176 555l8 70h318l-8 -70h-318zM453 461h87l-49 -470q-12 -109 -80 -166q-63 -50 -157 -50q-100 0 -151 48q-45 42 -39 119h88q-2 -45 23 -69.5t86 -24.5q128 0 144 149l9 86q-56 -95 -170 -95q-87 0 -125.5 53.5t-28.5 144.5l28 275h87l-27 -257q-7 -67 16 -102.5
t87 -35.5q63 0 102 45.5t46 112.5z" />
    <glyph glyph-name="uni04F0" unicode="&#x4f0;" horiz-adv-x="552" 
d="M248 747q-28 0 -45 19.5t-14 47.5t24 47.5t49 19.5q29 0 46.5 -19.5t14.5 -47.5t-25 -47.5t-50 -19.5zM485 747q-28 0 -45.5 19.5t-14.5 47.5t24.5 47.5t49.5 19.5t45.5 -19.5t14.5 -47.5t-24.5 -47.5t-49.5 -19.5zM541 700h100l-426 -700h-101l170 278l-220 422h106
l170 -328z" />
    <glyph glyph-name="uni04F1" unicode="&#x4f1;" horiz-adv-x="567" 
d="M234 539q-28 0 -45.5 19.5t-14.5 47.5t24.5 47.5t49.5 19.5q29 0 46 -19.5t14 -47.5t-24.5 -47.5t-49.5 -19.5zM434 539q-28 0 -45.5 19.5t-14.5 47.5t24.5 47.5t49.5 19.5q29 0 46 -19.5t14 -47.5t-24.5 -47.5t-49.5 -19.5zM453 461h87l-49 -470q-12 -109 -80 -166
q-63 -50 -157 -50q-100 0 -151 48q-45 42 -39 119h88q-2 -45 23 -69.5t86 -24.5q128 0 144 149l9 86q-56 -95 -170 -95q-87 0 -125.5 53.5t-28.5 144.5l28 275h87l-27 -257q-7 -67 16 -102.5t87 -35.5q63 0 102 45.5t46 112.5z" />
    <glyph glyph-name="uni04F2" unicode="&#x4f2;" horiz-adv-x="552" 
d="M446 858l-169 -122l-46 21l140 131zM455 735l-45 22l140 131l74 -32zM541 700h100l-426 -700h-101l170 278l-220 422h106l170 -328z" />
    <glyph glyph-name="uni04F3" unicode="&#x4f3;" horiz-adv-x="567" 
d="M219 497l-40 23l142 166l72 -38zM409 497l-40 23l142 166l72 -38zM453 461h87l-49 -470q-12 -109 -80 -166q-63 -50 -157 -50q-100 0 -151 48q-45 42 -39 119h88q-2 -45 23 -69.5t86 -24.5q128 0 144 149l9 86q-56 -95 -170 -95q-87 0 -125.5 53.5t-28.5 144.5l28 275h87
l-27 -257q-7 -67 16 -102.5t87 -35.5q63 0 102 45.5t46 112.5z" />
    <glyph glyph-name="uni04F4" unicode="&#x4f4;" horiz-adv-x="579" 
d="M231 747q-28 0 -45 19.5t-14 47.5t24 47.5t49 19.5q29 0 46.5 -19.5t14.5 -47.5t-25 -47.5t-50 -19.5zM468 747q-28 0 -45.5 19.5t-14.5 47.5t24.5 47.5t49.5 19.5t45.5 -19.5t14.5 -47.5t-24.5 -47.5t-49.5 -19.5zM408 0l27 259q-63 -37 -156 -37q-100 0 -149 61
t-39 157l28 260h91l-25 -237q-17 -159 127 -159q82 0 132 37l38 359h91l-74 -700h-91z" />
    <glyph glyph-name="uni04F5" unicode="&#x4f5;" horiz-adv-x="503" 
d="M193 539q-28 0 -45.5 19.5t-14.5 47.5t24.5 47.5t49.5 19.5q29 0 46 -19.5t14 -47.5t-24.5 -47.5t-49.5 -19.5zM393 539q-28 0 -45.5 19.5t-14.5 47.5t24.5 47.5t49.5 19.5q29 0 46 -19.5t14 -47.5t-24.5 -47.5t-49.5 -19.5zM341 0l18 171q-56 -30 -127 -30
q-174 0 -158 158l17 162h86l-16 -152q-4 -49 19.5 -72t77.5 -23q69 0 109 32l22 215h87l-48 -461h-87z" />
    <glyph glyph-name="uni04F6" unicode="&#x4f6;" horiz-adv-x="479" 
d="M538 614h-302l-56 -532h45l-22 -202h-87l13 120h-49l74 700h393z" />
    <glyph glyph-name="uni04F7" unicode="&#x4f7;" horiz-adv-x="375" 
d="M393 380h-191l-31 -298h45l-22 -202h-87l13 120h-45l48 461h278z" />
    <glyph glyph-name="uni04F8" unicode="&#x4f8;" horiz-adv-x="775" 
d="M357 747q-28 0 -45 19.5t-14 47.5t24 47.5t49 19.5q29 0 46.5 -19.5t14.5 -47.5t-25 -47.5t-50 -19.5zM594 747q-28 0 -45.5 19.5t-14.5 47.5t24.5 47.5t49.5 19.5t45.5 -19.5t14.5 -47.5t-24.5 -47.5t-49.5 -19.5zM80 0l74 700h91l-32 -300h169q86 0 135 -58t41 -142
q-8 -83 -70.5 -141.5t-148.5 -58.5h-259zM604 0l74 700h91l-74 -700h-91zM180 82h168q46 0 80 34.5t39 83.5t-21.5 83.5t-72.5 34.5h-169z" />
    <glyph glyph-name="uni04F9" unicode="&#x4f9;" horiz-adv-x="669" 
d="M284 539q-28 0 -45.5 19.5t-14.5 47.5t24.5 47.5t49.5 19.5q29 0 46 -19.5t14 -47.5t-24.5 -47.5t-49.5 -19.5zM484 539q-28 0 -45.5 19.5t-14.5 47.5t24.5 47.5t49.5 19.5q29 0 46 -19.5t14 -47.5t-24.5 -47.5t-49.5 -19.5zM123 461h87l-16 -161h120q72 0 111.5 -43
t33.5 -107q-7 -62 -58 -106t-120 -44h-206zM507 0l48 461h87l-48 -461h-87zM186 231l-17 -161h109q38 0 62.5 22.5t28.5 57.5t-15.5 58t-56.5 23h-111z" />
    <glyph glyph-name="uni04FC" unicode="&#x4fc;" horiz-adv-x="604" 
d="M410 -216q-38 0 -62 11l9 82q21 -7 49 -7q36 0 53 16t20 50q4 35 -8.5 69.5t-45.5 93.5l-94 175l-208 -274h-103l267 350l-193 350h103l150 -275l208 275h103l-267 -350l112 -204q44 -80 58 -126t9 -91q-16 -145 -160 -145z" />
    <glyph glyph-name="uni04FD" unicode="&#x4fd;" horiz-adv-x="476" 
d="M312 -219q-42 0 -61 11l7 70q22 -7 45 -7q55 0 63 65q6 56 -65 173l-44 76l-135 -169h-107l197 232l-147 229h107l98 -165l131 165h107l-195 -229l67 -108q47 -75 59.5 -122.5t7.5 -96.5q-6 -58 -41 -91t-94 -33z" />
    <glyph glyph-name="uni0510" unicode="&#x510;" horiz-adv-x="564" 
d="M452 214h91q-11 -107 -85 -168.5t-183 -61.5q-105 0 -162 58.5t-46 153.5q7 68 48.5 113t100.5 55q-52 12 -81 55.5t-22 103.5q9 91 78 142t167 51q104 0 163 -59.5t49 -154.5h-92q6 61 -30.5 96.5t-100.5 35.5q-59 0 -99 -33.5t-45 -84.5q-5 -50 24 -83t95 -33h54
l-8 -81h-54q-73 0 -111.5 -32.5t-43.5 -90.5q-6 -55 28 -92.5t99 -37.5q68 0 113.5 40t52.5 108z" />
    <glyph glyph-name="uni0511" unicode="&#x511;" horiz-adv-x="478" 
d="M359 137h87q-7 -67 -63 -108t-145 -41q-83 0 -134.5 36.5t-44.5 98.5q5 49 39 79t83 35q-45 7 -69 35t-20 74q6 56 59.5 91.5t134.5 35.5q84 0 131.5 -40t39.5 -105h-87q4 34 -19.5 54.5t-73.5 20.5q-43 0 -70.5 -19.5t-30.5 -49.5q-3 -32 17.5 -50.5t56.5 -18.5h65
l-7 -65h-69q-41 0 -66 -19t-28 -48q-4 -35 20.5 -54t73.5 -19q53 0 85 21t35 56z" />
    <glyph glyph-name="uni0512" unicode="&#x512;" horiz-adv-x="674" 
d="M224 700h444l-83 -782q-7 -66 -47 -101.5t-108 -35.5q-43 0 -65 11l9 82q19 -7 51 -7q33 0 50.5 18.5t21.5 59.5l71 674h-262l-37 -357q-29 -268 -209 -268h-40l9 86h26q51 0 81.5 41.5t41.5 142.5z" />
    <glyph glyph-name="uni0513" unicode="&#x513;" horiz-adv-x="550" 
d="M481 56h1l-16 -154q-6 -58 -41 -89.5t-93 -31.5q-43 0 -62 11l8 79q18 -7 46 -7q51 0 57 62l48 454h-180l-19 -182q-10 -98 -53 -150t-111 -52h-36l8 83h18q75 0 87 115l28 267h352z" />
    <glyph glyph-name="uni051C" unicode="&#x51c;" horiz-adv-x="958" 
d="M242 0l-165 700h96l121 -550l225 550h69l108 -550l238 550h96l-314 -700h-67l-113 542l-226 -542h-68z" />
    <glyph glyph-name="uni051D" unicode="&#x51d;" horiz-adv-x="745" 
d="M178 0l-122 461h95l76 -336l147 336h93l77 -336l146 336h96l-219 -461h-74l-84 354l-157 -354h-74z" />
    <glyph glyph-name="uni0524" unicode="&#x524;" horiz-adv-x="665" 
d="M594 82h46l-22 -202h-87l13 120h-50l65 618h-323l-65 -618h-91l74 700h505z" />
    <glyph glyph-name="uni0525" unicode="&#x525;" horiz-adv-x="575" 
d="M495 82h46l-22 -202h-87l13 120h-46l41 388h-237l-41 -388h-87l48 461h411z" />
    <glyph glyph-name="uni0526" unicode="&#x526;" horiz-adv-x="621" 
d="M543 82h46l-22 -202h-87l13 120h-50l25 237q16 159 -127 159q-83 0 -132 -37l-38 -359h-91l74 700h91l-28 -259q64 37 157 37q100 0 148.5 -60.5t38.5 -157.5z" />
    <glyph glyph-name="uni0527" unicode="&#x527;" horiz-adv-x="585" 
d="M505 82h45l-22 -202h-87l13 120h-45l26 246q8 78 -15.5 115t-84.5 37q-63 0 -100.5 -41t-45.5 -113l-26 -244h-87l74 700h87l-34 -324q24 45 68 71t103 26q172 0 152 -189z" />
    <glyph glyph-name="uni0E3F" unicode="&#xe3f;" horiz-adv-x="582" 
d="M557 186q-10 -86 -73 -136t-163 -50l-10 -99h-67l10 99h-174l72 681h174l10 99h67l-10 -99q96 -3 146 -49.5t42 -127.5q-7 -67 -46.5 -107t-102.5 -50q60 -6 96 -49t29 -112zM370 601h-136l-23 -216h142q57 0 94 29t42 79q5 51 -26.5 79.5t-92.5 28.5zM328 81q59 0 96 30
t42 84q5 49 -25 80t-83 31h-155l-23 -225h148z" />
    <glyph glyph-name="Wgrave" unicode="&#x1e80;" horiz-adv-x="958" 
d="M645 731l-206 104l37 59l207 -103zM242 0l-165 700h96l121 -550l225 550h69l108 -550l238 550h96l-314 -700h-67l-113 542l-226 -542h-68z" />
    <glyph glyph-name="wgrave" unicode="&#x1e81;" horiz-adv-x="745" 
d="M542 505l-262 117l36 65l262 -114zM178 0l-122 461h95l76 -336l147 336h93l77 -336l146 336h96l-219 -461h-74l-84 354l-157 -354h-74z" />
    <glyph glyph-name="Wacute" unicode="&#x1e82;" horiz-adv-x="958" 
d="M468 731l-26 60l229 103l25 -59zM242 0l-165 700h96l121 -550l225 550h69l108 -550l238 550h96l-314 -700h-67l-113 542l-226 -542h-68z" />
    <glyph glyph-name="wacute" unicode="&#x1e83;" horiz-adv-x="745" 
d="M295 506l-22 68l286 114l22 -65zM178 0l-122 461h95l76 -336l147 336h93l77 -336l146 336h96l-219 -461h-74l-84 354l-157 -354h-74z" />
    <glyph glyph-name="Wdieresis" unicode="&#x1e84;" horiz-adv-x="958" 
d="M440 747q-28 0 -45 19.5t-14 47.5t24 47.5t49 19.5q29 0 46.5 -19.5t14.5 -47.5t-25 -47.5t-50 -19.5zM677 747q-28 0 -45.5 19.5t-14.5 47.5t24.5 47.5t49.5 19.5t45.5 -19.5t14.5 -47.5t-24.5 -47.5t-49.5 -19.5zM242 0l-165 700h96l121 -550l225 550h69l108 -550
l238 550h96l-314 -700h-67l-113 542l-226 -542h-68z" />
    <glyph glyph-name="wdieresis" unicode="&#x1e85;" horiz-adv-x="745" 
d="M330 539q-28 0 -45.5 19.5t-14.5 47.5t24.5 47.5t49.5 19.5q29 0 46 -19.5t14 -47.5t-24.5 -47.5t-49.5 -19.5zM530 539q-28 0 -45.5 19.5t-14.5 47.5t24.5 47.5t49.5 19.5q29 0 46 -19.5t14 -47.5t-24.5 -47.5t-49.5 -19.5zM178 0l-122 461h95l76 -336l147 336h93
l77 -336l146 336h96l-219 -461h-74l-84 354l-157 -354h-74z" />
    <glyph glyph-name="Ygrave" unicode="&#x1ef2;" horiz-adv-x="552" 
d="M491 791l-38 -60l-206 104l37 59zM541 700h100l-426 -700h-101l170 278l-220 422h106l170 -328z" />
    <glyph glyph-name="ygrave" unicode="&#x1ef3;" horiz-adv-x="567" 
d="M446 505l-262 117l36 65l262 -114zM453 461h87l-49 -470q-12 -109 -80 -166q-63 -50 -157 -50q-100 0 -151 48q-45 42 -39 119h88q-2 -45 23 -69.5t86 -24.5q128 0 144 149l9 86q-56 -95 -170 -95q-87 0 -125.5 53.5t-28.5 144.5l28 275h87l-27 -257q-7 -67 16 -102.5
t87 -35.5q63 0 102 45.5t46 112.5z" />
    <glyph glyph-name="uni2002" unicode="&#x2002;" horiz-adv-x="500" 
 />
    <glyph glyph-name="uni2003" unicode="&#x2003;" horiz-adv-x="1000" 
 />
    <glyph glyph-name="uni2004" unicode="&#x2004;" horiz-adv-x="0" 
 />
    <glyph glyph-name="uni2005" unicode="&#x2005;" horiz-adv-x="250" 
 />
    <glyph glyph-name="uni2009" unicode="&#x2009;" horiz-adv-x="135" 
 />
    <glyph glyph-name="uni200A" unicode="&#x200a;" horiz-adv-x="75" 
 />
    <glyph glyph-name="endash" unicode="&#x2013;" horiz-adv-x="611" 
d="M78 235l7 70h506l-7 -70h-506z" />
    <glyph glyph-name="emdash" unicode="&#x2014;" horiz-adv-x="798" 
d="M78 237l7 70h692l-7 -70h-692z" />
    <glyph glyph-name="quoteleft" unicode="&#x2018;" horiz-adv-x="276" 
d="M202 498q-33 0 -56 28t-17 80q6 59 42 96t93 37q20 0 30 -3l-4 -40q-11 2 -31 2q-40 0 -58 -33q-17 -22 -19 -50q14 15 39 15q27 0 44 -18t13 -47q-3 -29 -24 -48t-52 -19z" />
    <glyph glyph-name="quoteright" unicode="&#x2019;" horiz-adv-x="276" 
d="M201 718q33 0 56.5 -28.5t17.5 -79.5q-6 -59 -42 -96t-93 -37q-19 0 -31 3l5 40q10 -2 30 -2q41 0 59 33q16 21 19 50q-14 -15 -39 -15q-27 0 -44 18t-14 47q4 30 25 48.5t51 18.5z" />
    <glyph glyph-name="quotesinglbase" unicode="&#x201a;" horiz-adv-x="276" 
d="M139 124q33 0 56 -28t18 -80q-6 -59 -42 -96t-93 -37q-19 0 -31 3l4 40q11 -2 31 -2q40 0 58 33q17 21 20 50q-14 -15 -40 -15q-27 0 -43.5 18t-13.5 47t24 48t52 19z" />
    <glyph glyph-name="quotedblleft" unicode="&#x201c;" horiz-adv-x="460" 
d="M202 498q-33 0 -56 28t-17 80q6 59 42 96t93 37q20 0 30 -3l-4 -40q-11 2 -31 2q-40 0 -58 -33q-17 -22 -19 -50q14 15 39 15q27 0 44 -18t13 -47q-3 -29 -24 -48t-52 -19zM386 498q-33 0 -56 28t-17 80q6 59 42 96t93 37q19 0 30 -3l-4 -40q-11 2 -31 2q-40 0 -58 -33
q-17 -22 -19 -50q14 15 39 15q27 0 44 -18t13 -47q-3 -29 -24 -48t-52 -19z" />
    <glyph glyph-name="quotedblright" unicode="&#x201d;" horiz-adv-x="460" 
d="M201 718q33 0 56.5 -28.5t17.5 -79.5q-6 -59 -42 -96t-93 -37q-19 0 -31 3l5 40q10 -2 30 -2q41 0 59 33q16 21 19 50q-14 -15 -39 -15q-27 0 -44 18t-14 47q4 30 25 48.5t51 18.5zM385 718q33 0 56.5 -28.5t17.5 -79.5q-6 -59 -42 -96t-93 -37q-19 0 -31 3l5 40
q10 -2 30 -2q41 0 59 33q16 21 19 50q-14 -15 -39 -15q-27 0 -44 18t-14 47q4 30 25 48.5t51 18.5z" />
    <glyph glyph-name="quotedblbase" unicode="&#x201e;" horiz-adv-x="460" 
d="M139 124q33 0 56 -28t18 -80q-6 -59 -42 -96t-93 -37q-19 0 -31 3l4 40q11 -2 31 -2q40 0 58 33q17 21 20 50q-14 -15 -40 -15q-27 0 -43.5 18t-13.5 47t24 48t52 19zM323 124q33 0 56 -28t18 -80q-6 -59 -42 -96t-93 -37q-19 0 -31 3l4 40q11 -2 31 -2q40 0 58 33
q17 21 20 50q-14 -15 -40 -15q-27 0 -43.5 18t-13.5 47t24 48t52 19z" />
    <glyph glyph-name="dagger" unicode="&#x2020;" horiz-adv-x="435" 
d="M155 -182l59 561h-124l8 77h124l27 261h87l-27 -261h124l-8 -77h-124l-59 -561h-87z" />
    <glyph glyph-name="daggerdbl" unicode="&#x2021;" horiz-adv-x="435" 
d="M155 -182l20 191h-124l8 76h124l31 296h-124l8 75h124l27 261h87l-27 -261h124l-8 -75h-124l-31 -296h124l-8 -76h-124l-20 -191h-87z" />
    <glyph glyph-name="bullet" unicode="&#x2022;" horiz-adv-x="358" 
d="M200 196q-48 0 -78.5 34t-25.5 82q5 49 42.5 83t85.5 34q49 0 79.5 -34t25.5 -83q-5 -48 -42.5 -82t-86.5 -34z" />
    <glyph glyph-name="ellipsis" unicode="&#x2026;" horiz-adv-x="771" 
d="M142 -11q-31 0 -50 21.5t-15 51.5q3 30 26 51.5t54 21.5q30 0 49.5 -21.5t16.5 -51.5q-4 -30 -27.5 -51.5t-53.5 -21.5zM383 -11q-31 0 -50 21.5t-15 51.5q3 30 26 51.5t54 21.5q30 0 49.5 -21.5t16.5 -51.5q-4 -30 -27.5 -51.5t-53.5 -21.5zM627 -11q-31 0 -50 21.5
t-15 51.5q3 30 26 51.5t54 21.5q30 0 49.5 -21.5t16.5 -51.5q-4 -30 -27.5 -51.5t-53.5 -21.5z" />
    <glyph glyph-name="perthousand" unicode="&#x2030;" horiz-adv-x="1159" 
d="M180 -15l-55 33l544 682l53 -32zM233 348q-80 0 -123 49.5t-36 120.5q8 71 61 120.5t133 49.5t123 -49.5t35 -120.5q-7 -71 -60 -120.5t-133 -49.5zM240 416q47 0 76.5 29t33.5 73q5 44 -19 73t-70 29t-75.5 -29t-34.5 -73q-4 -44 19.5 -73t69.5 -29zM582 -5
q-80 0 -122.5 49.5t-35.5 120.5q8 71 61 120.5t133 49.5t123 -49.5t35 -120.5q-7 -71 -60.5 -120.5t-133.5 -49.5zM961 -5q-80 0 -122.5 49.5t-35.5 120.5q8 71 61 120.5t133 49.5t123 -49.5t35 -120.5q-7 -71 -60.5 -120.5t-133.5 -49.5zM590 63q46 0 75.5 29t34.5 73
t-19 73t-70 29t-75.5 -29t-34.5 -73t19 -73t70 -29zM969 63q46 0 75.5 29t34.5 73t-19 73t-70 29t-75.5 -29t-34.5 -73t19 -73t70 -29z" />
    <glyph glyph-name="guilsinglleft" unicode="&#x2039;" horiz-adv-x="276" 
d="M220 69l-187 192l228 192l43 -50l-167 -142l138 -141z" />
    <glyph glyph-name="guilsinglright" unicode="&#x203a;" horiz-adv-x="276" 
d="M70 69l-43 51l166 141l-137 142l55 50l186 -192z" />
    <glyph glyph-name="fraction" unicode="&#x2044;" horiz-adv-x="155" 
d="M-131 -20l-55 38l545 682l54 -38z" />
    <glyph glyph-name="uni2070" unicode="&#x2070;" horiz-adv-x="414" 
d="M248 392q-81 0 -118 52.5t-26 152.5q11 101 58.5 153.5t128.5 52.5t118 -53t27 -153q-11 -100 -59 -152.5t-129 -52.5zM255 455q91 0 106 142q15 143 -76 143t-106 -143q-15 -142 76 -142z" />
    <glyph glyph-name="uni2074" unicode="&#x2074;" horiz-adv-x="390" 
d="M416 584l-6 -64h-57l-13 -120h-74l13 120h-171l28 274h74l-22 -210h97l12 109h74l-12 -109h57z" />
    <glyph glyph-name="uni2075" unicode="&#x2075;" horiz-adv-x="395" 
d="M241 392q-66 0 -102.5 30.5t-34.5 84.5h74q-1 -25 18.5 -39.5t51.5 -14.5q37 0 61.5 22t28.5 60q4 36 -15 57t-54 21q-56 0 -81 -43h-67l23 224h269l-6 -58h-202l-11 -105q35 37 100 37q59 0 91.5 -36t25.5 -95q-7 -66 -53 -105.5t-117 -39.5z" />
    <glyph glyph-name="uni2076" unicode="&#x2076;" horiz-adv-x="390" 
d="M267 683q70 0 107.5 -41t30.5 -105q-6 -63 -52.5 -104.5t-116.5 -41.5t-107.5 41.5t-31.5 104.5q6 48 34 85l143 172h87l-99 -111h5zM243 452q37 0 61 24t28 61t-15.5 61t-56.5 24q-38 0 -63 -24t-29 -61t16.5 -61t58.5 -24z" />
    <glyph glyph-name="uni2077" unicode="&#x2077;" horiz-adv-x="352" 
d="M92 400l218 331h-194l6 63h304l-249 -394h-85z" />
    <glyph glyph-name="uni2078" unicode="&#x2078;" horiz-adv-x="396" 
d="M239 392q-70 0 -108.5 30t-33.5 83q4 38 27.5 64t63.5 35q-33 9 -50 34t-14 58q5 49 48.5 77.5t109.5 28.5t103 -29t32 -77q-3 -34 -25 -58.5t-59 -33.5q80 -18 72 -99q-5 -53 -50 -83t-116 -30zM264 631q33 0 55.5 16.5t25.5 42.5q2 28 -16.5 44.5t-51.5 16.5
t-55.5 -16.5t-24.5 -44.5q-3 -26 15.5 -42.5t51.5 -16.5zM245 446q36 0 59.5 18.5t26.5 47.5q3 30 -16.5 47.5t-55.5 17.5t-59.5 -17.5t-26.5 -47.5q-3 -29 16.5 -47.5t55.5 -18.5z" />
    <glyph glyph-name="uni2079" unicode="&#x2079;" horiz-adv-x="390" 
d="M418 657q-4 -48 -34 -85l-143 -172h-87l100 111h-5q-70 0 -108 41.5t-31 104.5t53 104.5t116 41.5t108 -41.5t31 -104.5zM183 657q-4 -37 15.5 -61t56.5 -24q38 0 63 24t29 61t-16 61t-58 24q-37 0 -61.5 -24t-28.5 -61z" />
    <glyph glyph-name="uni207A" unicode="&#x207a;" horiz-adv-x="399" 
d="M218 453l11 106h-107l6 56h107l11 106h58l-11 -106h107l-6 -56h-107l-11 -106h-58z" />
    <glyph glyph-name="uni207B" unicode="&#x207b;" horiz-adv-x="399" 
d="M122 559l6 56h272l-6 -56h-272z" />
    <glyph glyph-name="uni207C" unicode="&#x207c;" horiz-adv-x="398" 
d="M124 628l6 56h283l-6 -56h-283zM110 494l6 55h283l-6 -55h-283z" />
    <glyph glyph-name="uni207D" unicode="&#x207d;" horiz-adv-x="243" 
d="M209 327q-111 123 -95 277q10 89 49 153.5t104 122.5l48 -43q-62 -54 -93 -106.5t-39 -126.5q-7 -75 12.5 -127.5t70.5 -106.5z" />
    <glyph glyph-name="uni207E" unicode="&#x207e;" horiz-adv-x="243" 
d="M102 327l-47 43q62 54 93 107t38 127q8 74 -11.5 126.5t-70.5 106.5l56 43q53 -58 79 -122.5t16 -153.5q-9 -89 -48.5 -154t-104.5 -123z" />
    <glyph glyph-name="uni2080" unicode="&#x2080;" horiz-adv-x="414" 
d="M198 -86q-81 0 -118 52.5t-26 152.5q11 101 58.5 153.5t128.5 52.5t118 -53t27 -153q-11 -100 -59 -152.5t-129 -52.5zM205 -23q46 0 72 34.5t34 107.5q15 143 -76 143t-106 -143q-16 -142 76 -142z" />
    <glyph glyph-name="uni2081" unicode="&#x2081;" horiz-adv-x="276" 
d="M115 -78l28 267h-92l6 57q59 0 81.5 16t26.5 54h63l-41 -394h-72z" />
    <glyph glyph-name="uni2082" unicode="&#x2082;" horiz-adv-x="380" 
d="M26 -78q8 71 36 112.5t88 69.5l70 32q55 24 60 72q3 26 -12.5 41.5t-43.5 15.5q-36 0 -57.5 -20.5t-25.5 -58.5h-77q6 63 51 100.5t114 37.5q65 0 100 -30t29 -82q-8 -79 -93 -119l-67 -32q-34 -16 -50 -33t-23 -44h207l-6 -62h-300z" />
    <glyph glyph-name="uni2083" unicode="&#x2083;" horiz-adv-x="387" 
d="M182 -86q-73 0 -109.5 35t-29.5 97h76q-4 -34 15 -53t56 -19q34 0 55.5 16.5t24.5 44.5q6 63 -71 63h-38l6 58h39q71 0 77 57q3 25 -14.5 40t-47.5 15q-33 0 -54 -17t-25 -47h-75q6 55 49.5 87.5t112.5 32.5q64 0 100 -29t31 -78q-8 -72 -90 -90q39 -5 60 -31t16 -64
q-5 -53 -50 -85.5t-114 -32.5z" />
    <glyph glyph-name="uni2084" unicode="&#x2084;" horiz-adv-x="390" 
d="M366 106l-7 -64h-57l-12 -120h-74l12 120h-171l29 274h74l-22 -210h97l12 109h74l-12 -109h57z" />
    <glyph glyph-name="uni2085" unicode="&#x2085;" horiz-adv-x="395" 
d="M191 -86q-67 0 -103.5 30.5t-33.5 84.5h74q-1 -25 18 -39.5t51 -14.5q38 0 62.5 22.5t28.5 59.5q4 36 -15 57t-54 21q-56 0 -81 -43h-67l23 224h269l-6 -58h-202l-11 -105q35 37 100 37q59 0 91.5 -36t25.5 -95q-7 -66 -53 -105.5t-117 -39.5z" />
    <glyph glyph-name="uni2086" unicode="&#x2086;" horiz-adv-x="390" 
d="M217 205q70 0 107.5 -41t30.5 -105q-6 -63 -52.5 -104.5t-116.5 -41.5t-107.5 41.5t-31.5 104.5q6 48 34 85l143 172h87l-99 -111h5zM192 -26q37 0 61.5 24t28.5 61t-15.5 61t-56.5 24q-38 0 -63 -24t-29 -61t16 -61t58 -24z" />
    <glyph glyph-name="uni2087" unicode="&#x2087;" horiz-adv-x="352" 
d="M42 -78l218 331h-194l6 63h304l-249 -394h-85z" />
    <glyph glyph-name="uni2088" unicode="&#x2088;" horiz-adv-x="396" 
d="M189 -86q-71 0 -109.5 30t-32.5 83q4 38 27.5 64t63.5 35q-34 9 -51 34t-13 58q5 49 48.5 77.5t109.5 28.5t103 -29t32 -77q-4 -34 -25.5 -58.5t-58.5 -33.5q80 -18 72 -99q-6 -53 -51 -83t-115 -30zM214 153q33 0 55.5 16.5t24.5 42.5q3 28 -15.5 44.5t-51.5 16.5
t-55.5 -16.5t-25.5 -44.5q-2 -26 16.5 -42.5t51.5 -16.5zM195 -32q36 0 59 18t27 48q3 30 -17 47.5t-56 17.5t-59 -17.5t-26 -47.5q-4 -29 16 -47.5t56 -18.5z" />
    <glyph glyph-name="uni2089" unicode="&#x2089;" horiz-adv-x="390" 
d="M368 179q-6 -48 -34 -85l-143 -172h-87l99 111h-5q-70 0 -107.5 41t-30.5 105q6 63 52.5 104.5t116.5 41.5t107.5 -41.5t31.5 -104.5zM133 179q-4 -37 15.5 -61t56.5 -24q38 0 63 24t29 61t-16 61t-58 24q-37 0 -61.5 -24t-28.5 -61z" />
    <glyph glyph-name="uni208A" unicode="&#x208a;" horiz-adv-x="399" 
d="M167 -33l11 106h-107l6 56h107l11 106h58l-11 -106h107l-6 -56h-107l-11 -106h-58z" />
    <glyph glyph-name="uni208B" unicode="&#x208b;" horiz-adv-x="399" 
d="M71 73l6 56h272l-6 -56h-272z" />
    <glyph glyph-name="uni208C" unicode="&#x208c;" horiz-adv-x="398" 
d="M73 142l6 56h283l-6 -56h-283zM59 8l6 55h283l-6 -55h-283z" />
    <glyph glyph-name="uni208D" unicode="&#x208d;" horiz-adv-x="243" 
d="M158 -159q-53 58 -78.5 123t-16.5 154q10 89 49 153.5t104 122.5l48 -43q-62 -54 -93 -106.5t-39 -126.5q-7 -75 12.5 -127.5t70.5 -106.5z" />
    <glyph glyph-name="uni208E" unicode="&#x208e;" horiz-adv-x="243" 
d="M51 -159l-47 43q62 54 93 107t38 127q8 74 -11.5 126.5t-70.5 106.5l56 43q53 -58 79 -122.5t16 -153.5q-9 -89 -48.5 -154t-104.5 -123z" />
    <glyph glyph-name="uni20A9" unicode="&#x20a9;" horiz-adv-x="758" 
d="M782 381h-86l-24 -81h102l-8 -67h-115l-71 -233h-86l-58 540l-172 -540h-86l-23 233h-115l8 67h102l-8 81h-86l7 66h73l-23 233h93l33 -546l175 546h72l61 -546l147 546h93l-71 -233h73z" />
    <glyph glyph-name="Euro" unicode="&#x20ac;" horiz-adv-x="595" 
d="M332 69q57 0 95 34t51 92h89q-21 -90 -84.5 -148t-158.5 -58q-208 0 -210 254h-67l23 61h45q0 1 3 37q2 24 5 36h-60l22 61h48q58 254 265 254q95 0 146.5 -57.5t53.5 -148.5h-89q-2 58 -32.5 92t-87.5 34q-70 0 -109.5 -45t-58.5 -129h206l-22 -61h-194q-3 -12 -5 -36
q-3 -20 -3 -37h209l-22 -61h-189q2 -84 32 -129t99 -45z" />
    <glyph glyph-name="uni20AE" unicode="&#x20ae;" horiz-adv-x="521" 
d="M578 598h-209l-15 -143l129 59l-7 -70l-130 -59l-6 -66l129 59l-8 -70l-129 -59l-26 -249h-91l22 206l-130 -59l8 69l129 59l7 67l-129 -59l7 70l129 59l20 186h-209l8 82h509z" />
    <glyph glyph-name="uni20B4" unicode="&#x20b4;" horiz-adv-x="562" 
d="M397 335l-67 -30h234l-22 -50h-319q-32 -17 -46 -36.5t-17 -50.5q-5 -47 25.5 -73.5t91.5 -26.5q70 0 113.5 30t48.5 82h84q-9 -86 -77 -139t-178 -53q-97 0 -150.5 46.5t-45.5 126.5q6 57 34 94h-49l22 50h79q20 14 54 29l103 44h-245l22 50h319q39 31 44 89
q5 44 -23.5 70.5t-82.5 26.5q-62 0 -99 -27t-42 -76h-84q8 83 71.5 132t159.5 49q93 0 143.5 -45.5t42.5 -125.5q-6 -54 -32 -93h68l-22 -50h-89q-29 -24 -69 -43z" />
    <glyph glyph-name="uni20B8" unicode="&#x20b8;" horiz-adv-x="521" 
d="M69 598l8 82h509l-8 -82h-509zM215 0l46 441h-209l9 82h509l-9 -82h-209l-46 -441h-91z" />
    <glyph glyph-name="uni20B9" unicode="&#x20b9;" horiz-adv-x="524" 
d="M442 619q56 -60 55 -150h82l-23 -61h-65q-15 -71 -60.5 -123t-111.5 -74l121 -211h-105l-112 197h-144l8 82h151q57 0 101.5 36t60.5 93h-299l6 61h299q-4 58 -40.5 93.5t-93.5 35.5h-151l8 82h472l-23 -61h-136z" />
    <glyph glyph-name="uni20BA" unicode="&#x20ba;" horiz-adv-x="479" 
d="M408 264h89q-15 -134 -101 -199t-228 -65h-88l23 219l-54 -25l8 69l53 25l7 68l-53 -25l7 69l54 25l26 255h91l-22 -210l164 76l-7 -69l-164 -76l-7 -68l164 76l-7 -69l-164 -76l-19 -182q209 0 228 182z" />
    <glyph glyph-name="uni20BD" unicode="&#x20bd;" horiz-adv-x="594" 
d="M366 197h-155l-6 -59h170l-7 -59h-170l-8 -79h-91l8 79h-100l7 59h100l6 59h-100l8 82h100l42 401h246q103 0 162 -68t48 -174q-11 -105 -84 -173t-176 -68zM253 598l-34 -319h150q65 0 112 45t54 114q7 70 -30 115t-102 45h-150z" />
    <glyph glyph-name="uni2113" unicode="&#x2113;" horiz-adv-x="411" 
d="M262 -11q-21 0 -37.5 2t-39.5 11.5t-37 27.5t-22.5 53t-3.5 83l1 7l-69 -52l-33 66l112 77l25 243q11 103 50 156.5t113 53.5q66 0 97.5 -47.5t23.5 -127.5q-8 -82 -69 -156t-169 -156l-7 -69q-4 -33 2.5 -54.5t21.5 -29.5t27.5 -10.5t31.5 -2.5q46 0 80 19l-3 -71
q-35 -23 -95 -23zM214 325q77 65 112 115t40 105q11 103 -49 103q-68 0 -82 -126z" />
    <glyph glyph-name="uni2116" unicode="&#x2116;" horiz-adv-x="1113" 
d="M80 0l74 700h97l257 -548l58 548h87l-74 -700h-96l-257 548l-58 -548h-88zM844 115q-90 0 -139 56.5t-40 137.5q9 82 69.5 138.5t150.5 56.5q91 0 140 -56.5t40 -138.5t-69.5 -138t-151.5 -56zM852 190q51 0 86.5 34.5t40.5 84.5t-23 84.5t-79 34.5q-50 0 -85.5 -34.5
t-40.5 -84.5t23 -84.5t78 -34.5zM633 0l8 78h400l-8 -78h-400z" />
    <glyph glyph-name="trademark" unicode="&#x2122;" horiz-adv-x="832" 
d="M136 293l36 348h-99l7 59h264l-7 -59h-99l-36 -348h-66zM367 293l43 407h107l70 -294l132 294h107l-43 -407h-65l35 334l-149 -334h-58l-79 334l-35 -334h-65z" />
    <glyph glyph-name="uni2126" unicode="&#x2126;" horiz-adv-x="702" 
d="M58 0l9 82h183l3 28q-90 32 -137 110.5t-36 178.5q14 132 109 222.5t237 90.5t218 -91t62 -222q-11 -100 -74 -179t-159 -110l-3 -28h183l-9 -82h-255l17 160q90 17 145 85t64 158q10 96 -42 161.5t-156 65.5t-170 -65.5t-76 -161.5q-9 -90 31.5 -158t127.5 -85l-17 -160
h-255z" />
    <glyph glyph-name="estimated" unicode="&#x212e;" horiz-adv-x="516" 
d="M267 -12q-110 0 -162.5 70.5t-42.5 172.5q12 107 79.5 174.5t173.5 67.5q90 0 145.5 -60t46.5 -148q0 -1 -1.5 -11t-2.5 -18h-339l-20 -184q50 -42 125 -42q68 0 119.5 33t72.5 82h23q-22 -59 -80.5 -98t-136.5 -39zM166 259h241l17 155q-46 37 -112 37q-72 0 -130 -40z
" />
    <glyph glyph-name="uni2153" unicode="&#x2153;" horiz-adv-x="785" 
d="M142 -20l-55 38l545 682l54 -38zM153 286l28 267h-92l6 57q59 0 81.5 16t26.5 54h63l-41 -394h-72zM588 -8q-73 0 -109.5 35t-29.5 97h76q-4 -34 15 -53t56 -19q34 0 55.5 16.5t24.5 44.5q6 63 -71 63h-38l7 58h39q71 0 77 57q2 25 -15.5 40t-47.5 15q-33 0 -54 -17
t-24 -47h-75q5 54 48.5 87t112.5 33q64 0 100 -29t31 -78q-8 -72 -89 -90q38 -5 59 -31t17 -64q-6 -53 -51 -85.5t-114 -32.5z" />
    <glyph glyph-name="uni2154" unicode="&#x2154;" horiz-adv-x="892" 
d="M249 -20l-55 38l545 682l54 -38zM64 286q8 71 36 112.5t88 69.5l71 32q54 24 59 72q3 26 -12.5 41.5t-43.5 15.5q-36 0 -57.5 -20.5t-25.5 -58.5h-77q7 63 52 100.5t113 37.5q65 0 100 -30t30 -82q-9 -80 -94 -119l-66 -32q-35 -16 -51 -33t-22 -44h207l-7 -62h-300z
M695 -8q-73 0 -109.5 35t-29.5 97h76q-4 -34 15 -53t56 -19q34 0 55.5 16.5t24.5 44.5q6 63 -71 63h-38l7 58h39q71 0 77 57q2 25 -15.5 40t-47.5 15q-33 0 -54 -17t-24 -47h-75q5 54 48.5 87t112.5 33q64 0 100 -29t31 -78q-8 -72 -89 -90q38 -5 59 -31t17 -64
q-6 -53 -51 -85.5t-114 -32.5z" />
    <glyph glyph-name="arrowleft" unicode="&#x2190;" horiz-adv-x="720" 
d="M261 134l-214 216l259 216l43 -52l-157 -128h559l-8 -72h-558l130 -127z" />
    <glyph glyph-name="arrowup" unicode="&#x2191;" horiz-adv-x="487" 
d="M207 0l59 557l-142 -142l-47 49l241 236l191 -236l-58 -49l-113 144l-59 -559h-72z" />
    <glyph glyph-name="arrowright" unicode="&#x2192;" horiz-adv-x="720" 
d="M488 134l-43 52l157 128h-559l8 72h557l-129 127l54 53l214 -216z" />
    <glyph glyph-name="arrowdown" unicode="&#x2193;" horiz-adv-x="487" 
d="M244 0l-191 237l57 48l113 -144l59 559h72l-59 -558l142 143l48 -48z" />
    <glyph glyph-name="uni2196" unicode="&#x2196;" horiz-adv-x="570" 
d="M502 77l-352 394l-9 -190l-73 -4l20 320l318 -14l-10 -72l-191 11l353 -394z" />
    <glyph glyph-name="uni2197" unicode="&#x2197;" horiz-adv-x="570" 
d="M84 77l-46 51l436 394l-191 -11l3 72l322 14l-48 -320l-71 4l32 191z" />
    <glyph glyph-name="uni2198" unicode="&#x2198;" horiz-adv-x="570" 
d="M556 103l-319 14l12 72l190 -11l-354 394l56 51l353 -394l9 191l72 3z" />
    <glyph glyph-name="uni2199" unicode="&#x2199;" horiz-adv-x="570" 
d="M36 103l47 320l72 -3l-31 -192l435 395l46 -51l-435 -394l192 11l-5 -72z" />
    <glyph glyph-name="partialdiff" unicode="&#x2202;" horiz-adv-x="577" 
d="M353 716q250 0 210 -375q-20 -185 -89.5 -271.5t-191.5 -86.5q-116 0 -168 65.5t-42 160.5q11 101 80 167t170 66q102 0 157 -69q12 145 -20 204t-111 59q-69 0 -107 -38t-44 -97h-91q9 93 75.5 154t171.5 61zM288 64q81 0 122.5 55t59.5 172q-47 71 -146 71
q-75 0 -117.5 -43.5t-49.5 -109.5q-7 -62 24.5 -103.5t106.5 -41.5z" />
    <glyph glyph-name="emptyset" unicode="&#x2205;" 
d="M607 516l-63 -57q40 -59 31 -142q-10 -99 -79 -160.5t-166 -61.5q-81 0 -137 46l-62 -56l-30 34l61 56q-40 59 -31 142q10 99 79.5 160.5t166.5 61.5q81 0 137 -46l63 57zM188 317q-6 -61 20 -101l263 238q-40 31 -99 31q-74 0 -125 -46t-59 -122zM519 317q7 58 -19 102
l-263 -238q40 -31 100 -31q73 0 124 45.5t58 121.5z" />
    <glyph glyph-name="uni2206" unicode="&#x2206;" horiz-adv-x="584" 
d="M18 0l315 700h66l168 -700h-549zM153 82h296l-99 469z" />
    <glyph glyph-name="product" unicode="&#x220f;" horiz-adv-x="720" 
d="M91 -213l97 926h-63l8 81h620l-8 -81h-62l-97 -926h-91l97 926h-313l-97 -926h-91z" />
    <glyph glyph-name="summation" unicode="&#x2211;" horiz-adv-x="620" 
d="M28 -213l8 82l403 422l-314 422l8 81h520l-8 -85h-404l313 -418l-401 -418h404l-9 -86h-520z" />
    <glyph glyph-name="minus" unicode="&#x2212;" horiz-adv-x="504" 
d="M82 276l8 77h399l-8 -77h-399z" />
    <glyph glyph-name="radical" unicode="&#x221a;" horiz-adv-x="780" 
d="M283 -213l-97 389h-118l9 78h182l72 -317l386 857h96l-464 -1007h-66z" />
    <glyph glyph-name="infinity" unicode="&#x221e;" horiz-adv-x="878" 
d="M263 87q-96 0 -143.5 59.5t-39.5 142.5q9 83 69 142.5t157 59.5q110 0 172 -119q87 119 198 119q96 0 144 -58t38 -144q-9 -86 -69 -144t-156 -58q-52 0 -97 30t-75 89q-87 -119 -198 -119zM271 165q38 0 79 31.5t74 92.5q-20 61 -54.5 92.5t-72.5 31.5q-57 0 -93 -36
t-42 -88t23 -88t86 -36zM641 165q57 0 93 36t42 88t-23 88t-86 36q-38 0 -79.5 -31.5t-73.5 -92.5q19 -61 53.5 -92.5t73.5 -31.5z" />
    <glyph glyph-name="integral" unicode="&#x222b;" horiz-adv-x="366" 
d="M106 -217q-49 0 -78 12l8 73q26 -9 43 -9q46 0 53 62l78 741q7 69 37.5 100.5t72.5 31.5q54 0 78 -11l-7 -74q-26 9 -44 9q-46 0 -52 -62l-78 -740q-7 -69 -38 -101t-73 -32z" />
    <glyph glyph-name="approxequal" unicode="&#x2248;" horiz-adv-x="530" 
d="M402 319q-39 0 -99.5 34t-104.5 34q-51 0 -110 -53l8 76q48 55 114 55q35 0 105 -34t96 -34q52 0 113 54l-8 -76q-52 -56 -114 -56zM385 160q-37 0 -98 34t-105 34q-51 0 -110 -53l8 76q50 55 113 55q35 0 105.5 -34t95.5 -34q51 0 115 54l-8 -76q-52 -56 -116 -56z" />
    <glyph glyph-name="notequal" unicode="&#x2260;" horiz-adv-x="529" 
d="M515 363h-154l-54 -99h198l-8 -78h-234l-58 -104h-72l58 104h-118l8 78h153l55 99h-198l8 78h233l58 104h73l-58 -104h118z" />
    <glyph glyph-name="lessequal" unicode="&#x2264;" horiz-adv-x="504" 
d="M472 217l-382 118l7 63l406 118l-8 -83l-266 -66l251 -68zM460 81h-399l8 78h399z" />
    <glyph glyph-name="greaterequal" unicode="&#x2265;" horiz-adv-x="504" 
d="M78 217l8 82l267 68l-252 66l8 83l382 -118l-7 -63zM62 81l8 78h399l-8 -78h-399z" />
    <glyph glyph-name="uni2460" unicode="&#x2460;" horiz-adv-x="797" 
d="M396 -17q-164 0 -251 105t-70 262q16 157 125 262t273 105t251.5 -105t71.5 -262q-17 -157 -126.5 -262t-273.5 -105zM403 44q131 0 219.5 88t102.5 218q13 130 -57 218t-201 88t-219.5 -88t-101.5 -218q-14 -130 56 -218t201 -88zM399 171l26 243h-84l5 52
q54 0 74.5 14.5t24.5 48.5h57l-38 -358h-65z" />
    <glyph glyph-name="uni2461" unicode="&#x2461;" horiz-adv-x="797" 
d="M396 -17q-164 0 -251 105t-70 262q16 157 125 262t273 105t251.5 -105t71.5 -262q-17 -157 -126.5 -262t-273.5 -105zM403 44q131 0 219.5 88t102.5 218q13 130 -57 218t-201 88t-219.5 -88t-101.5 -218q-14 -130 56 -218t201 -88zM270 176q7 64 32.5 102t80.5 63l64 30
q50 21 55 65q2 24 -12 38t-40 14q-32 0 -52 -19t-23 -53h-70q6 57 47 91t103 34q59 0 90.5 -27t26.5 -74q-8 -72 -84 -109l-60 -29q-32 -14 -46.5 -29.5t-21.5 -40.5h189l-6 -56h-273z" />
    <glyph glyph-name="uni2462" unicode="&#x2462;" horiz-adv-x="797" 
d="M396 -17q-164 0 -251 105t-70 262q16 157 125 262t273 105t251.5 -105t71.5 -262q-17 -157 -126.5 -262t-273.5 -105zM403 44q131 0 219.5 88t102.5 218q13 130 -57 218t-201 88t-219.5 -88t-101.5 -218q-14 -130 56 -218t201 -88zM416 164q-67 0 -99.5 31.5t-26.5 88.5
h69q-4 -31 13.5 -48.5t50.5 -17.5q31 0 50.5 15t22.5 41q6 57 -64 57h-35l5 53h36q64 0 70 52q2 22 -13.5 36t-43.5 14q-30 0 -49 -15.5t-22 -43.5h-68q5 50 44 79.5t102 29.5q59 0 91 -26t28 -71q-6 -65 -80 -82q34 -4 53 -28t15 -58q-5 -48 -45.5 -77.5t-103.5 -29.5z" />
    <glyph glyph-name="uni2463" unicode="&#x2463;" horiz-adv-x="797" 
d="M473 717q164 0 251.5 -105t71.5 -262q-17 -157 -126.5 -262t-273.5 -105t-251 105t-70 262q16 157 125 262t273 105zM403 44q131 0 219.5 88t102.5 218q13 130 -57 218t-201 88t-219.5 -88t-101.5 -218q-14 -130 56 -218t201 -88zM537 437l-10 -99h52l-7 -58h-52
l-11 -109h-67l11 109h-156l27 249h67l-20 -191h89l10 99h67z" />
    <glyph glyph-name="uni2464" unicode="&#x2464;" horiz-adv-x="797" 
d="M396 -17q-164 0 -251 105t-70 262q16 157 125 262t273 105t251.5 -105t71.5 -262q-17 -157 -126.5 -262t-273.5 -105zM403 44q131 0 219.5 88t102.5 218q13 130 -57 218t-201 88t-219.5 -88t-101.5 -218q-14 -130 56 -218t201 -88zM413 158q-60 0 -93.5 27.5t-31.5 76.5
h68q-2 -23 15.5 -36t46.5 -13q34 0 56 20.5t26 54.5q4 32 -13 51.5t-49 19.5q-52 0 -74 -39h-61l21 203h245l-6 -53h-184l-10 -95q34 34 92 34q53 0 82.5 -33t23.5 -86q-6 -60 -48 -96t-106 -36z" />
    <glyph glyph-name="uni2465" unicode="&#x2465;" horiz-adv-x="797" 
d="M473 717q164 0 251.5 -105t71.5 -262q-17 -157 -126.5 -262t-273.5 -105t-251 105t-70 262q16 157 125 262t273 105zM403 44q131 0 219.5 88t102.5 218q13 130 -57 218t-201 88t-219.5 -88t-101.5 -218q-14 -130 56 -218t201 -88zM440 433q64 0 98 -37t28 -95t-48 -95.5
t-106 -37.5q-63 0 -97.5 38t-28.5 95q5 44 31 77l130 156h79l-90 -101h4zM417 223q34 0 56.5 22t26.5 56q3 33 -14.5 55t-51.5 22t-57 -22t-26 -55q-4 -34 14 -56t52 -22z" />
    <glyph glyph-name="uni2466" unicode="&#x2466;" horiz-adv-x="797" 
d="M396 -17q-164 0 -251 105t-70 262q16 157 125 262t273 105t251.5 -105t71.5 -262q-17 -157 -126.5 -262t-273.5 -105zM403 44q131 0 219.5 88t102.5 218q13 130 -57 218t-201 88t-219.5 -88t-101.5 -218q-14 -130 56 -218t201 -88zM303 170l199 301h-177l5 57h277
l-226 -358h-78z" />
    <glyph glyph-name="uni2467" unicode="&#x2467;" horiz-adv-x="797" 
d="M396 -17q-164 0 -251 105t-70 262q16 157 125 262t273 105t251.5 -105t71.5 -262q-17 -157 -126.5 -262t-273.5 -105zM403 44q131 0 219.5 88t102.5 218q13 130 -57 218t-201 88t-219.5 -88t-101.5 -218q-14 -130 56 -218t201 -88zM415 164q-64 0 -99 27t-30 75
q4 35 25 59t58 31q-30 8 -46 31t-13 53q4 44 44 70t100 26t93.5 -26t29.5 -70q-3 -31 -23 -53.5t-54 -30.5q36 -7 53 -31t13 -59q-5 -48 -46 -75t-105 -27zM438 381q30 0 50 15t23 39q2 25 -14.5 40t-46.5 15t-50.5 -15t-22.5 -40q-3 -24 14 -39t47 -15zM420 213
q33 0 54.5 16.5t24.5 43.5q2 27 -15.5 43t-50.5 16t-54.5 -16t-23.5 -43q-3 -27 14.5 -43.5t50.5 -16.5z" />
    <glyph glyph-name="uni2468" unicode="&#x2468;" horiz-adv-x="797" 
d="M473 717q164 0 251.5 -105t71.5 -262q-17 -157 -126.5 -262t-273.5 -105t-251 105t-70 262q16 157 125 262t273 105zM403 44q131 0 219.5 88t102.5 218q13 130 -57 218t-201 88t-219.5 -88t-101.5 -218q-14 -130 56 -218t201 -88zM460 533q64 0 98 -37.5t28 -94.5
q-4 -45 -31 -79l1 1l-130 -156h-79l90 101h-5q-63 0 -97.5 37.5t-28.5 95.5q6 57 48.5 94.5t105.5 37.5zM373 401q-3 -34 14 -56t51 -22q35 0 58 22t26 56q4 33 -14.5 55t-53.5 22q-34 0 -55.5 -22t-25.5 -55z" />
    <glyph glyph-name="uni24EA" unicode="&#x24ea;" horiz-adv-x="797" 
d="M396 -17q-164 0 -251 105t-70 262q16 157 125 262t273 105t251.5 -105t71.5 -262q-17 -157 -126.5 -262t-273.5 -105zM403 44q131 0 219.5 88t102.5 218q13 130 -57 218t-201 88t-219.5 -88t-101.5 -218q-14 -130 56 -218t201 -88zM415 164q-74 0 -107.5 47.5
t-23.5 138.5q10 92 53.5 139.5t116.5 47.5q74 0 108 -48t24 -139t-53.5 -138.5t-117.5 -47.5zM421 221q84 0 97 129q13 130 -70 130t-96 -130q-13 -129 69 -129z" />
    <glyph glyph-name="uni24FF" unicode="&#x24ff;" horiz-adv-x="797" 
d="M396 -17q-164 0 -251 105t-70 262q16 157 125 262t273 105t251.5 -105t71.5 -262q-17 -157 -126.5 -262t-273.5 -105zM415 164q74 0 117.5 47.5t53.5 138.5t-24 139t-108 48q-73 0 -116.5 -47.5t-53.5 -139.5q-10 -91 23.5 -138.5t107.5 -47.5zM421 221q-43 0 -59.5 31.5
t-9.5 97.5q13 130 96 130t70 -130q-13 -129 -97 -129z" />
    <glyph glyph-name="lozenge" unicode="&#x25ca;" horiz-adv-x="565" 
d="M244 0l-152 396l235 398h78l152 -398l-235 -396h-78zM292 92l175 304l-110 304l-175 -304z" />
    <glyph glyph-name="uni2776" unicode="&#x2776;" horiz-adv-x="797" 
d="M396 -17q-164 0 -251 105t-70 262q16 157 125 262t273 105t251.5 -105t71.5 -262q-17 -157 -126.5 -262t-273.5 -105zM393 171h66l38 358h-58q-4 -35 -24.5 -49t-73.5 -14l-5 -52h83z" />
    <glyph glyph-name="uni2777" unicode="&#x2777;" horiz-adv-x="797" 
d="M396 -17q-164 0 -251 105t-70 262q16 157 125 262t273 105t251.5 -105t71.5 -262q-17 -157 -126.5 -262t-273.5 -105zM269 176h273l6 57h-188q7 25 21.5 40t45.5 30l61 28q76 37 84 108q5 48 -26.5 75.5t-90.5 27.5q-62 0 -103 -34.5t-47 -91.5h69q4 34 23.5 53t51.5 19
q26 0 40 -14t12 -38q-5 -43 -54 -65l-64 -30q-55 -26 -81 -63.5t-33 -101.5z" />
    <glyph glyph-name="uni2778" unicode="&#x2778;" horiz-adv-x="797" 
d="M396 -17q-164 0 -251 105t-70 262q16 157 125 262t273 105t251.5 -105t71.5 -262q-17 -157 -126.5 -262t-273.5 -105zM416 164q63 0 103.5 29.5t45.5 77.5q4 34 -15 58t-54 29q75 16 81 81q4 45 -28 71.5t-91 26.5q-62 0 -102 -30t-45 -79h69q3 26 22.5 41.5t48.5 15.5
q28 0 43.5 -13.5t13.5 -35.5q-6 -53 -71 -53h-35l-5 -52h35q70 0 64 -57q-3 -26 -22.5 -41t-50.5 -15q-33 0 -50.5 17.5t-13.5 48.5h-70q-6 -57 27 -88.5t100 -31.5z" />
    <glyph glyph-name="uni2779" unicode="&#x2779;" horiz-adv-x="797" 
d="M396 -17q-164 0 -251 105t-70 262q16 157 125 262t273 105t251.5 -105t71.5 -262q-17 -157 -126.5 -262t-273.5 -105zM434 171h68l11 109h51l7 59h-51l10 99h-68l-10 -99h-88l20 190h-67l-27 -249h155z" />
    <glyph glyph-name="uni277A" unicode="&#x277a;" horiz-adv-x="797" 
d="M396 -17q-164 0 -251 105t-70 262q16 157 125 262t273 105t251.5 -105t71.5 -262q-17 -157 -126.5 -262t-273.5 -105zM412 158q65 0 107 35.5t48 95.5q6 55 -23.5 87.5t-83.5 32.5q-59 0 -91 -34l10 95h184l6 53h-245l-21 -203h61q22 38 74 38q32 0 49 -19t13 -51
q-4 -34 -26 -54.5t-56 -20.5q-30 0 -47 13t-16 36h-67q-3 -49 30.5 -76.5t93.5 -27.5z" />
    <glyph glyph-name="uni277B" unicode="&#x277b;" horiz-adv-x="797" 
d="M396 -17q-164 0 -251 105t-70 262q16 157 125 262t273 105t251.5 -105t71.5 -262q-17 -157 -126.5 -262t-273.5 -105zM413 168q63 0 105.5 37.5t48.5 94.5q5 56 -27 93.5t-92 39.5q-9 0 -15 -3l93 104h-79l-115 -139q-41 -48 -45 -95q-6 -57 28.5 -94.5t97.5 -37.5z
M418 223q-35 0 -52.5 22t-13.5 55q3 34 25.5 56t57.5 22q34 0 51.5 -22t14.5 -56q-4 -33 -26.5 -55t-56.5 -22z" />
    <glyph glyph-name="uni277C" unicode="&#x277c;" horiz-adv-x="797" 
d="M396 -17q-164 0 -251 105t-70 262q16 157 125 262t273 105t251.5 -105t71.5 -262q-17 -157 -126.5 -262t-273.5 -105zM304 170h77l226 358h-277l-6 -58h177z" />
    <glyph glyph-name="uni277D" unicode="&#x277d;" horiz-adv-x="797" 
d="M396 -17q-164 0 -251 105t-70 262q16 157 125 262t273 105t251.5 -105t71.5 -262q-17 -157 -126.5 -262t-273.5 -105zM414 164q65 0 105.5 27t45.5 76q4 34 -12.5 58t-52.5 31q33 8 53 30.5t23 53.5q4 44 -29.5 70.5t-93.5 26.5t-99.5 -26.5t-43.5 -70.5q-3 -30 12.5 -53
t45.5 -31q-36 -7 -57.5 -31t-25.5 -58q-5 -49 30 -76t99 -27zM437 381q-30 0 -47 15t-14 39q2 25 22.5 40t50.5 15t47 -15t15 -40q-3 -24 -23 -39t-51 -15zM419 213q-33 0 -50.5 16.5t-14.5 43.5q2 27 23.5 43t54.5 16t50.5 -16t15.5 -43q-3 -27 -24.5 -43.5t-54.5 -16.5z
" />
    <glyph glyph-name="uni277E" unicode="&#x277e;" horiz-adv-x="797" 
d="M396 -17q-164 0 -251 105t-70 262q16 157 125 262t273 105t251.5 -105t71.5 -262q-17 -157 -126.5 -262t-273.5 -105zM341 167h78l124 147q33 39 37 87q6 57 -28.5 94t-97.5 37t-105.5 -37t-48.5 -94t26.5 -94.5t92.5 -39.5q8 0 14 3zM432 323q-34 0 -51.5 22t-14.5 56
q4 33 26 54.5t56 21.5q35 0 53 -21.5t14 -54.5q-3 -34 -25.5 -56t-57.5 -22z" />
    <glyph glyph-name="uniF8FF" unicode="&#xf8ff;" horiz-adv-x="800" 
d="M398 -17q-109 0 -187.5 52.5t-113 135.5t-24.5 179q16 149 127.5 258t274.5 109q109 0 188 -52.5t113.5 -135.5t24.5 -179q-16 -149 -128 -258t-275 -109zM401 6q140 0 250 100.5t125 243.5q9 90 -26 169t-109 127.5t-168 48.5q-143 0 -252 -103t-124 -242
q-15 -143 73.5 -243.5t230.5 -100.5zM291 457q-17 0 -28 13t-9 30q1 18 15 30.5t31 12.5q18 0 29.5 -12.5t9.5 -30.5q-2 -17 -16 -30t-32 -13zM588 457q-17 0 -28 13t-9 30q1 18 15 30.5t31 12.5q18 0 29.5 -12.5t9.5 -30.5q-2 -17 -16 -30t-32 -13zM246 259l207 268
l-135 -243h178l-3 -25h-247zM154 207q2 37 31 52l25 13q11 6 14.5 17.5t6.5 39.5h17q-7 -57 -28 -69l-23 -13q-24 -13 -27 -40h-16zM633 157l-16 4q7 17 5.5 26t-14.5 15l-39 20q-52 27 -20 98l14 -5q-26 -61 18 -82l38 -19q19 -9 20 -26.5t-6 -30.5zM373 66
q-101 0 -181 162q76 -49 108 -59q35 -12 73 -12q148 0 223 37l4 2q-28 -49 -98 -89.5t-129 -40.5zM376 92q31 0 73.5 16.5t65 30t34.5 21.5q-11 -2 -42 -9.5t-45.5 -10t-40 -5.5t-49.5 -3q-30 0 -69 11.5t-60 30.5q22 -42 63 -62t70 -20z" />
    <glyph glyph-name="dollar.tf" 
d="M573 177q-9 -80 -66 -131.5t-146 -60.5l-9 -85h-66l10 86q-100 9 -149.5 71t-38.5 164h91q-8 -72 29 -114.5t110 -42.5q63 0 100.5 29t42.5 82q4 42 -17.5 68.5t-72.5 43.5l-110 31q-137 42 -122 187q8 72 65.5 125t145.5 60l9 90h66l-10 -92q81 -12 122 -67t33 -140h-91
q5 63 -25.5 97.5t-91.5 34.5q-57 0 -91 -28.5t-39 -74.5q-5 -45 18 -74t80 -46l113 -36q124 -39 110 -177z" />
    <glyph glyph-name="cent.tf" 
d="M345 175q110 0 138 90h87q-15 -69 -67 -113.5t-131 -52.5l-10 -99h-67l10 99q-90 10 -136 75t-35 165t70 165t152 75l10 101h67l-10 -101q77 -8 119.5 -53t42.5 -116h-87q-8 93 -118 93q-67 0 -110 -43.5t-50 -120.5q-8 -77 25 -120.5t100 -43.5z" />
    <glyph glyph-name="sterling.tf" 
d="M267 258q-6 -60 -25.5 -107.5t-42.5 -68.5h335l-9 -82h-436l6 61q66 55 79 179l10 91h-63l7 67h63l8 78q11 109 72.5 162.5t153.5 53.5q94 0 142 -51.5t38 -142.5h-91q6 57 -18.5 88t-78.5 31q-113 0 -127 -143l-8 -76h170l-7 -67h-170z" />
    </font>
</defs>
</svg>
