<?xml version="1.0" standalone="no"?>
<!DOCTYPE svg PUBLIC "-//W3C//DTD SVG 1.1//EN" "http://www.w3.org/Graphics/SVG/1.1/DTD/svg11.dtd" >
<svg xmlns="http://www.w3.org/2000/svg" xmlns:xlink="http://www.w3.org/1999/xlink" version="1.1">
<metadata>
Created by FontForge 20170731 at Wed Jan 11 10:32:33 2023
 By Aleksey,,,
Copyright (c) 2016 by Radomir Tinkov. All rights reserved.
</metadata>
<defs>
<font id="Gilroy-ExtraBold" horiz-adv-x="1187" >
  <font-face 
    font-family="Gilroy ExtraBold"
    font-weight="800"
    font-stretch="normal"
    units-per-em="2048"
    panose-1="0 0 9 0 0 0 0 0 0 0"
    ascent="1638"
    descent="-410"
    x-height="1024"
    cap-height="1434"
    bbox="-915 -553 2302 2007"
    underline-thickness="102"
    underline-position="-307"
    unicode-range="U+0020-FB02"
  />
<missing-glyph horiz-adv-x="1024" 
d="M840 1638v-2048h-650v2048h650zM682 1501h-338v-67h133v-76h-135v-68h340v68h-135v76h135v67zM547 1237h-205v-213h340v70h-135v143zM477 1167v-73h-67v73h67zM682 969h-340v-68h135v-76h-135v-67h205v143h135v68zM682 846h-68v-135h-272v-70h340v205zM682 596h-205v-115
h70v47h67v-96h-204v164h-68v-231h340v231zM682 242h-340v-232h340v232zM614 174v-96h-204v96h204zM682 -37h-340v-67h143l-143 -97v-67h340v67h-209l143 97h66v67z" />
    <glyph glyph-name="fi" unicode="fi" horiz-adv-x="1167" 
d="M1055 1024v-1024h-307v729h-263v-729h-307v729h-137v295h137q0 438 498 438q119 0 256 -28v-283q-147 16 -256 16q-96 0 -143.5 -30t-47.5 -113h570z" />
    <glyph glyph-name="fl" unicode="fl" horiz-adv-x="1167" 
d="M676 1462q163 0 379 -49v-1413h-307v1194q-25 2 -72 2q-90 0 -140.5 -43t-50.5 -129h150v-295h-150v-729h-307v729h-137v295h137q0 438 498 438z" />
    <glyph glyph-name="f_f" unicode="ff" horiz-adv-x="1249" 
d="M1249 1188q-190 17 -190 -144v-20h190v-295h-190v-729h-307v729h-267v-729h-307v729h-137v295h137q0 221 124.5 337t373.5 101v-295q-191 17 -191 -143h267v20q0 222 124 338t373 101v-295z" />
    <glyph glyph-name="f_f_i" unicode="ffi" horiz-adv-x="1740" 
d="M1628 1024v-1024h-307v729h-262v-729h-307v729h-267v-729h-307v729h-137v295h137q0 221 124.5 337t373.5 101v-295q-191 17 -191 -143h267v20q0 439 497 439q114 0 256 -29v-283q-156 17 -256 17q-95 0 -142.5 -30t-47.5 -114v-20h569z" />
    <glyph glyph-name="f_f_l" unicode="ffl" horiz-adv-x="1740" 
d="M1249 1483q163 0 379 -49v-1434h-307v1214q-37 3 -72 3q-89 0 -139.5 -43t-50.5 -130v-20h149v-295h-149v-729h-307v729h-267v-729h-307v729h-137v295h137q0 221 124.5 337t373.5 101v-295q-191 17 -191 -143h267v20q0 439 497 439z" />
    <glyph glyph-name=".notdef" horiz-adv-x="1024" 
d="M840 1638v-2048h-650v2048h650zM682 1501h-338v-67h133v-76h-135v-68h340v68h-135v76h135v67zM547 1237h-205v-213h340v70h-135v143zM477 1167v-73h-67v73h67zM682 969h-340v-68h135v-76h-135v-67h205v143h135v68zM682 846h-68v-135h-272v-70h340v205zM682 596h-205v-115
h70v47h67v-96h-204v164h-68v-231h340v231zM682 242h-340v-232h340v232zM614 174v-96h-204v96h204zM682 -37h-340v-67h143l-143 -97v-67h340v67h-209l143 97h66v67z" />
    <glyph glyph-name=".null" horiz-adv-x="0" 
 />
    <glyph glyph-name="nonmarkingreturn" horiz-adv-x="682" 
 />
    <glyph glyph-name="space" unicode=" " horiz-adv-x="512" 
 />
    <glyph glyph-name="exclam" unicode="!" horiz-adv-x="573" 
d="M164 512l-62 512v410h369v-410l-61 -512h-246zM287 -29q-79 0 -137 57.5t-58 137.5q0 79 57.5 136.5t137.5 57.5q79 0 136.5 -57t57.5 -137t-57.5 -137.5t-136.5 -57.5z" />
    <glyph glyph-name="quotedbl" unicode="&#x22;" horiz-adv-x="819" 
d="M123 942l-41 492h287l-41 -492h-205zM492 942l-41 492h286l-41 -492h-204z" />
    <glyph glyph-name="numbersign" unicode="#" horiz-adv-x="1271" 
d="M1194 799h-215l-29 -164h217l-34 -225h-220l-51 -308h-233l51 308h-188l-52 -308h-233l51 308h-217l37 225h217l29 164h-220l37 225h219l52 307h233l-51 -307h188l52 307h233l-51 -307h215zM717 635l28 164h-188l-29 -164h189z" />
    <glyph glyph-name="dollar" unicode="$" horiz-adv-x="1122" 
d="M1081 412q0 -187 -115 -301t-304 -136v-180h-144v178q-173 12 -297.5 98t-179.5 234l283 164q66 -150 194 -172v283q-4 2 -13 5t-13 5q-46 19 -78.5 33.5t-76.5 38.5t-74.5 47.5t-63.5 58.5t-53 72.5t-33 88t-13 107.5q0 96 34.5 175t93.5 130t133 81t157 38v178h144
v-182q137 -18 241 -92t162 -205l-277 -162q-39 103 -126 133v-276q17 -7 54.5 -22.5t58 -24t56 -25.5t56.5 -30.5t51 -35t47.5 -42t38 -49.5t31.5 -60t18.5 -70t7.5 -83zM428 1034q0 -31 19.5 -57t70.5 -55v215q-43 -10 -66.5 -37.5t-23.5 -65.5zM662 301q92 24 92 107
q0 37 -22 62.5t-70 49.5v-219z" />
    <glyph glyph-name="percent" unicode="%" horiz-adv-x="1605" 
d="M438 766q-152 0 -254 101t-102 247t102 247t254 101t253.5 -99.5t101.5 -248.5q0 -146 -102 -247t-253 -101zM252 225l926 1024l135 -78l-926 -1026zM436 1001q48 0 79.5 33.5t31.5 79.5q0 48 -31 80.5t-80 32.5q-47 0 -77.5 -32.5t-30.5 -80.5t30.5 -80.5t77.5 -32.5z
M1169 -25q-152 0 -254 101.5t-102 247.5t102 247t254 101q151 0 253 -101t102 -247t-102 -247.5t-253 -101.5zM1167 211q48 0 79.5 33.5t31.5 79.5q0 48 -31 80t-80 32q-47 0 -77.5 -32t-30.5 -80t30.5 -80.5t77.5 -32.5z" />
    <glyph glyph-name="ampersand" unicode="&#x26;" horiz-adv-x="1388" 
d="M1348 94l-256 -147l-127 137q-161 -113 -371 -113q-226 0 -369 116.5t-143 315.5q0 124 60 233t169 179q-59 100 -59 227q0 183 128.5 301.5t332.5 118.5q159 0 283 -79t188 -234l-281 -162q-60 156 -186 156q-61 0 -99 -34t-38 -87q0 -29 7.5 -54t26.5 -53t32.5 -44.5
t45.5 -51.5l264 -293q44 100 68 226l274 -156q-46 -170 -131 -301zM621 270q81 0 143 33l-262 283l-13 12q-75 -61 -75 -160q0 -76 51.5 -122t155.5 -46z" />
    <glyph glyph-name="quotesingle" unicode="'" horiz-adv-x="450" 
d="M123 942l-41 492h287l-41 -492h-205z" />
    <glyph glyph-name="parenleft" unicode="(" horiz-adv-x="655" 
d="M328 -205q-226 454 -226 922q0 467 226 921h307q-225 -452 -225 -921q0 -470 225 -922h-307z" />
    <glyph glyph-name="parenright" unicode=")" horiz-adv-x="655" 
d="M328 -205h-308q226 454 226 922q0 467 -226 921h308q225 -452 225 -921q0 -470 -225 -922z" />
    <glyph glyph-name="asterisk" unicode="*" horiz-adv-x="819" 
d="M717 1245v-180l-185 18l113 -141l-149 -94l-86 174l-86 -174l-150 94l113 141l-185 -18v180l185 -18l-113 141l150 94l86 -174l86 174l149 -94l-113 -141z" />
    <glyph glyph-name="plus" unicode="+" horiz-adv-x="1146" 
d="M1044 860v-287h-327v-327h-287v327h-328v287h328v328h287v-328h327z" />
    <glyph glyph-name="comma" unicode="," horiz-adv-x="593" 
d="M502 317l-164 -604h-246l82 604h328z" />
    <glyph glyph-name="hyphen" unicode="-" horiz-adv-x="1024" 
d="M123 465v295h778v-295h-778z" />
    <glyph glyph-name="period" unicode="." horiz-adv-x="573" 
d="M287 -29q-79 0 -137 57.5t-58 137.5q0 79 57.5 136.5t137.5 57.5q79 0 136.5 -57t57.5 -137t-57.5 -137.5t-136.5 -57.5z" />
    <glyph glyph-name="slash" unicode="/" horiz-adv-x="1064" 
d="M184 -205h-123l820 1843h123z" />
    <glyph glyph-name="zero" unicode="0" horiz-adv-x="1290" 
d="M645 -29q-182 0 -315 94.5t-201 262t-68 389.5t68 389t201 261.5t315 94.5t315 -94.5t201 -261.5t68 -389t-68 -389.5t-201 -262t-315 -94.5zM645 291q128 0 192 108.5t64 317.5t-64 317.5t-192 108.5t-192 -108.5t-64 -317.5t64 -317.5t192 -108.5z" />
    <glyph glyph-name="one" unicode="1" horiz-adv-x="825" 
d="M395 1434h287v-1434h-328v1087l-254 -69l-80 280z" />
    <glyph glyph-name="two" unicode="2" horiz-adv-x="1091" 
d="M45 0v238l481 499q146 149 146 254q0 68 -41.5 110t-112.5 42q-72 0 -126 -42.5t-85 -113.5l-276 162q66 154 196.5 233.5t286.5 79.5q130 0 239 -52.5t177.5 -158t68.5 -245.5q0 -228 -223 -451l-237 -240h481v-315h-975z" />
    <glyph glyph-name="three" unicode="3" horiz-adv-x="1126" 
d="M760 852q138 -48 221.5 -152.5t83.5 -248.5q0 -115 -42.5 -207.5t-115 -151t-166 -90t-198.5 -31.5q-170 0 -304 77.5t-198 230.5l283 163q26 -74 77.5 -112.5t141.5 -38.5q96 0 145 45t49 115t-49 114.5t-145 44.5h-68l-125 187l260 329h-524v308h922v-267z" />
    <glyph glyph-name="four" unicode="4" 
d="M1167 532v-303h-143v-229h-332v229h-651v303l457 902h352l-457 -902h299v308h332v-308h143z" />
    <glyph glyph-name="five" unicode="5" horiz-adv-x="1126" 
d="M584 930q136 0 245.5 -53t177.5 -163.5t68 -262.5q0 -115 -42.5 -207.5t-115 -151t-166 -90t-198.5 -31.5q-177 0 -312.5 77.5t-199.5 230.5l283 163q26 -75 79 -113t150 -38q96 0 145.5 45t49.5 115t-47.5 114.5t-137.5 44.5h-448l59 824h830v-308h-523l-14 -196h117z
" />
    <glyph glyph-name="six" unicode="6" horiz-adv-x="1146" 
d="M629 981q214 -17 345.5 -156t131.5 -348q0 -223 -148.5 -364.5t-384.5 -141.5q-237 0 -384.5 141t-147.5 365q0 164 84 291l438 666h377zM573 279q85 0 145 54t60 144t-60 144.5t-145 54.5q-87 0 -145.5 -53.5t-58.5 -145.5t58.5 -145t145.5 -53z" />
    <glyph glyph-name="seven" unicode="7" horiz-adv-x="1003" 
d="M20 1434h943v-275l-467 -1159h-349l451 1118h-578v316z" />
    <glyph glyph-name="eight" unicode="8" horiz-adv-x="1175" 
d="M928 748q90 -58 138 -148t48 -197q0 -199 -138 -315.5t-388 -116.5t-388.5 116.5t-138.5 315.5q0 107 48.5 197t138.5 148q-137 108 -137 288q0 102 37.5 184t102.5 134t151 80t186 28t186 -28t151 -80t102.5 -134t37.5 -184q0 -180 -137 -288zM588 1155q-68 0 -109 -39
t-41 -100t41 -100t109 -39t108.5 39t40.5 100t-40.5 100t-108.5 39zM588 279q88 0 143 46t55 126t-55 126t-143 46t-143.5 -46t-55.5 -126t55.5 -126t143.5 -46z" />
    <glyph glyph-name="nine" unicode="9" horiz-adv-x="1146" 
d="M1106 956q0 -163 -84 -290l-438 -666h-377l311 453q-214 17 -345.5 155.5t-131.5 347.5q0 223 148 364.5t384 141.5q237 0 385 -141.5t148 -364.5zM369 956q0 -90 59.5 -144t144.5 -54q87 0 146 53t59 145t-59 145.5t-146 53.5q-85 0 -144.5 -54t-59.5 -145z" />
    <glyph glyph-name="colon" unicode=":" horiz-adv-x="573" 
d="M287 668q-80 0 -137.5 57.5t-57.5 136.5q0 80 58 137.5t137 57.5t136.5 -57.5t57.5 -137.5t-57.5 -137t-136.5 -57zM287 -29q-79 0 -137 57.5t-58 137.5q0 79 57.5 136.5t137.5 57.5q79 0 136.5 -57t57.5 -137t-57.5 -137.5t-136.5 -57.5z" />
    <glyph glyph-name="semicolon" unicode=";" horiz-adv-x="593" 
d="M307 668q-79 0 -136.5 57t-57.5 137t57.5 137.5t136.5 57.5t137 -57.5t58 -137.5q0 -79 -57.5 -136.5t-137.5 -57.5zM502 317l-164 -604h-246l82 604h328z" />
    <glyph glyph-name="less" unicode="&#x3c;" horiz-adv-x="1085" 
d="M1004 1249v-315l-574 -217l574 -217v-316l-922 400v266z" />
    <glyph glyph-name="equal" unicode="=" horiz-adv-x="1064" 
d="M82 788v287h901v-287h-901zM82 358v287h901v-287h-901z" />
    <glyph glyph-name="greater" unicode="&#x3e;" horiz-adv-x="1085" 
d="M82 1249l922 -399v-266l-922 -400v316l573 217l-573 217v315z" />
    <glyph glyph-name="question" unicode="?" horiz-adv-x="1146" 
d="M389 512q0 66 34 127t82 106.5t96 88.5t82 92t34 98q0 56 -38 87.5t-114 31.5q-148 0 -221 -172l-283 162q67 156 205.5 242.5t311.5 86.5q89 0 171.5 -27t148.5 -77t106 -129.5t40 -175.5q0 -62 -18 -118t-47 -98t-64 -80t-69.5 -69.5t-63.5 -59.5t-47 -58t-18 -58h-328
zM553 -29q-79 0 -137 57.5t-58 137.5q0 79 57.5 136.5t137.5 57.5t137.5 -57.5t57.5 -136.5q0 -80 -58 -137.5t-137 -57.5z" />
    <glyph glyph-name="at" unicode="@" horiz-adv-x="1585" 
d="M807 1253q133 0 249.5 -40t201 -109t145.5 -158.5t91 -190t30 -202.5q0 -214 -92.5 -331.5t-243.5 -117.5q-106 0 -177.5 43t-103.5 117q-74 -90 -196 -90q-128 0 -209.5 95.5t-81.5 242.5t81.5 242.5t209.5 95.5q105 0 176 -68v43h250v-483q0 -135 114 -135
q87 0 139 87.5t52 258.5q0 173 -83.5 317t-229.5 227t-322 83q-138 0 -261 -52t-211.5 -140.5t-140 -212.5t-51.5 -263q0 -142 53 -266.5t145 -212.5t222.5 -138.5t280.5 -50.5q183 0 325 50v-78q-140 -45 -325 -45q-165 0 -310 56t-249 153t-164 235t-60 297
q0 152 57 288.5t155.5 236t237.5 158t296 58.5zM780 395q47 0 76 33t29 84q0 53 -29 85t-76 32q-49 0 -77.5 -32t-28.5 -85q0 -52 28.5 -84.5t77.5 -32.5z" />
    <glyph glyph-name="A" unicode="A" horiz-adv-x="1392" 
d="M1034 0l-71 225h-533l-72 -225h-358l487 1434h418l488 -1434h-359zM528 532h336l-168 527z" />
    <glyph glyph-name="B" unicode="B" horiz-adv-x="1228" 
d="M1012 743q82 -53 129 -135.5t47 -187.5q0 -187 -133.5 -303.5t-329.5 -116.5h-602v1434h561q192 0 322.5 -114t130.5 -296q0 -172 -125 -281zM684 1126h-233v-254h233q55 0 90 35.5t35 91.5t-34.5 91.5t-90.5 35.5zM725 307q61 0 98 38t37 99t-37 99.5t-98 38.5h-274
v-275h274z" />
    <glyph glyph-name="C" unicode="C" horiz-adv-x="1472" 
d="M807 -29q-159 0 -298 57.5t-237 157t-154.5 237.5t-56.5 294q0 209 95.5 379t267 268t383.5 98q193 0 356 -89t258 -243l-282 -163q-47 83 -135 129.5t-197 46.5q-190 0 -304 -116.5t-114 -309.5t114 -309.5t304 -116.5q109 0 198 46.5t134 129.5l282 -164
q-93 -154 -256 -243t-358 -89z" />
    <glyph glyph-name="D" unicode="D" horiz-adv-x="1454" 
d="M696 1434q146 0 275.5 -55.5t221.5 -150.5t146 -228t54 -283t-54 -283t-146 -228t-221.5 -150.5t-275.5 -55.5h-573v1434h573zM696 315q170 0 275.5 109.5t105.5 292.5t-105.5 292t-275.5 109h-245v-803h245z" />
    <glyph glyph-name="E" unicode="E" horiz-adv-x="1085" 
d="M451 315h573v-315h-901v1434h891v-316h-563v-237h512v-312h-512v-254z" />
    <glyph glyph-name="F" unicode="F" horiz-adv-x="1064" 
d="M993 1118h-542v-276h532v-316h-532v-526h-328v1434h870v-316z" />
    <glyph glyph-name="G" unicode="G" horiz-adv-x="1603" 
d="M1542 799v-123q0 -214 -93 -375.5t-252.5 -245.5t-360.5 -84q-166 0 -311 58.5t-246.5 158.5t-159.5 237t-58 290t58.5 291.5t158.5 238.5t240 158.5t295 58.5q201 0 367.5 -89.5t259.5 -237.5l-279 -160q-46 74 -139.5 121t-210.5 47q-182 0 -302 -121t-120 -309
q0 -186 122.5 -304t328.5 -118q140 0 233.5 58t132.5 163h-383v287h719z" />
    <glyph glyph-name="H" unicode="H" horiz-adv-x="1351" 
d="M901 1434h328v-1434h-328v569h-450v-569h-328v1434h328v-549h450v549z" />
    <glyph glyph-name="I" unicode="I" horiz-adv-x="573" 
d="M123 1434h328v-1434h-328v1434z" />
    <glyph glyph-name="J" unicode="J" horiz-adv-x="1175" 
d="M547 -29q-342 0 -486 279l285 164q36 -65 80 -94t123 -29q99 0 142.5 47.5t43.5 122.5v973h328v-973q0 -230 -144 -360t-372 -130z" />
    <glyph glyph-name="K" unicode="K" horiz-adv-x="1282" 
d="M1282 0h-373l-458 664v-664h-328v1434h328v-623l438 623h373l-484 -699z" />
    <glyph glyph-name="L" unicode="L" horiz-adv-x="983" 
d="M451 315h512v-315h-840v1434h328v-1119z" />
    <glyph glyph-name="M" unicode="M" horiz-adv-x="1679" 
d="M1556 1434v-1434h-327v834l-371 -609h-37l-370 609v-834h-328v1434h328l389 -637l389 637h327z" />
    <glyph glyph-name="N" unicode="N" horiz-adv-x="1372" 
d="M922 1434h327v-1434h-245l-553 778v-778h-328v1434h246l553 -779v779z" />
    <glyph glyph-name="O" unicode="O" horiz-adv-x="1613" 
d="M807 -29q-152 0 -290 57.5t-238 156.5t-159 238t-59 294q0 207 100 378.5t271 269t375 97.5q203 0 374 -97.5t271 -269t100 -378.5t-100 -379t-271 -269.5t-374 -97.5zM807 291q178 0 298 118.5t120 307.5t-120 307.5t-298 118.5t-298 -118.5t-120 -307.5t120 -307.5
t298 -118.5z" />
    <glyph glyph-name="P" unicode="P" horiz-adv-x="1208" 
d="M666 1434q211 0 356 -143.5t145 -348.5t-145 -348t-356 -143h-215v-451h-328v1434h543zM666 758q75 0 124.5 53t49.5 131t-49.5 131t-124.5 53h-215v-368h215z" />
    <glyph glyph-name="Q" unicode="Q" horiz-adv-x="1624" 
d="M1552 717q0 -266 -163 -469l143 -152l-236 -209l-153 162q-159 -78 -336 -78q-152 0 -290 57.5t-238 156.5t-159 238t-59 294q0 207 100 378.5t271 269t375 97.5q203 0 374 -97.5t271 -269t100 -378.5zM807 291q45 0 100 10l-207 219l236 209l229 -244q60 107 60 232
q0 189 -120 307.5t-298 118.5t-298 -118.5t-120 -307.5t120 -307.5t298 -118.5z" />
    <glyph glyph-name="R" unicode="R" horiz-adv-x="1259" 
d="M877 0l-271 471h-155v-471h-328v1434h573q134 0 247 -66t179 -179t66 -247q0 -131 -72 -243t-192 -173l305 -526h-352zM451 1126v-368h245q68 0 116 53.5t48 130.5t-48 130.5t-116 53.5h-245z" />
    <glyph glyph-name="S" unicode="S" horiz-adv-x="1198" 
d="M625 -29q-219 0 -365.5 95.5t-208.5 259.5l283 163q85 -198 301 -198q106 0 150 34t44 83q0 63 -63 99t-234 83q-71 20 -126.5 42t-113 58t-95.5 81t-62 110.5t-24 144.5q0 100 40 184t107.5 138t153.5 84t180 30q177 0 311.5 -82.5t212.5 -240.5l-276 -162
q-39 82 -97 124t-151 42q-73 0 -113.5 -31.5t-40.5 -77.5q0 -36 17.5 -61t74.5 -54.5t166 -62.5q62 -19 95 -30t90 -34t89 -43.5t72.5 -55t62 -73t37 -92t15.5 -116.5q0 -204 -147.5 -322.5t-384.5 -118.5z" />
    <glyph glyph-name="T" unicode="T" horiz-adv-x="1105" 
d="M1085 1434v-316h-368v-1118h-328v1118h-369v316h1065z" />
    <glyph glyph-name="U" unicode="U" horiz-adv-x="1331" 
d="M666 -29q-158 0 -282.5 58t-197.5 171t-73 263v971h327v-942q0 -201 226 -201q225 0 225 201v942h328v-971q0 -150 -73 -263t-197.5 -171t-282.5 -58z" />
    <glyph glyph-name="V" unicode="V" horiz-adv-x="1351" 
d="M467 0l-467 1434h358l318 -1055l317 1055h359l-467 -1434h-418z" />
    <glyph glyph-name="W" unicode="W" horiz-adv-x="2043" 
d="M416 0l-396 1434h345l247 -1004l277 1004h266l277 -1004l247 1004h344l-395 -1434h-373l-233 846l-234 -846h-372z" />
    <glyph glyph-name="X" unicode="X" horiz-adv-x="1269" 
d="M1249 0h-372l-242 414l-242 -414h-373l429 735l-408 699h373l221 -379l221 379h373l-408 -699z" />
    <glyph glyph-name="Y" unicode="Y" horiz-adv-x="1290" 
d="M1290 1434l-481 -883v-551h-328v551l-481 883h373l272 -553l273 553h372z" />
    <glyph glyph-name="Z" unicode="Z" horiz-adv-x="1105" 
d="M496 315h559v-315h-983v254l549 864h-539v316h962v-254z" />
    <glyph glyph-name="bracketleft" unicode="[" horiz-adv-x="655" 
d="M614 1343h-204v-1253h204v-295h-512v1843h512v-295z" />
    <glyph glyph-name="backslash" unicode="\" horiz-adv-x="1064" 
d="M881 -205l-820 1843h123l820 -1843h-123z" />
    <glyph glyph-name="bracketright" unicode="]" horiz-adv-x="655" 
d="M553 1638v-1843h-512v295h205v1253h-205v295h512z" />
    <glyph glyph-name="asciicircum" unicode="^" 
d="M705 1434l401 -697h-328l-184 342l-184 -342h-328l401 697h222z" />
    <glyph glyph-name="underscore" unicode="_" horiz-adv-x="1064" 
d="M61 -371v295h943v-295h-943z" />
    <glyph glyph-name="grave" unicode="`" horiz-adv-x="614" 
d="M573 1147l-163 287h-369l238 -287h294z" />
    <glyph glyph-name="a" unicode="a" horiz-adv-x="1275" 
d="M856 1024h307v-1024h-307v96q-109 -125 -305 -125q-202 0 -346 157t-144 384t144 384t346 157q196 0 305 -125v96zM612 262q107 0 175.5 68t68.5 182t-68.5 182t-175.5 68t-175 -68t-68 -182t68 -182t175 -68z" />
    <glyph glyph-name="b" unicode="b" horiz-adv-x="1275" 
d="M725 1053q202 0 345.5 -157t143.5 -384t-143.5 -384t-345.5 -157q-196 0 -305 125v-96h-307v1434h307v-506q109 125 305 125zM664 262q107 0 175 68t68 182t-68 182t-175 68t-175.5 -68t-68.5 -182t68.5 -182t175.5 -68z" />
    <glyph glyph-name="c" unicode="c" horiz-adv-x="1087" 
d="M604 -29q-232 0 -387.5 155.5t-155.5 385.5t155.5 385.5t387.5 155.5q148 0 272 -71t191 -191l-268 -156q-26 54 -79 84.5t-120 30.5q-100 0 -165.5 -66.5t-65.5 -171.5t65.5 -171.5t165.5 -66.5q68 0 121 30.5t78 84.5l268 -153q-67 -121 -190.5 -193t-272.5 -72z" />
    <glyph glyph-name="d" unicode="d" horiz-adv-x="1275" 
d="M856 1434h307v-1434h-307v96q-109 -125 -305 -125q-202 0 -346 157t-144 384t144 384t346 157q196 0 305 -125v506zM612 262q107 0 175.5 68t68.5 182t-68.5 182t-175.5 68t-175 -68t-68 -182t68 -182t175 -68z" />
    <glyph glyph-name="e" unicode="e" 
d="M387 389q53 -143 246 -143q61 0 112.5 21.5t83.5 56.5l246 -142q-152 -211 -446 -211q-129 0 -236 41.5t-179.5 114.5t-112.5 172t-40 213q0 152 68 275t193 194.5t284 71.5q224 0 372 -154.5t148 -386.5q0 -64 -12 -123h-727zM381 618h440q-23 84 -82 123t-135 39
q-87 0 -144 -42t-79 -120z" />
    <glyph glyph-name="f" unicode="f" horiz-adv-x="675" 
d="M676 1167q-191 17 -191 -143h191v-295h-191v-729h-307v729h-137v295h137q0 221 124.5 337t373.5 101v-295z" />
    <glyph glyph-name="g" unicode="g" horiz-adv-x="1275" 
d="M864 1024h299v-973q0 -124 -45.5 -220.5t-123 -153.5t-172 -86t-199.5 -29q-164 0 -290.5 62.5t-195.5 185.5l262 151q33 -61 86.5 -95t147.5 -34q109 0 170 56t61 163v94q-108 -133 -299 -133q-142 0 -258.5 71t-181 190t-64.5 259q0 141 64.5 260t181 190t258.5 71
q191 0 299 -133v104zM616 295q109 0 178.5 66t69.5 171t-69.5 171.5t-178.5 66.5t-178 -66t-69 -172q0 -105 69 -171t178 -66z" />
    <glyph glyph-name="h" unicode="h" horiz-adv-x="1193" 
d="M713 1053q163 0 273 -112.5t110 -311.5v-629h-308v584q0 91 -50 138.5t-128 47.5q-88 0 -139 -53t-51 -158v-559h-307v1434h307v-506q42 58 118 91.5t175 33.5z" />
    <glyph glyph-name="i" unicode="i" horiz-adv-x="532" 
d="M266 1114q-75 0 -129.5 54.5t-54.5 129.5t54.5 130t129.5 55t130 -55t55 -130t-55 -129.5t-130 -54.5zM113 0v1024h307v-1024h-307z" />
    <glyph glyph-name="j" unicode="j" horiz-adv-x="563" 
d="M297 1114q-75 0 -129.5 54.5t-54.5 129.5t54.5 130t129.5 55t129.5 -55t54.5 -130t-54.5 -129.5t-129.5 -54.5zM143 0v1024h308v-1024q0 -239 -114 -345t-357 -93v295q86 -5 124.5 28.5t38.5 114.5z" />
    <glyph glyph-name="k" unicode="k" horiz-adv-x="1095" 
d="M1096 0h-348l-328 453v-453h-307v1434h307v-859l307 449h358l-372 -512z" />
    <glyph glyph-name="l" unicode="l" horiz-adv-x="532" 
d="M113 0v1495h307v-1495h-307z" />
    <glyph glyph-name="m" unicode="m" horiz-adv-x="1746" 
d="M1260 1053q177 0 283 -116t106 -308v-629h-308v602q0 78 -37.5 123t-109.5 45q-76 0 -118 -50.5t-42 -141.5v-578h-307v602q0 78 -37.5 123t-109.5 45q-76 0 -118 -50.5t-42 -141.5v-578h-307v1024h307v-94q83 123 274 123q180 0 269 -135q94 135 297 135z" />
    <glyph glyph-name="n" unicode="n" horiz-adv-x="1193" 
d="M713 1053q163 0 273 -112.5t110 -311.5v-629h-308v584q0 91 -50 138.5t-128 47.5q-88 0 -139 -53t-51 -158v-559h-307v1024h307v-96q42 58 118 91.5t175 33.5z" />
    <glyph glyph-name="o" unicode="o" horiz-adv-x="1208" 
d="M604 -29q-149 0 -273.5 71t-197 195.5t-72.5 274.5t72.5 274.5t197 195.5t273.5 71t273.5 -71t197 -195.5t72.5 -274.5t-72.5 -274.5t-197 -195.5t-273.5 -71zM604 270q101 0 168.5 67.5t67.5 174.5t-67.5 174.5t-168.5 67.5t-168 -67.5t-67 -174.5t67 -174.5t168 -67.5z
" />
    <glyph glyph-name="p" unicode="p" horiz-adv-x="1275" 
d="M725 1053q202 0 345.5 -157t143.5 -384t-143.5 -384t-345.5 -157q-196 0 -305 125v-506h-307v1434h307v-96q109 125 305 125zM664 262q107 0 175 68t68 182t-68 182t-175 68t-175.5 -68t-68.5 -182t68.5 -182t175.5 -68z" />
    <glyph glyph-name="q" unicode="q" horiz-adv-x="1275" 
d="M856 1024h307v-1434h-307v506q-109 -125 -305 -125q-202 0 -346 157t-144 384t144 384t346 157q196 0 305 -125v96zM612 262q107 0 175.5 68t68.5 182t-68.5 182t-175.5 68t-175 -68t-68 -182t68 -182t175 -68z" />
    <glyph glyph-name="r" unicode="r" horiz-adv-x="757" 
d="M420 842q29 97 116 149.5t191 52.5v-348q-39 4 -80.5 3t-82 -18t-73 -42.5t-52 -71.5t-19.5 -104v-463h-307v1024h307v-182z" />
    <glyph glyph-name="s" unicode="s" horiz-adv-x="958" 
d="M403 725q0 -23 28 -39.5t72 -28.5t98 -26t108 -38t98 -57.5t72 -92.5t28 -136q0 -85 -35 -151.5t-95.5 -105.5t-135.5 -59t-160 -20q-322 0 -440 244l266 152q42 -121 174 -121q111 0 111 63q0 22 -28 39t-72 30t-98 27.5t-108 38.5t-98 57t-72 88.5t-28 127.5
q0 107 56.5 185t146 114.5t198.5 36.5q127 0 232 -56t168 -163l-262 -142q-49 90 -138 90q-40 0 -63 -15t-23 -42z" />
    <glyph glyph-name="t" unicode="t" horiz-adv-x="794" 
d="M713 729h-211v-362q0 -43 24.5 -64t71.5 -24.5t115 0.5v-279q-100 -8 -177.5 -7t-135 20t-97 47.5t-63.5 74.5t-34.5 102t-10.5 130v362h-164v295h164v195l307 92v-287h211v-295z" />
    <glyph glyph-name="u" unicode="u" horiz-adv-x="1193" 
d="M774 1024h307v-1024h-307v96q-42 -58 -118 -91.5t-175 -33.5q-163 0 -273 112.5t-110 311.5v629h308v-584q0 -91 50 -138.5t128 -47.5q88 0 139 53t51 158v559z" />
    <glyph glyph-name="v" unicode="v" horiz-adv-x="1105" 
d="M766 1024h340l-379 -1024h-348l-379 1024h340l213 -649z" />
    <glyph glyph-name="w" unicode="w" horiz-adv-x="1576" 
d="M1239 1024h328l-328 -1024h-287l-164 547l-163 -547h-287l-328 1024h328l147 -549l160 549h287l160 -549z" />
    <glyph glyph-name="x" unicode="x" horiz-adv-x="1085" 
d="M1085 0h-352l-190 270l-191 -270h-352l367 520l-355 504h353l178 -254l178 254h352l-354 -504z" />
    <glyph glyph-name="y" unicode="y" horiz-adv-x="1085" 
d="M758 1024h327l-350 -993q-86 -242 -226 -347t-357 -94v287q107 0 164.5 38t91.5 132l-408 977h338l227 -627z" />
    <glyph glyph-name="z" unicode="z" horiz-adv-x="972" 
d="M494 287h407v-287h-819v205l387 532h-367v287h779v-205z" />
    <glyph glyph-name="braceleft" unicode="{" horiz-adv-x="737" 
d="M696 -219q-229 -15 -339.5 88.5t-110.5 308.5v291q0 69 -35.5 89.5t-108.5 12.5v297q72 -8 108 13t36 90v291q0 205 110.5 308.5t339.5 88.5v-295q-73 8 -108 -12.5t-35 -89.5v-291q0 -175 -109 -250q109 -78 109 -252v-291q0 -69 35 -89.5t108 -12.5v-295z" />
    <glyph glyph-name="bar" unicode="|" horiz-adv-x="552" 
d="M123 -410v1885h307v-1885h-307z" />
    <glyph glyph-name="braceright" unicode="}" horiz-adv-x="737" 
d="M41 -219v295q73 -8 108 12.5t35 89.5v291q0 174 109 252q-109 75 -109 250v291q0 69 -35 89.5t-108 12.5v295q229 15 340 -88.5t111 -308.5v-291q0 -69 35.5 -90t107.5 -13v-297q-73 8 -108 -12.5t-35 -89.5v-291q0 -205 -111 -308.5t-340 -88.5z" />
    <glyph glyph-name="asciitilde" unicode="~" horiz-adv-x="1228" 
d="M901 926l246 -119q-28 -107 -80 -178t-120 -100.5t-146.5 -26.5t-163.5 39q-38 16 -58 24t-48 18.5t-42 14t-34.5 7.5t-30 2t-24 -5.5t-22 -12t-17.5 -21.5t-17.5 -29.5t-15.5 -38.5l-246 118q28 107 80 178t120 101t146.5 27t163.5 -39q46 -19 70.5 -29t56.5 -21
t47.5 -13t36.5 -2t31.5 7.5t24 20t22.5 31.5t20 47z" />
    <glyph glyph-name="exclamdown" unicode="&#xa1;" horiz-adv-x="573" 
d="M287 1053q79 0 136.5 -57.5t57.5 -137.5t-57.5 -137t-136.5 -57q-80 0 -137.5 57.5t-57.5 136.5q0 80 58 137.5t137 57.5zM164 512h246l61 -512v-410h-369v410z" />
    <glyph glyph-name="cent" unicode="&#xa2;" horiz-adv-x="1087" 
d="M600 479q68 0 121 30.5t78 84.5l268 -154q-67 -121 -190.5 -192.5t-272.5 -71.5q-62 0 -121 12l-61 -188h-123l72 225q-141 64 -225.5 195.5t-84.5 296.5q0 229 155.5 384.5t387.5 155.5q54 0 98 -8l60 185h123l-70 -217q167 -71 252 -222l-268 -155q-23 51 -78 84
l-143 -445h22zM369 717q0 -133 98 -199l139 436h-6q-101 0 -166 -66t-65 -171z" />
    <glyph glyph-name="sterling" unicode="&#xa3;" 
d="M524 315h643v-315h-1106v315h136v236h-115v287h115v172q0 113 40 202.5t107 142.5t146.5 80t166.5 27q161 0 282.5 -80t180.5 -225l-284 -164q-24 77 -62.5 113.5t-105.5 36.5q-64 0 -104 -39t-40 -109v-157h398v-287h-398v-236z" />
    <glyph glyph-name="currency" unicode="&#xa4;" horiz-adv-x="1105" 
d="M993 717q0 -149 -92 -268l143 -142l-81 -82l-144 146q-117 -84 -266 -84q-150 0 -264 84l-146 -146l-82 82l144 144q-92 116 -92 266t92 266l-144 143l82 82l146 -145q114 84 264 84t264 -84l146 145l81 -82l-143 -143q92 -116 92 -266zM553 578q63 0 100 38t37 101
t-37 101t-100 38t-100 -38t-37 -101t37 -101t100 -38z" />
    <glyph glyph-name="yen" unicode="&#xa5;" horiz-adv-x="1249" 
d="M1290 1434l-372 -682h188v-181h-287l-10 -20v-62h297v-180h-297v-309h-328v309h-338v180h338v62l-10 20h-328v181h230l-373 682h373l272 -553l273 553h372z" />
    <glyph glyph-name="brokenbar" unicode="&#xa6;" horiz-adv-x="552" 
d="M123 717v758h307v-758h-307zM123 -410v758h307v-758h-307z" />
    <glyph glyph-name="section" unicode="&#xa7;" horiz-adv-x="1130" 
d="M1059 598q0 -162 -119 -268q61 -84 61 -203q0 -89 -34.5 -159t-94.5 -112t-135.5 -63.5t-161.5 -21.5q-349 0 -462 254l276 157q28 -77 73.5 -111t112.5 -34q61 0 90 24.5t29 65.5q0 22 -14.5 41t-47.5 36.5t-61.5 29.5t-82.5 32t-85 33q-52 21 -92 42t-83 52.5
t-71.5 67.5t-46.5 86t-18 108q0 163 123 258q-55 80 -55 201q0 87 34 155t92 109.5t129 62.5t150 21q136 0 249.5 -65.5t172.5 -196.5l-254 -137q-65 133 -168 133q-48 0 -73 -22t-25 -60q0 -13 4 -25t13.5 -23t19.5 -20t28 -19t31.5 -17t38.5 -17t40.5 -16t45 -17.5
t45.5 -17.5q55 -21 95.5 -40.5t86.5 -50t75.5 -65t49 -83t19.5 -105.5zM399 676q0 -47 37 -78t107 -57q17 -6 79 -28t97 -36q33 30 33 80q0 51 -40 80.5t-124 60.5q-146 53 -156 58q-33 -30 -33 -80z" />
    <glyph glyph-name="dieresis" unicode="&#xa8;" horiz-adv-x="778" 
d="M195 1106q-63 0 -108.5 45.5t-45.5 108.5t45.5 108t108.5 45t108 -45t45 -108t-45 -108.5t-108 -45.5zM584 1106q-63 0 -108.5 45.5t-45.5 108.5t45.5 108t108.5 45t108 -45t45 -108t-45 -108.5t-108 -45.5z" />
    <glyph glyph-name="copyright" unicode="&#xa9;" horiz-adv-x="1605" 
d="M803 -25q-202 0 -372.5 99.5t-270 270t-99.5 372.5t99.5 372.5t270 269.5t372.5 99q151 0 288.5 -58.5t236.5 -157.5t157.5 -236.5t58.5 -288.5q0 -202 -99 -372.5t-269.5 -270t-372.5 -99.5zM803 49q179 0 331 89.5t240 243t88 335.5q0 136 -52 259.5t-140 213
t-210.5 142t-256.5 52.5t-256.5 -52.5t-211 -142t-140.5 -213t-52 -259.5t52 -259.5t140.5 -213t211 -142.5t256.5 -53zM809 313q-167 0 -287.5 119.5t-120.5 284.5q0 164 120.5 283.5t287.5 119.5q106 0 198.5 -52.5t147.5 -145.5l-225 -131q-42 69 -127 69
q-64 0 -104 -42.5t-40 -100.5t40 -101t104 -43q85 0 127 70l225 -131q-54 -93 -146.5 -146t-199.5 -53z" />
    <glyph glyph-name="guillemotleft" unicode="&#xab;" horiz-adv-x="1150" 
d="M618 1022l-225 -389l225 -389h-270l-225 389l225 389h270zM1028 1022l-225 -389l225 -389h-270l-226 389l226 389h270z" />
    <glyph glyph-name="logicalnot" unicode="&#xac;" horiz-adv-x="1146" 
d="M82 860h983v-532h-307v245h-676v287z" />
    <glyph glyph-name="registered" unicode="&#xae;" horiz-adv-x="1605" 
d="M803 1458q151 0 288.5 -58.5t236.5 -157.5t157.5 -236.5t58.5 -288.5q0 -202 -99 -372.5t-269.5 -270t-372.5 -99.5t-372.5 99.5t-270 270t-99.5 372.5t99.5 372.5t270 269.5t372.5 99zM803 49q179 0 331 89.5t240 243t88 335.5q0 136 -52 259.5t-140 213t-210.5 142
t-256.5 52.5t-256.5 -52.5t-211 -142t-140.5 -213t-52 -259.5t52 -259.5t140.5 -213t211 -142.5t256.5 -53zM1128 842q0 -144 -104 -228l156 -276h-269l-98 209h-57v-209h-250v758h328q120 0 207 -70t87 -184zM756 870v-118h51q32 0 52 16.5t20 42.5q0 59 -72 59h-51z" />
    <glyph glyph-name="macron" unicode="&#xaf;" horiz-adv-x="696" 
d="M41 1145v246h614v-246h-614z" />
    <glyph glyph-name="degree" unicode="&#xb0;" horiz-adv-x="831" 
d="M416 963q-152 0 -253.5 102t-101.5 246q0 146 101.5 247t253.5 101t253 -101t101 -247q0 -145 -100 -246.5t-254 -101.5zM416 1208q45 0 72.5 28.5t27.5 74.5q0 44 -28 73t-72 29t-72.5 -29t-28.5 -73t28.5 -73.5t72.5 -29.5z" />
    <glyph glyph-name="plusminus" unicode="&#xb1;" horiz-adv-x="1146" 
d="M717 1065h327v-287h-327v-286h-287v286h-328v287h328v287h287v-287zM102 82v287h942v-287h-942z" />
    <glyph glyph-name="acute" unicode="&#xb4;" horiz-adv-x="614" 
d="M41 1147h295l237 287h-368z" />
    <glyph glyph-name="uni00B5" unicode="&#xb5;" horiz-adv-x="1269" 
d="M1157 287h72v-287h-133q-150 0 -232 88q-42 -55 -116 -86t-170 -31q-88 0 -158 33v-414h-307v1434h307v-584q0 -91 50 -138.5t128 -47.5q88 0 139 53t51 158v559h308v-676q0 -61 61 -61z" />
    <glyph glyph-name="paragraph" unicode="&#xb6;" horiz-adv-x="1429" 
d="M1331 1434v-267h-127v-1577h-286v1577h-140v-1577h-286v942q-187 0 -319 132.5t-132 318.5q0 187 131.5 319t319.5 132h839z" />
    <glyph glyph-name="periodcentered" unicode="&#xb7;" horiz-adv-x="573" 
d="M287 514q-79 0 -137 58t-58 137t57.5 136.5t137.5 57.5q79 0 136.5 -57.5t57.5 -136.5q0 -80 -57.5 -137.5t-136.5 -57.5z" />
    <glyph glyph-name="cedilla" unicode="&#xb8;" horiz-adv-x="542" 
d="M373 -94q51 -13 90 -52.5t39 -105.5q0 -217 -461 -190v213q195 -15 195 28q0 31 -109 41v160h246v-94z" />
    <glyph glyph-name="guillemotright" unicode="&#xbb;" horiz-adv-x="1150" 
d="M393 1022l225 -389l-225 -389h-270l225 389l-225 389h270zM803 1022l225 -389l-225 -389h-271l226 389l-226 389h271z" />
    <glyph glyph-name="onequarter" unicode="&#xbc;" horiz-adv-x="1662" 
d="M469 614h-250v572l-162 -45l-57 202l250 91h219v-820zM1053 1434h204l-819 -1434h-205zM1632 350v-225h-76v-125h-237v125h-369v225l250 469h266l-239 -469h92v125h237v-125h76z" />
    <glyph glyph-name="onehalf" unicode="&#xbd;" horiz-adv-x="1669" 
d="M469 614h-250v572l-162 -45l-57 202l250 91h219v-820zM1053 1434h204l-819 -1434h-205zM1348 225h251v-225h-626v158l297 301q65 65 65 108q0 26 -17 41t-46 15q-68 0 -109 -97l-202 115q40 95 120.5 151t194.5 56q133 0 222 -72.5t89 -187.5q0 -75 -37 -136t-106 -130z
" />
    <glyph glyph-name="threequarters" unicode="&#xbe;" horiz-adv-x="1810" 
d="M664 864q0 -136 -85.5 -207t-238.5 -71q-247 0 -330 184l211 123q18 -51 46.5 -71.5t72.5 -20.5q72 0 72 63q0 30 -22.5 46t-59.5 16h-49l-86 127l127 155h-273v226h576v-174l-138 -162q85 -28 131 -88t46 -146zM1200 1434h205l-819 -1434h-205zM1780 350v-225h-76v-125
h-238v125h-368v225l250 469h266l-240 -469h92v125h238v-125h76z" />
    <glyph glyph-name="questiondown" unicode="&#xbf;" horiz-adv-x="1146" 
d="M594 1053q79 0 136.5 -57.5t57.5 -137.5t-57 -137t-137 -57t-137.5 57.5t-57.5 136.5q0 80 57.5 137.5t137.5 57.5zM758 512q0 -66 -34 -127t-82 -106.5t-96 -88.5t-82 -92t-34 -98q0 -56 38 -87.5t114 -31.5q148 0 221 172l282 -162q-67 -156 -205 -242.5t-311 -86.5
q-89 0 -171.5 27t-149 77t-106.5 129.5t-40 175.5q0 85 34 158.5t82 124t96 93.5t82 85t34 80h328z" />
    <glyph glyph-name="Agrave" unicode="&#xc0;" horiz-adv-x="1392" 
d="M881 1556h-295l-238 287h369zM1034 0l-71 225h-533l-72 -225h-358l487 1434h418l488 -1434h-359zM528 532h336l-168 527z" />
    <glyph glyph-name="Aacute" unicode="&#xc1;" horiz-adv-x="1392" 
d="M1044 1843l-237 -287h-295l164 287h368zM1034 0l-71 225h-533l-72 -225h-358l487 1434h418l488 -1434h-359zM528 532h336l-168 527z" />
    <glyph glyph-name="Acircumflex" unicode="&#xc2;" horiz-adv-x="1392" 
d="M686 1649l-72 -113h-297l218 307h303l217 -307h-297zM1034 0l-71 225h-533l-72 -225h-358l487 1434h418l488 -1434h-359zM528 532h336l-168 527z" />
    <glyph glyph-name="Atilde" unicode="&#xc3;" horiz-adv-x="1392" 
d="M662 1591q-52 32 -70.5 22t-18.5 -71h-245q0 101 24 173t63.5 107.5t92 46t108.5 -4t113 -49.5q53 -32 70.5 -22t17.5 71h246q0 -101 -24 -173t-63.5 -107.5t-92 -46t-108.5 4t-113 49.5zM1034 0l-71 225h-533l-72 -225h-358l487 1434h418l488 -1434h-359zM528 532h336
l-168 527z" />
    <glyph glyph-name="Adieresis" unicode="&#xc4;" horiz-adv-x="1392" 
d="M502 1516q-63 0 -108.5 45t-45.5 108t45.5 108.5t108.5 45.5t108 -45.5t45 -108.5t-45 -108t-108 -45zM891 1516q-63 0 -108.5 45t-45.5 108t45.5 108.5t108.5 45.5t108 -45.5t45 -108.5t-45 -108t-108 -45zM1034 0l-71 225h-533l-72 -225h-358l487 1434h418l488 -1434
h-359zM528 532h336l-168 527z" />
    <glyph glyph-name="Aring" unicode="&#xc5;" horiz-adv-x="1392" 
d="M1034 0l-71 225h-533l-72 -225h-358l481 1415q-57 66 -57 162q0 110 76.5 183t195.5 73q121 0 197 -73t76 -183q0 -93 -58 -164l482 -1413h-359zM696 1647q-34 0 -52.5 -19.5t-18.5 -50.5t18.5 -50.5t52.5 -19.5q35 0 54.5 19.5t19.5 50.5t-19.5 50.5t-54.5 19.5z
M528 532h336l-168 527z" />
    <glyph glyph-name="AE" unicode="&#xc6;" horiz-adv-x="1802" 
d="M1239 315h502v-315h-819v225h-422l-131 -225h-369l838 1434h893v-316h-492v-237h440v-312h-440v-254zM678 532h244v418z" />
    <glyph glyph-name="Ccedilla" unicode="&#xc7;" horiz-adv-x="1472" 
d="M807 291q109 0 198 46.5t134 129.5l282 -164q-75 -124 -200 -207.5t-277 -111.5v-78q51 -13 90 -52.5t39 -105.5q0 -217 -461 -190v213q195 -15 195 28q0 31 -109 41v137q-281 37 -459 244t-178 496q0 209 95.5 379t267 268t383.5 98q193 0 356 -89t258 -243l-282 -163
q-47 83 -135 129.5t-197 46.5q-190 0 -304 -116.5t-114 -309.5t114 -309.5t304 -116.5z" />
    <glyph glyph-name="Egrave" unicode="&#xc8;" horiz-adv-x="1085" 
d="M754 1556h-295l-238 287h369zM451 315h573v-315h-901v1434h891v-316h-563v-237h512v-312h-512v-254z" />
    <glyph glyph-name="Eacute" unicode="&#xc9;" horiz-adv-x="1085" 
d="M918 1843l-238 -287h-295l164 287h369zM451 315h573v-315h-901v1434h891v-316h-563v-237h512v-312h-512v-254z" />
    <glyph glyph-name="Ecircumflex" unicode="&#xca;" horiz-adv-x="1085" 
d="M559 1649l-72 -113h-297l218 307h303l217 -307h-297zM451 315h573v-315h-901v1434h891v-316h-563v-237h512v-312h-512v-254z" />
    <glyph glyph-name="Edieresis" unicode="&#xcb;" horiz-adv-x="1085" 
d="M375 1516q-63 0 -108.5 45t-45.5 108t45.5 108.5t108.5 45.5t108 -45.5t45 -108.5t-45 -108t-108 -45zM764 1516q-63 0 -108.5 45t-45.5 108t45.5 108.5t108.5 45.5t108.5 -45.5t45.5 -108.5t-45.5 -108t-108.5 -45zM451 315h573v-315h-901v1434h891v-316h-563v-237h512
v-312h-512v-254z" />
    <glyph glyph-name="Igrave" unicode="&#xcc;" horiz-adv-x="573" 
d="M471 1556l-164 287h-368l237 -287h295zM123 1434h328v-1434h-328v1434z" />
    <glyph glyph-name="Iacute" unicode="&#xcd;" horiz-adv-x="573" 
d="M102 1556h295l238 287h-369zM123 1434h328v-1434h-328v1434z" />
    <glyph glyph-name="Icircumflex" unicode="&#xce;" horiz-adv-x="573" 
d="M276 1649l-71 -113h-297l217 307h303l217 -307h-297zM123 0v1434h328v-1434h-328z" />
    <glyph glyph-name="Idieresis" unicode="&#xcf;" horiz-adv-x="573" 
d="M92 1516q-63 0 -108 45t-45 108t45 108.5t108 45.5t108.5 -45.5t45.5 -108.5t-45.5 -108t-108.5 -45zM481 1516q-63 0 -108 45t-45 108t45 108.5t108 45.5t108.5 -45.5t45.5 -108.5t-45.5 -108t-108.5 -45zM123 1434h328v-1434h-328v1434z" />
    <glyph glyph-name="Eth" unicode="&#xd0;" horiz-adv-x="1536" 
d="M778 1434q146 0 275.5 -55.5t221.5 -150.5t146 -228t54 -283t-54 -283t-146 -228t-221.5 -150.5t-275.5 -55.5h-573v549h-164v295h164v590h573zM778 315q170 0 275.5 109.5t105.5 292.5t-105.5 292t-275.5 109h-246v-274h287v-295h-287v-234h246z" />
    <glyph glyph-name="Ntilde" unicode="&#xd1;" horiz-adv-x="1372" 
d="M297 1542q0 101 24 173t63.5 107.5t92 46t108.5 -4t113 -49.5q52 -32 70 -22t18 71h246q0 -101 -24 -173t-63.5 -107.5t-92 -46t-108.5 4t-113 49.5q-53 32 -70.5 22t-17.5 -71h-246zM922 1434h327v-1434h-245l-553 778v-778h-328v1434h246l553 -779v779z" />
    <glyph glyph-name="Ograve" unicode="&#xd2;" horiz-adv-x="1613" 
d="M991 1577l-164 287h-368l237 -287h295zM807 -29q-152 0 -290 57.5t-238 156.5t-159 238t-59 294q0 207 100 378.5t271 269t375 97.5q203 0 374 -97.5t271 -269t100 -378.5t-100 -379t-271 -269.5t-374 -97.5zM807 291q178 0 298 118.5t120 307.5t-120 307.5t-298 118.5
t-298 -118.5t-120 -307.5t120 -307.5t298 -118.5z" />
    <glyph glyph-name="Oacute" unicode="&#xd3;" horiz-adv-x="1613" 
d="M623 1577h295l237 287h-369zM807 -29q-152 0 -290 57.5t-238 156.5t-159 238t-59 294q0 207 100 378.5t271 269t375 97.5q203 0 374 -97.5t271 -269t100 -378.5t-100 -379t-271 -269.5t-374 -97.5zM807 291q178 0 298 118.5t120 307.5t-120 307.5t-298 118.5t-298 -118.5
t-120 -307.5t120 -307.5t298 -118.5z" />
    <glyph glyph-name="Ocircumflex" unicode="&#xd4;" horiz-adv-x="1613" 
d="M797 1669l-72 -113h-297l217 308h303l217 -308h-297zM807 1462q203 0 374 -97.5t271 -269t100 -378.5t-100 -379t-271 -269.5t-374 -97.5q-152 0 -290 57.5t-238 156.5t-159 238t-59 294q0 207 100 378.5t271 269t375 97.5zM807 291q178 0 298 118.5t120 307.5
t-120 307.5t-298 118.5t-298 -118.5t-120 -307.5t120 -307.5t298 -118.5z" />
    <glyph glyph-name="Otilde" unicode="&#xd5;" horiz-adv-x="1613" 
d="M438 1563q0 101 24 173t64 107.5t92 46t108.5 -4.5t113.5 -50q52 -32 70 -22t18 71h246q0 -101 -24 -173t-64 -107.5t-92 -46t-108.5 4.5t-113.5 50q-52 32 -70 22t-18 -71h-246zM807 -29q-152 0 -290 57.5t-238 156.5t-159 238t-59 294q0 207 100 378.5t271 269
t375 97.5q203 0 374 -97.5t271 -269t100 -378.5t-100 -379t-271 -269.5t-374 -97.5zM807 291q178 0 298 118.5t120 307.5t-120 307.5t-298 118.5t-298 -118.5t-120 -307.5t120 -307.5t298 -118.5z" />
    <glyph glyph-name="Odieresis" unicode="&#xd6;" horiz-adv-x="1613" 
d="M612 1536q-63 0 -108 45.5t-45 108.5t45 108t108 45t108.5 -45t45.5 -108t-45.5 -108.5t-108.5 -45.5zM1001 1536q-63 0 -108 45.5t-45 108.5t45 108t108 45t108.5 -45t45.5 -108t-45.5 -108.5t-108.5 -45.5zM807 -29q-152 0 -290 57.5t-238 156.5t-159 238t-59 294
q0 207 100 378.5t271 269t375 97.5q203 0 374 -97.5t271 -269t100 -378.5t-100 -379t-271 -269.5t-374 -97.5zM807 291q178 0 298 118.5t120 307.5t-120 307.5t-298 118.5t-298 -118.5t-120 -307.5t120 -307.5t298 -118.5z" />
    <glyph glyph-name="multiply" unicode="&#xd7;" horiz-adv-x="1075" 
d="M973 950l-234 -233l234 -234l-203 -200l-231 233l-234 -233l-203 200l234 234l-234 233l203 201l234 -231l231 231z" />
    <glyph glyph-name="Oslash" unicode="&#xd8;" horiz-adv-x="1624" 
d="M1356 1237q99 -102 153 -235.5t54 -284.5q0 -155 -59 -294t-159 -238t-238 -156.5t-290 -57.5q-216 0 -403 115l-95 -115l-153 88l113 138q-99 102 -153 235.5t-54 284.5q0 207 100 378.5t271 269t374 97.5q219 0 404 -114l94 114l153 -88zM399 717q0 -155 86 -268
l531 647q-89 47 -199 47q-178 0 -298 -118.5t-120 -307.5zM817 291q178 0 298 118.5t120 307.5q0 155 -86 268l-531 -647q89 -47 199 -47z" />
    <glyph glyph-name="Ugrave" unicode="&#xd9;" horiz-adv-x="1331" 
d="M850 1556l-164 287h-369l238 -287h295zM666 -29q-158 0 -282.5 58t-197.5 171t-73 263v971h327v-942q0 -201 226 -201q225 0 225 201v942h328v-971q0 -150 -73 -263t-197.5 -171t-282.5 -58z" />
    <glyph glyph-name="Uacute" unicode="&#xda;" horiz-adv-x="1331" 
d="M481 1556h295l238 287h-369zM666 -29q-158 0 -282.5 58t-197.5 171t-73 263v971h327v-942q0 -201 226 -201q225 0 225 201v942h328v-971q0 -150 -73 -263t-197.5 -171t-282.5 -58z" />
    <glyph glyph-name="Ucircumflex" unicode="&#xdb;" horiz-adv-x="1331" 
d="M655 1649l-71 -113h-297l217 307h303l217 -307h-297zM891 1434h328v-971q0 -150 -73 -263t-197.5 -171t-282.5 -58t-282.5 58t-197.5 171t-73 263v971h327v-942q0 -201 226 -201q225 0 225 201v942z" />
    <glyph glyph-name="Udieresis" unicode="&#xdc;" horiz-adv-x="1331" 
d="M471 1516q-63 0 -108.5 45t-45.5 108t45.5 108.5t108.5 45.5t108.5 -45.5t45.5 -108.5t-45.5 -108t-108.5 -45zM860 1516q-63 0 -108 45t-45 108t45 108.5t108 45.5t108.5 -45.5t45.5 -108.5t-45.5 -108t-108.5 -45zM666 -29q-158 0 -282.5 58t-197.5 171t-73 263v971
h327v-942q0 -201 226 -201q225 0 225 201v942h328v-971q0 -150 -73 -263t-197.5 -171t-282.5 -58z" />
    <glyph glyph-name="Yacute" unicode="&#xdd;" horiz-adv-x="1290" 
d="M993 1843l-237 -287h-295l164 287h368zM1290 1434l-481 -883v-551h-328v551l-481 883h373l272 -553l273 553h372z" />
    <glyph glyph-name="Thorn" unicode="&#xde;" horiz-adv-x="1208" 
d="M676 1208q134 0 247 -65.5t178.5 -178.5t65.5 -247t-65.5 -247t-178.5 -179t-247 -66h-225v-225h-328v1434h328v-226h225zM676 532q68 0 116 53.5t48 131.5q0 77 -48 130.5t-116 53.5h-225v-369h225z" />
    <glyph glyph-name="germandbls" unicode="&#xdf;" horiz-adv-x="1114" 
d="M565 -14v270q120 -13 165.5 16t45.5 88q0 39 -35 99.5t-77.5 114.5t-77.5 117t-35 106q0 35 17.5 72t38 63.5t38 64.5t17.5 76q0 45 -29.5 78t-81.5 33q-60 0 -95.5 -37t-35.5 -109v-1038h-307v1034q0 195 121.5 311.5t330.5 116.5q184 0 294 -98t110 -236
q0 -60 -16 -110.5t-35.5 -79t-35.5 -61t-16 -60.5q0 -38 34 -97t74.5 -115.5t74.5 -140.5t34 -165q0 -365 -518 -313z" />
    <glyph glyph-name="agrave" unicode="&#xe0;" horiz-adv-x="1275" 
d="M819 1147h-295l-237 287h368zM856 1024h307v-1024h-307v96q-109 -125 -305 -125q-202 0 -346 157t-144 384t144 384t346 157q196 0 305 -125v96zM612 262q107 0 175.5 68t68.5 182t-68.5 182t-175.5 68t-175 -68t-68 -182t68 -182t175 -68z" />
    <glyph glyph-name="aacute" unicode="&#xe1;" horiz-adv-x="1275" 
d="M983 1434l-238 -287h-294l163 287h369zM856 1024h307v-1024h-307v96q-109 -125 -305 -125q-202 0 -346 157t-144 384t144 384t346 157q196 0 305 -125v96zM612 262q107 0 175.5 68t68.5 182t-68.5 182t-175.5 68t-175 -68t-68 -182t68 -182t175 -68z" />
    <glyph glyph-name="acircumflex" unicode="&#xe2;" horiz-adv-x="1275" 
d="M625 1239l-72 -113h-297l217 308h303l217 -308h-297zM856 1024h307v-1024h-307v96q-109 -125 -305 -125q-202 0 -346 157t-144 384t144 384t346 157q196 0 305 -125v96zM612 262q107 0 175.5 68t68.5 182t-68.5 182t-175.5 68t-175 -68t-68 -182t68 -182t175 -68z" />
    <glyph glyph-name="atilde" unicode="&#xe3;" horiz-adv-x="1275" 
d="M600 1182q-52 32 -70 22t-18 -71h-246q0 101 24 173t64 107.5t92 46t108.5 -4.5t113.5 -50q52 -32 70 -22t18 71h245q0 -101 -24 -173t-63.5 -107.5t-92 -46t-108.5 4.5t-113 50zM856 1024h307v-1024h-307v96q-109 -125 -305 -125q-202 0 -346 157t-144 384t144 384
t346 157q196 0 305 -125v96zM612 262q107 0 175.5 68t68.5 182t-68.5 182t-175.5 68t-175 -68t-68 -182t68 -182t175 -68z" />
    <glyph glyph-name="adieresis" unicode="&#xe4;" horiz-adv-x="1275" 
d="M440 1106q-63 0 -108 45.5t-45 108.5t45 108t108 45t108.5 -45t45.5 -108t-45.5 -108.5t-108.5 -45.5zM829 1106q-63 0 -108 45.5t-45 108.5t45 108t108 45t108.5 -45t45.5 -108t-45.5 -108.5t-108.5 -45.5zM856 1024h307v-1024h-307v96q-109 -125 -305 -125
q-202 0 -346 157t-144 384t144 384t346 157q196 0 305 -125v96zM612 262q107 0 175.5 68t68.5 182t-68.5 182t-175.5 68t-175 -68t-68 -182t68 -182t175 -68z" />
    <glyph glyph-name="aring" unicode="&#xe5;" horiz-adv-x="1275" 
d="M635 1096q-119 0 -196 73t-77 183t77 183t196 73q121 0 196.5 -73t75.5 -183t-75.5 -183t-196.5 -73zM635 1421q-34 0 -53 -19.5t-19 -49.5t19 -50t53 -20q35 0 54.5 19.5t19.5 50.5q0 30 -19.5 49.5t-54.5 19.5zM856 1024h307v-1024h-307v96q-109 -125 -305 -125
q-202 0 -346 157t-144 384t144 384t346 157q196 0 305 -125v96zM612 262q107 0 175.5 68t68.5 182t-68.5 182t-175.5 68t-175 -68t-68 -182t68 -182t175 -68z" />
    <glyph glyph-name="ae" unicode="&#xe6;" horiz-adv-x="1986" 
d="M1186 389q29 -75 95 -109t151 -34q61 0 112.5 21.5t83.5 56.5l246 -142q-78 -109 -171.5 -160t-234.5 -51q-198 0 -325 140v-111h-287v96q-109 -125 -305 -125q-202 0 -346 157t-144 384t144 384t346 157q196 0 305 -125v96h287v-109q125 138 317 138q218 0 341.5 -151
t123.5 -390q0 -64 -12 -123h-727zM1180 623h440q-23 82 -80.5 119.5t-132.5 37.5q-176 0 -227 -157zM612 262q107 0 175.5 68t68.5 182t-68.5 182t-175.5 68t-175 -68t-68 -182t68 -182t175 -68z" />
    <glyph glyph-name="ccedilla" unicode="&#xe7;" horiz-adv-x="1087" 
d="M600 274q68 0 121 30.5t78 84.5l268 -153q-51 -92 -135.5 -156t-190.5 -92v-82q51 -13 90 -52.5t39 -105.5q0 -217 -460 -190v213q194 -15 194 28q0 31 -108 41v142q-193 35 -314 182.5t-121 347.5q0 230 155.5 385.5t387.5 155.5q148 0 272 -71t191 -191l-268 -156
q-26 54 -79 84.5t-120 30.5q-100 0 -165.5 -66.5t-65.5 -171.5t65.5 -171.5t165.5 -66.5z" />
    <glyph glyph-name="egrave" unicode="&#xe8;" 
d="M778 1157h-295l-237 287h368zM387 389q53 -143 246 -143q61 0 112.5 21.5t83.5 56.5l246 -142q-152 -211 -446 -211q-129 0 -236 41.5t-179.5 114.5t-112.5 172t-40 213q0 152 68 275t193 194.5t284 71.5q224 0 372 -154.5t148 -386.5q0 -64 -12 -123h-727zM381 618h440
q-23 84 -82 123t-135 39q-87 0 -144 -42t-79 -120z" />
    <glyph glyph-name="eacute" unicode="&#xe9;" 
d="M942 1444l-237 -287h-295l163 287h369zM387 389q53 -143 246 -143q61 0 112.5 21.5t83.5 56.5l246 -142q-152 -211 -446 -211q-129 0 -236 41.5t-179.5 114.5t-112.5 172t-40 213q0 152 68 275t193 194.5t284 71.5q224 0 372 -154.5t148 -386.5q0 -64 -12 -123h-727z
M381 618h440q-23 84 -82 123t-135 39q-87 0 -144 -42t-79 -120z" />
    <glyph glyph-name="ecircumflex" unicode="&#xea;" 
d="M584 1249l-72 -112h-297l217 307h303l217 -307h-297zM387 389q53 -143 246 -143q61 0 112.5 21.5t83.5 56.5l246 -142q-152 -211 -446 -211q-129 0 -236 41.5t-179.5 114.5t-112.5 172t-40 213q0 152 68 275t193 194.5t284 71.5q224 0 372 -154.5t148 -386.5
q0 -64 -12 -123h-727zM381 618h440q-23 84 -82 123t-135 39q-87 0 -144 -42t-79 -120z" />
    <glyph glyph-name="edieresis" unicode="&#xeb;" 
d="M399 1116q-63 0 -108 45.5t-45 108.5t45 108t108 45t108.5 -45t45.5 -108t-45.5 -108.5t-108.5 -45.5zM788 1116q-63 0 -108 45.5t-45 108.5t45 108t108 45t108.5 -45t45.5 -108t-45.5 -108.5t-108.5 -45.5zM387 389q53 -143 246 -143q61 0 112.5 21.5t83.5 56.5
l246 -142q-152 -211 -446 -211q-129 0 -236 41.5t-179.5 114.5t-112.5 172t-40 213q0 152 68 275t193 194.5t284 71.5q224 0 372 -154.5t148 -386.5q0 -64 -12 -123h-727zM381 618h440q-23 84 -82 123t-135 39q-87 0 -144 -42t-79 -120z" />
    <glyph glyph-name="igrave" unicode="&#xec;" horiz-adv-x="532" 
d="M410 1126l-82 308h-348l135 -308h295zM420 0h-307v1024h307v-1024z" />
    <glyph glyph-name="iacute" unicode="&#xed;" horiz-adv-x="532" 
d="M113 1126h295l135 308h-348zM113 0v1024h307v-1024h-307z" />
    <glyph glyph-name="icircumflex" unicode="&#xee;" horiz-adv-x="532" 
d="M266 1217l-51 -91h-297l197 308h303l196 -308h-297zM113 0v1024h307v-1024h-307z" />
    <glyph glyph-name="idieresis" unicode="&#xef;" horiz-adv-x="532" 
d="M82 1116q-63 0 -108.5 45.5t-45.5 108.5t45.5 108t108.5 45t108.5 -45t45.5 -108t-45.5 -108.5t-108.5 -45.5zM451 1116q-63 0 -108.5 45.5t-45.5 108.5t45.5 108t108.5 45t108 -45t45 -108t-45 -108.5t-108 -45.5zM113 0v1024h307v-1024h-307z" />
    <glyph glyph-name="eth" unicode="&#xf0;" horiz-adv-x="1159" 
d="M1004 758q94 -130 94 -287q0 -151 -73 -266t-189.5 -172.5t-255.5 -57.5q-103 0 -196.5 34t-165.5 96t-114.5 157t-42.5 209q0 123 59 227t162.5 166.5t229.5 65.5l-104 141l-271 -125v205l160 74l-150 209h353l63 -84l244 112v-205l-131 -61zM580 262q95 0 153 55.5
t58 153.5q0 65 -37 121q-61 80 -174 80q-95 0 -153 -54t-58 -147q0 -98 58 -153.5t153 -55.5z" />
    <glyph glyph-name="ntilde" unicode="&#xf1;" horiz-adv-x="1193" 
d="M582 1202q-52 32 -70 22t-18 -71h-246q0 101 24 173t63.5 107.5t92 46t108.5 -4.5t113 -50q53 -32 70.5 -22t17.5 72h246q0 -101 -24 -173t-63.5 -107.5t-92 -46t-108.5 4t-113 49.5zM713 1053q163 0 273 -112.5t110 -311.5v-629h-308v584q0 91 -50 138.5t-128 47.5
q-88 0 -139 -53t-51 -158v-559h-307v1024h307v-96q42 58 118 91.5t175 33.5z" />
    <glyph glyph-name="ograve" unicode="&#xf2;" horiz-adv-x="1208" 
d="M788 1167l-163 287h-369l238 -287h294zM604 -29q-149 0 -273.5 71t-197 195.5t-72.5 274.5t72.5 274.5t197 195.5t273.5 71t273.5 -71t197 -195.5t72.5 -274.5t-72.5 -274.5t-197 -195.5t-273.5 -71zM604 270q101 0 168.5 67.5t67.5 174.5t-67.5 174.5t-168.5 67.5
t-168 -67.5t-67 -174.5t67 -174.5t168 -67.5z" />
    <glyph glyph-name="oacute" unicode="&#xf3;" horiz-adv-x="1208" 
d="M420 1167h295l237 287h-368zM604 -29q-149 0 -273.5 71t-197 195.5t-72.5 274.5t72.5 274.5t197 195.5t273.5 71t273.5 -71t197 -195.5t72.5 -274.5t-72.5 -274.5t-197 -195.5t-273.5 -71zM604 270q101 0 168.5 67.5t67.5 174.5t-67.5 174.5t-168.5 67.5t-168 -67.5
t-67 -174.5t67 -174.5t168 -67.5z" />
    <glyph glyph-name="ocircumflex" unicode="&#xf4;" horiz-adv-x="1208" 
d="M594 1260l-72 -113h-297l217 307h303l218 -307h-297zM604 1053q149 0 273.5 -71t197 -195.5t72.5 -274.5t-72.5 -274.5t-197 -195.5t-273.5 -71t-273.5 71t-197 195.5t-72.5 274.5t72.5 274.5t197 195.5t273.5 71zM604 270q101 0 168.5 67.5t67.5 174.5t-67.5 174.5
t-168.5 67.5t-168 -67.5t-67 -174.5t67 -174.5t168 -67.5z" />
    <glyph glyph-name="otilde" unicode="&#xf5;" horiz-adv-x="1208" 
d="M236 1153q0 101 24 173t63.5 107.5t92 46t108.5 -4.5t113 -50q53 -32 70.5 -22t17.5 72h246q0 -101 -24 -173t-64 -107.5t-92 -46t-108.5 4t-113.5 49.5q-53 32 -70.5 22t-17.5 -71h-245zM604 -29q-149 0 -273.5 71t-197 195.5t-72.5 274.5t72.5 274.5t197 195.5
t273.5 71t273.5 -71t197 -195.5t72.5 -274.5t-72.5 -274.5t-197 -195.5t-273.5 -71zM604 270q101 0 168.5 67.5t67.5 174.5t-67.5 174.5t-168.5 67.5t-168 -67.5t-67 -174.5t67 -174.5t168 -67.5z" />
    <glyph glyph-name="odieresis" unicode="&#xf6;" horiz-adv-x="1208" 
d="M410 1126q-63 0 -108.5 45.5t-45.5 108.5t45.5 108.5t108.5 45.5t108 -45.5t45 -108.5t-45 -108.5t-108 -45.5zM799 1126q-63 0 -108.5 45.5t-45.5 108.5t45.5 108.5t108.5 45.5t108 -45.5t45 -108.5t-45 -108.5t-108 -45.5zM604 -29q-149 0 -273.5 71t-197 195.5
t-72.5 274.5t72.5 274.5t197 195.5t273.5 71t273.5 -71t197 -195.5t72.5 -274.5t-72.5 -274.5t-197 -195.5t-273.5 -71zM604 270q101 0 168.5 67.5t67.5 174.5t-67.5 174.5t-168.5 67.5t-168 -67.5t-67 -174.5t67 -174.5t168 -67.5z" />
    <glyph glyph-name="divide" unicode="&#xf7;" horiz-adv-x="1146" 
d="M573 936q-78 0 -131 53t-53 131t53 131.5t131 53.5t131.5 -53.5t53.5 -131.5t-53.5 -131t-131.5 -53zM82 573v287h983v-287h-983zM573 129q-78 0 -131 53t-53 131t53 131.5t131 53.5t131.5 -53.5t53.5 -131.5t-53.5 -131t-131.5 -53z" />
    <glyph glyph-name="oslash" unicode="&#xf8;" horiz-adv-x="1208" 
d="M1004 881q143 -153 143 -369q0 -150 -72.5 -274.5t-197 -195.5t-273.5 -71q-157 0 -289 80l-59 -71l-125 69l76 92q-146 156 -146 371q0 150 72.5 274.5t197 195.5t273.5 71q162 0 289 -82l61 73l125 -71zM369 512q0 -78 34 -133l295 356q-46 19 -94 19
q-101 0 -168 -67.5t-67 -174.5zM604 270q101 0 168.5 67.5t67.5 174.5q0 70 -33 131l-295 -356q46 -17 92 -17z" />
    <glyph glyph-name="ugrave" unicode="&#xf9;" horiz-adv-x="1193" 
d="M774 1147h-295l-237 287h368zM774 1024h307v-1024h-307v96q-42 -58 -118 -91.5t-175 -33.5q-163 0 -273 112.5t-110 311.5v629h308v-584q0 -91 50 -138.5t128 -47.5q88 0 139 53t51 158v559z" />
    <glyph glyph-name="uacute" unicode="&#xfa;" horiz-adv-x="1193" 
d="M938 1434l-238 -287h-294l163 287h369zM774 1024h307v-1024h-307v96q-42 -58 -118 -91.5t-175 -33.5q-163 0 -273 112.5t-110 311.5v629h308v-584q0 -91 50 -138.5t128 -47.5q88 0 139 53t51 158v559z" />
    <glyph glyph-name="ucircumflex" unicode="&#xfb;" horiz-adv-x="1193" 
d="M580 1239l-72 -113h-297l217 308h303l217 -308h-297zM774 1024h307v-1024h-307v96q-42 -58 -118 -91.5t-175 -33.5q-163 0 -273 112.5t-110 311.5v629h308v-584q0 -91 50 -138.5t128 -47.5q88 0 139 53t51 158v559z" />
    <glyph glyph-name="udieresis" unicode="&#xfc;" horiz-adv-x="1193" 
d="M395 1106q-63 0 -108 45.5t-45 108.5t45 108t108 45t108.5 -45t45.5 -108t-45.5 -108.5t-108.5 -45.5zM784 1106q-63 0 -108 45.5t-45 108.5t45 108t108 45t108.5 -45t45.5 -108t-45.5 -108.5t-108.5 -45.5zM774 1024h307v-1024h-307v96q-42 -58 -118 -91.5t-175 -33.5
q-163 0 -273 112.5t-110 311.5v629h308v-584q0 -91 50 -138.5t128 -47.5q88 0 139 53t51 158v559z" />
    <glyph glyph-name="yacute" unicode="&#xfd;" horiz-adv-x="1085" 
d="M893 1434l-238 -287h-295l164 287h369zM758 1024h327l-350 -993q-86 -242 -226 -347t-357 -94v287q107 0 164.5 38t91.5 132l-408 977h338l227 -627z" />
    <glyph glyph-name="thorn" unicode="&#xfe;" horiz-adv-x="1275" 
d="M725 1053q202 0 345.5 -157t143.5 -384t-143.5 -384t-345.5 -157q-196 0 -305 125v-506h-307v1844h307v-506q109 125 305 125zM664 262q107 0 175 68t68 182t-68 182t-175 68t-175.5 -68t-68.5 -182t68.5 -182t175.5 -68z" />
    <glyph glyph-name="ydieresis" unicode="&#xff;" horiz-adv-x="1085" 
d="M350 1106q-63 0 -108 45.5t-45 108.5t45 108t108 45t108.5 -45t45.5 -108t-45.5 -108.5t-108.5 -45.5zM739 1106q-63 0 -108 45.5t-45 108.5t45 108t108 45t108.5 -45t45.5 -108t-45.5 -108.5t-108.5 -45.5zM758 1024h327l-350 -993q-86 -242 -226 -347t-357 -94v287
q107 0 164.5 38t91.5 132l-408 977h338l227 -627z" />
    <glyph glyph-name="Amacron" unicode="&#x100;" horiz-adv-x="1392" 
d="M1004 1800v-246h-615v246h615zM1034 0l-71 225h-533l-72 -225h-358l487 1434h418l488 -1434h-359zM528 532h336l-168 527z" />
    <glyph glyph-name="amacron" unicode="&#x101;" horiz-adv-x="1275" 
d="M942 1391v-246h-614v246h614zM856 1024h307v-1024h-307v96q-109 -125 -305 -125q-202 0 -346 157t-144 384t144 384t346 157q196 0 305 -125v96zM612 262q107 0 175.5 68t68.5 182t-68.5 182t-175.5 68t-175 -68t-68 -182t68 -182t175 -68z" />
    <glyph glyph-name="Abreve" unicode="&#x102;" horiz-adv-x="1392" 
d="M696 1520q-173 0 -265.5 80t-92.5 227h270q0 -45 23 -69.5t65 -24.5t65 24.5t23 69.5h271q0 -147 -93 -227t-266 -80zM1034 0l-71 225h-533l-72 -225h-358l487 1434h418l488 -1434h-359zM528 532h336l-168 527z" />
    <glyph glyph-name="abreve" unicode="&#x103;" horiz-adv-x="1275" 
d="M635 1110q-173 0 -266 80t-93 227h271q0 -45 23 -69.5t65 -24.5t65 24.5t23 69.5h270q0 -147 -92.5 -227t-265.5 -80zM856 1024h307v-1024h-307v96q-109 -125 -305 -125q-202 0 -346 157t-144 384t144 384t346 157q196 0 305 -125v96zM612 262q107 0 175.5 68t68.5 182
t-68.5 182t-175.5 68t-175 -68t-68 -182t68 -182t175 -68z" />
    <glyph glyph-name="Aogonek" unicode="&#x104;" horiz-adv-x="1392" 
d="M1346 -227q15 -3 47 8v-184q-84 -35 -181 -35q-90 0 -147 47t-57 139q0 114 131 252h-105l-71 225h-533l-72 -225h-358l487 1434h418l488 -1434q-93 -104 -93 -174q-2 -25 10.5 -39t35.5 -14zM528 532h336l-168 527z" />
    <glyph glyph-name="aogonek" unicode="&#x105;" horiz-adv-x="1275" 
d="M1163 0q-92 -103 -92 -174q-3 -53 45 -53q15 -3 47 8v-184q-84 -35 -180 -35q-90 0 -147.5 47t-57.5 139q0 114 131 252h-53v96q-109 -125 -305 -125q-202 0 -346 157t-144 384t144 384t346 157q196 0 305 -125v96h307v-1024zM612 262q107 0 175.5 68t68.5 182t-68.5 182
t-175.5 68t-175 -68t-68 -182t68 -182t175 -68z" />
    <glyph glyph-name="Cacute" unicode="&#x106;" horiz-adv-x="1472" 
d="M623 1577h295l237 287h-369zM807 -29q-159 0 -298 57.5t-237 157t-154.5 237.5t-56.5 294q0 209 95.5 379t267 268t383.5 98q193 0 356 -89t258 -243l-282 -163q-47 83 -135 129.5t-197 46.5q-190 0 -304 -116.5t-114 -309.5t114 -309.5t304 -116.5q109 0 198 46.5
t134 129.5l282 -164q-93 -154 -256 -243t-358 -89z" />
    <glyph glyph-name="cacute" unicode="&#x107;" horiz-adv-x="1087" 
d="M424 1147h295l237 287h-368zM604 -29q-232 0 -387.5 155.5t-155.5 385.5t155.5 385.5t387.5 155.5q148 0 272 -71t191 -191l-268 -156q-26 54 -79 84.5t-120 30.5q-100 0 -165.5 -66.5t-65.5 -171.5t65.5 -171.5t165.5 -66.5q68 0 121 30.5t78 84.5l268 -153
q-67 -121 -190.5 -193t-272.5 -72z" />
    <glyph glyph-name="Cdotaccent" unicode="&#x10a;" horiz-adv-x="1472" 
d="M807 1546q-71 0 -122.5 52t-51.5 122t51.5 122t122.5 52t122.5 -52t51.5 -122t-51.5 -122t-122.5 -52zM807 -29q-159 0 -298 57.5t-237 157t-154.5 237.5t-56.5 294q0 209 95.5 379t267 268t383.5 98q193 0 356 -89t258 -243l-282 -163q-47 83 -135 129.5t-197 46.5
q-190 0 -304 -116.5t-114 -309.5t114 -309.5t304 -116.5q109 0 198 46.5t134 129.5l282 -164q-93 -154 -256 -243t-358 -89z" />
    <glyph glyph-name="cdotaccent" unicode="&#x10b;" horiz-adv-x="1087" 
d="M608 1116q-70 0 -122 52t-52 122t52 122t122 52t122 -52t52 -122t-52 -122t-122 -52zM604 -29q-232 0 -387.5 155.5t-155.5 385.5t155.5 385.5t387.5 155.5q148 0 272 -71t191 -191l-268 -156q-26 54 -79 84.5t-120 30.5q-100 0 -165.5 -66.5t-65.5 -171.5t65.5 -171.5
t165.5 -66.5q68 0 121 30.5t78 84.5l268 -153q-67 -121 -190.5 -193t-272.5 -72z" />
    <glyph glyph-name="Ccaron" unicode="&#x10c;" horiz-adv-x="1472" 
d="M645 1556l-217 308h297l72 -113l71 113h297l-217 -308h-303zM807 291q109 0 198 46.5t134 129.5l282 -164q-93 -154 -256 -243t-358 -89q-159 0 -298 57.5t-237 157t-154.5 237.5t-56.5 294q0 209 95.5 379t267 268t383.5 98q193 0 356 -89t258 -243l-282 -163
q-47 83 -135 129.5t-197 46.5q-190 0 -304 -116.5t-114 -309.5t114 -309.5t304 -116.5z" />
    <glyph glyph-name="ccaron" unicode="&#x10d;" horiz-adv-x="1087" 
d="M446 1126l-217 308h297l72 -113l72 113h297l-217 -308h-304zM600 274q68 0 121 30.5t78 84.5l268 -153q-67 -121 -190.5 -193t-272.5 -72q-232 0 -387.5 155.5t-155.5 385.5t155.5 385.5t387.5 155.5q148 0 272 -71t191 -191l-268 -156q-26 54 -79 84.5t-120 30.5
q-100 0 -165.5 -66.5t-65.5 -171.5t65.5 -171.5t165.5 -66.5z" />
    <glyph glyph-name="Dcaron" unicode="&#x10e;" horiz-adv-x="1454" 
d="M514 1536l-217 307h297l72 -112l71 112h297l-217 -307h-303zM696 1434q146 0 275.5 -55.5t221.5 -150.5t146 -228t54 -283t-54 -283t-146 -228t-221.5 -150.5t-275.5 -55.5h-573v1434h573zM696 315q170 0 275.5 109.5t105.5 292.5t-105.5 292t-275.5 109h-245v-803h245z
" />
    <glyph glyph-name="dcaron" unicode="&#x10f;" horiz-adv-x="1527" 
d="M856 928v506h307v-1434h-307v96q-109 -125 -305 -125q-202 0 -346 157t-144 384t144 384t346 157q196 0 305 -125zM1262 1434h286l-61 -430h-246zM612 262q107 0 175.5 68t68.5 182t-68.5 182t-175.5 68t-175 -68t-68 -182t68 -182t175 -68z" />
    <glyph glyph-name="Dcroat" unicode="&#x110;" horiz-adv-x="1536" 
d="M778 1434q146 0 275.5 -55.5t221.5 -150.5t146 -228t54 -283t-54 -283t-146 -228t-221.5 -150.5t-275.5 -55.5h-573v549h-164v295h164v590h573zM778 315q170 0 275.5 109.5t105.5 292.5t-105.5 292t-275.5 109h-246v-274h287v-295h-287v-234h246z" />
    <glyph glyph-name="dcroat" unicode="&#x111;" horiz-adv-x="1286" 
d="M1286 1311v-193h-123v-1118h-307v96q-109 -125 -305 -125q-202 0 -346 157t-144 384t144 384t346 157q196 0 305 -125v190h-287v193h287v123h307v-123h123zM612 262q107 0 175.5 68t68.5 182t-68.5 182t-175.5 68t-175 -68t-68 -182t68 -182t175 -68z" />
    <glyph glyph-name="Emacron" unicode="&#x112;" horiz-adv-x="1085" 
d="M877 1800v-246h-615v246h615zM451 315h573v-315h-901v1434h891v-316h-563v-237h512v-312h-512v-254z" />
    <glyph glyph-name="emacron" unicode="&#x113;" 
d="M901 1401v-246h-614v246h614zM387 389q53 -143 246 -143q61 0 112.5 21.5t83.5 56.5l246 -142q-152 -211 -446 -211q-129 0 -236 41.5t-179.5 114.5t-112.5 172t-40 213q0 152 68 275t193 194.5t284 71.5q224 0 372 -154.5t148 -386.5q0 -64 -12 -123h-727zM381 618h440
q-23 84 -82 123t-135 39q-87 0 -144 -42t-79 -120z" />
    <glyph glyph-name="Edotaccent" unicode="&#x116;" horiz-adv-x="1085" 
d="M569 1526q-71 0 -122.5 52t-51.5 122t51.5 122t122.5 52t122.5 -52t51.5 -122t-51.5 -122t-122.5 -52zM451 315h573v-315h-901v1434h891v-316h-563v-237h512v-312h-512v-254z" />
    <glyph glyph-name="edotaccent" unicode="&#x117;" 
d="M594 1126q-70 0 -122 52t-52 122q0 71 52 123t122 52t122 -52t52 -123q0 -70 -52 -122t-122 -52zM387 389q53 -143 246 -143q61 0 112.5 21.5t83.5 56.5l246 -142q-152 -211 -446 -211q-129 0 -236 41.5t-179.5 114.5t-112.5 172t-40 213q0 152 68 275t193 194.5
t284 71.5q224 0 372 -154.5t148 -386.5q0 -64 -12 -123h-727zM381 618h440q-23 84 -82 123t-135 39q-87 0 -144 -42t-79 -120z" />
    <glyph glyph-name="Eogonek" unicode="&#x118;" horiz-adv-x="1085" 
d="M1024 0q-92 -103 -92 -174q-3 -53 45 -53q15 -3 47 8v-184q-84 -35 -180 -35q-90 0 -147.5 47t-57.5 139q0 114 131 252h-647v1434h891v-316h-563v-237h512v-312h-512v-254h573v-315z" />
    <glyph glyph-name="eogonek" unicode="&#x119;" 
d="M387 389q53 -143 246 -143q61 0 112.5 21.5t83.5 56.5l246 -142q-32 -43 -74 -82q-87 -94 -119 -164t-32 -110q0 -53 45 -53q15 -3 47 8v-184q-84 -35 -180 -35q-90 0 -147.5 47t-57.5 139q0 117 137 225q-20 -2 -65 -2q-129 0 -236 41.5t-179.5 114.5t-112.5 172
t-40 213q0 152 68 275t193 194.5t284 71.5q224 0 372 -154.5t148 -386.5q0 -64 -12 -123h-727zM381 618h440q-23 84 -82 123t-135 39q-87 0 -144 -42t-79 -120z" />
    <glyph glyph-name="Ecaron" unicode="&#x11a;" horiz-adv-x="1085" 
d="M408 1536l-218 307h297l72 -112l72 112h297l-217 -307h-303zM451 315h573v-315h-901v1434h891v-316h-563v-237h512v-312h-512v-254z" />
    <glyph glyph-name="ecaron" unicode="&#x11b;" 
d="M432 1137l-217 307h297l72 -113l71 113h297l-217 -307h-303zM387 389q53 -143 246 -143q61 0 112.5 21.5t83.5 56.5l246 -142q-152 -211 -446 -211q-129 0 -236 41.5t-179.5 114.5t-112.5 172t-40 213q0 152 68 275t193 194.5t284 71.5q224 0 372 -154.5t148 -386.5
q0 -64 -12 -123h-727zM381 618h440q-23 84 -82 123t-135 39q-87 0 -144 -42t-79 -120z" />
    <glyph glyph-name="Gbreve" unicode="&#x11e;" horiz-adv-x="1603" 
d="M817 1540q-173 0 -265.5 80t-92.5 227h270q0 -45 23 -69.5t65 -24.5t65 24.5t23 69.5h271q0 -147 -93 -227t-266 -80zM1542 799v-123q0 -214 -93 -375.5t-252.5 -245.5t-360.5 -84q-166 0 -311 58.5t-246.5 158.5t-159.5 237t-58 290t58.5 291.5t158.5 238.5t240 158.5
t295 58.5q201 0 367.5 -89.5t259.5 -237.5l-279 -160q-46 74 -139.5 121t-210.5 47q-182 0 -302 -121t-120 -309q0 -186 122.5 -304t328.5 -118q140 0 233.5 58t132.5 163h-383v287h719z" />
    <glyph glyph-name="gbreve" unicode="&#x11f;" horiz-adv-x="1275" 
d="M600 1130q-172 0 -265 80.5t-93 227.5h270q0 -45 23 -70t65 -25t65 25t23 70h270q0 -147 -93 -227.5t-265 -80.5zM864 1024h299v-973q0 -124 -45.5 -220.5t-123 -153.5t-172 -86t-199.5 -29q-164 0 -290.5 62.5t-195.5 185.5l262 151q33 -61 86.5 -95t147.5 -34
q109 0 170 56t61 163v94q-108 -133 -299 -133q-142 0 -258.5 71t-181 190t-64.5 259q0 141 64.5 260t181 190t258.5 71q191 0 299 -133v104zM616 295q109 0 178.5 66t69.5 171t-69.5 171.5t-178.5 66.5t-178 -66t-69 -172q0 -105 69 -171t178 -66z" />
    <glyph glyph-name="Gdotaccent" unicode="&#x120;" horiz-adv-x="1603" 
d="M817 1546q-71 0 -122.5 52t-51.5 122t51.5 122t122.5 52t122.5 -52t51.5 -122t-51.5 -122t-122.5 -52zM1542 799v-123q0 -214 -93 -375.5t-252.5 -245.5t-360.5 -84q-166 0 -311 58.5t-246.5 158.5t-159.5 237t-58 290t58.5 291.5t158.5 238.5t240 158.5t295 58.5
q201 0 367.5 -89.5t259.5 -237.5l-279 -160q-46 74 -139.5 121t-210.5 47q-182 0 -302 -121t-120 -309q0 -186 122.5 -304t328.5 -118q140 0 233.5 58t132.5 163h-383v287h719z" />
    <glyph glyph-name="gdotaccent" unicode="&#x121;" horiz-adv-x="1275" 
d="M600 1137q-70 0 -122 51.5t-52 122.5t52 122.5t122 51.5t122 -51.5t52 -122.5t-52 -122.5t-122 -51.5zM864 1024h299v-973q0 -124 -45.5 -220.5t-123 -153.5t-172 -86t-199.5 -29q-164 0 -290.5 62.5t-195.5 185.5l262 151q33 -61 86.5 -95t147.5 -34q109 0 170 56
t61 163v94q-108 -133 -299 -133q-142 0 -258.5 71t-181 190t-64.5 259q0 141 64.5 260t181 190t258.5 71q191 0 299 -133v104zM616 295q109 0 178.5 66t69.5 171t-69.5 171.5t-178.5 66.5t-178 -66t-69 -172q0 -105 69 -171t178 -66z" />
    <glyph glyph-name="Gcommaaccent" unicode="&#x122;" horiz-adv-x="1603" 
d="M1542 799v-123q0 -214 -93 -375.5t-252.5 -245.5t-360.5 -84q-166 0 -311 58.5t-246.5 158.5t-159.5 237t-58 290t58.5 291.5t158.5 238.5t240 158.5t295 58.5q201 0 367.5 -89.5t259.5 -237.5l-279 -160q-46 74 -139.5 121t-210.5 47q-182 0 -302 -121t-120 -309
q0 -186 122.5 -304t328.5 -118q140 0 233.5 58t132.5 163h-383v287h719zM670 -553l20 430h287l-62 -430h-245z" />
    <glyph glyph-name="gcommaaccent" unicode="&#x123;" horiz-adv-x="1275" 
d="M750 1618l-21 -430h-287l62 430h246zM864 1024h299v-973q0 -124 -45.5 -220.5t-123 -153.5t-172 -86t-199.5 -29q-164 0 -290.5 62.5t-195.5 185.5l262 151q33 -61 86.5 -95t147.5 -34q109 0 170 56t61 163v94q-108 -133 -299 -133q-142 0 -258.5 71t-181 190t-64.5 259
q0 141 64.5 260t181 190t258.5 71q191 0 299 -133v104zM616 295q109 0 178.5 66t69.5 171t-69.5 171.5t-178.5 66.5t-178 -66t-69 -172q0 -105 69 -171t178 -66z" />
    <glyph glyph-name="Hbar" unicode="&#x126;" horiz-adv-x="1433" 
d="M1393 1255v-237h-123v-1018h-328v518h-450v-518h-328v1018h-123v237h123v179h328v-179h450v179h328v-179h123zM942 834v184h-450v-184h450z" />
    <glyph glyph-name="hbar" unicode="&#x127;" horiz-adv-x="1204" 
d="M723 1053q163 0 273 -112.5t110 -311.5v-629h-307v584q0 91 -50 138.5t-128 47.5q-88 0 -139.5 -53t-51.5 -158v-559h-307v1118h-123v193h123v123h307v-123h287v-193h-287v-190q42 58 118 91.5t175 33.5z" />
    <glyph glyph-name="Imacron" unicode="&#x12a;" horiz-adv-x="573" 
d="M-20 1554v246h614v-246h-614zM123 1434h328v-1434h-328v1434z" />
    <glyph glyph-name="imacron" unicode="&#x12b;" horiz-adv-x="532" 
d="M20 1145v266h492v-266h-492zM113 0v1024h307v-1024h-307z" />
    <glyph glyph-name="Iogonek" unicode="&#x12e;" horiz-adv-x="573" 
d="M434 -227q15 -3 47 8v-184q-84 -35 -180 -35q-90 0 -147.5 47t-57.5 139q0 116 101 252h-74v1434h328v-1434q-62 -95 -62 -174q-3 -53 45 -53z" />
    <glyph glyph-name="iogonek" unicode="&#x12f;" horiz-adv-x="532" 
d="M266 1114q-75 0 -129.5 54.5t-54.5 129.5t54.5 130t129.5 55t130 -55t55 -130t-55 -129.5t-130 -54.5zM399 -227q15 -3 47 8v-184q-84 -35 -180 -35q-90 0 -147.5 47t-57.5 139q0 115 95 252h-43v1024h307v-1024q-66 -107 -66 -174q-3 -53 45 -53z" />
    <glyph glyph-name="Idotaccent" unicode="&#x130;" horiz-adv-x="573" 
d="M287 1526q-71 0 -122.5 52t-51.5 122t51.5 122t122.5 52t122.5 -52t51.5 -122t-51.5 -122t-122.5 -52zM123 1434h328v-1434h-328v1434z" />
    <glyph glyph-name="dotlessi" unicode="&#x131;" horiz-adv-x="532" 
d="M113 0v1024h307v-1024h-307z" />
    <glyph glyph-name="Kcommaaccent" unicode="&#x136;" horiz-adv-x="1282" 
d="M778 735l504 -735h-373l-458 664v-664h-328v1434h328v-623l438 623h373zM481 -553l21 430h286l-61 -430h-246z" />
    <glyph glyph-name="kcommaaccent" unicode="&#x137;" horiz-adv-x="1095" 
d="M713 512l383 -512h-348l-328 453v-453h-307v1434h307v-859l307 449h358zM436 -553l21 430h286l-61 -430h-246z" />
    <glyph glyph-name="Lacute" unicode="&#x139;" horiz-adv-x="983" 
d="M659 1843l-237 -287h-295l164 287h368zM451 315h512v-315h-840v1434h328v-1119z" />
    <glyph glyph-name="lacute" unicode="&#x13a;" horiz-adv-x="532" 
d="M106 1556h295l238 287h-369zM113 0v1495h307v-1495h-307z" />
    <glyph glyph-name="Lcommaaccent" unicode="&#x13b;" horiz-adv-x="983" 
d="M451 315h512v-315h-840v1434h328v-1119zM406 -553l20 430h287l-62 -430h-245z" />
    <glyph glyph-name="lcommaaccent" unicode="&#x13c;" horiz-adv-x="532" 
d="M113 0v1495h307v-1495h-307zM354 -553l62 430h-287l-20 -430h245z" />
    <glyph glyph-name="Lcaron" unicode="&#x13d;" horiz-adv-x="983" 
d="M451 315h512v-315h-840v1434h328v-1119zM883 1434l-62 -390h-266l20 390h308z" />
    <glyph glyph-name="lcaron" unicode="&#x13e;" horiz-adv-x="780" 
d="M113 0v1495h307v-1495h-307zM739 1065l62 430h-287l-20 -430h245z" />
    <glyph glyph-name="Lslash" unicode="&#x141;" horiz-adv-x="1024" 
d="M492 315h512v-315h-840v408l-123 -74v334l123 73v693h328v-498l245 147v-333l-245 -148v-287z" />
    <glyph glyph-name="lslash" unicode="&#x142;" horiz-adv-x="552" 
d="M532 1024v-293l-102 -69v-662h-307v451l-103 -70v293l103 69v752h307v-541z" />
    <glyph glyph-name="Nacute" unicode="&#x143;" horiz-adv-x="1372" 
d="M481 1556h295l238 287h-369zM922 1434h327v-1434h-245l-553 778v-778h-328v1434h246l553 -779v779z" />
    <glyph glyph-name="nacute" unicode="&#x144;" horiz-adv-x="1193" 
d="M965 1454l-238 -287h-295l164 287h369zM713 1053q163 0 273 -112.5t110 -311.5v-629h-308v584q0 91 -50 138.5t-128 47.5q-88 0 -139 -53t-51 -158v-559h-307v1024h307v-96q42 58 118 91.5t175 33.5z" />
    <glyph glyph-name="Ncommaaccent" unicode="&#x145;" horiz-adv-x="1372" 
d="M922 1434h327v-1434h-245l-553 778v-778h-328v1434h246l553 -779v779zM784 -553l62 430h-287l-20 -430h245z" />
    <glyph glyph-name="ncommaaccent" unicode="&#x146;" horiz-adv-x="1193" 
d="M713 1053q163 0 273 -112.5t110 -311.5v-629h-308v584q0 91 -50 138.5t-128 47.5q-88 0 -139 -53t-51 -158v-559h-307v1024h307v-96q42 58 118 91.5t175 33.5zM453 -553l20 430h287l-62 -430h-245z" />
    <glyph glyph-name="Ncaron" unicode="&#x147;" horiz-adv-x="1372" 
d="M504 1536l-217 307h297l71 -112l72 112h297l-217 -307h-303zM922 1434h327v-1434h-245l-553 778v-778h-328v1434h246l553 -779v779z" />
    <glyph glyph-name="ncaron" unicode="&#x148;" horiz-adv-x="1193" 
d="M455 1147l-217 307h297l71 -113l72 113h297l-217 -307h-303zM713 1053q163 0 273 -112.5t110 -311.5v-629h-308v584q0 91 -50 138.5t-128 47.5q-88 0 -139 -53t-51 -158v-559h-307v1024h307v-96q42 58 118 91.5t175 33.5z" />
    <glyph glyph-name="Eng" unicode="&#x14a;" horiz-adv-x="1372" 
d="M922 1434h327v-1434q0 -205 -126.5 -315t-364.5 -95v297q85 0 124.5 30t39.5 103v95l-471 663v-778h-328v1434h246l553 -779v779z" />
    <glyph glyph-name="eng" unicode="&#x14b;" horiz-adv-x="1193" 
d="M713 1053q163 0 273 -112.5t110 -311.5v-629q0 -222 -111.5 -337.5t-339.5 -100.5v295q70 -8 106.5 25t36.5 118v584q0 91 -50 138.5t-128 47.5q-88 0 -139 -53t-51 -158v-559h-307v1024h307v-96q42 58 118 91.5t175 33.5z" />
    <glyph glyph-name="Omacron" unicode="&#x14c;" horiz-adv-x="1613" 
d="M500 1575v246h614v-246h-614zM807 -29q-152 0 -290 57.5t-238 156.5t-159 238t-59 294q0 207 100 378.5t271 269t375 97.5q203 0 374 -97.5t271 -269t100 -378.5t-100 -379t-271 -269.5t-374 -97.5zM807 291q178 0 298 118.5t120 307.5t-120 307.5t-298 118.5
t-298 -118.5t-120 -307.5t120 -307.5t298 -118.5z" />
    <glyph glyph-name="omacron" unicode="&#x14d;" horiz-adv-x="1208" 
d="M297 1165v246h614v-246h-614zM604 -29q-149 0 -273.5 71t-197 195.5t-72.5 274.5t72.5 274.5t197 195.5t273.5 71t273.5 -71t197 -195.5t72.5 -274.5t-72.5 -274.5t-197 -195.5t-273.5 -71zM604 270q101 0 168.5 67.5t67.5 174.5t-67.5 174.5t-168.5 67.5t-168 -67.5
t-67 -174.5t67 -174.5t168 -67.5z" />
    <glyph glyph-name="Ohungarumlaut" unicode="&#x150;" horiz-adv-x="1613" 
d="M418 1556h303l176 287h-315zM793 1556h303l196 287h-315zM807 -29q-152 0 -290 57.5t-238 156.5t-159 238t-59 294q0 207 100 378.5t271 269t375 97.5q203 0 374 -97.5t271 -269t100 -378.5t-100 -379t-271 -269.5t-374 -97.5zM807 291q178 0 298 118.5t120 307.5
t-120 307.5t-298 118.5t-298 -118.5t-120 -307.5t120 -307.5t298 -118.5z" />
    <glyph glyph-name="ohungarumlaut" unicode="&#x151;" horiz-adv-x="1208" 
d="M215 1147h303l176 287h-315zM590 1147h303l197 287h-316zM604 -29q-149 0 -273.5 71t-197 195.5t-72.5 274.5t72.5 274.5t197 195.5t273.5 71t273.5 -71t197 -195.5t72.5 -274.5t-72.5 -274.5t-197 -195.5t-273.5 -71zM604 270q101 0 168.5 67.5t67.5 174.5t-67.5 174.5
t-168.5 67.5t-168 -67.5t-67 -174.5t67 -174.5t168 -67.5z" />
    <glyph glyph-name="OE" unicode="&#x152;" horiz-adv-x="1875" 
d="M1323 315h492v-315h-820q-106 -29 -209 -29q-203 0 -369.5 98t-261 269t-94.5 379q0 156 56 294t152 237t230.5 156.5t286.5 57.5q106 0 209 -28h809v-316h-481v-237h430v-312h-430v-254zM995 322v790q-82 31 -209 31q-176 0 -286.5 -117.5t-110.5 -308.5t110.5 -308.5
t286.5 -117.5q127 0 209 31z" />
    <glyph glyph-name="oe" unicode="&#x153;" horiz-adv-x="1966" 
d="M1165 389q54 -143 236 -143q136 0 207 78l245 -142q-152 -211 -446 -211q-279 0 -416 207q-65 -98 -166.5 -152.5t-230.5 -54.5q-148 0 -270.5 71t-192.5 195.5t-70 274.5t70 274.5t192.5 195.5t270.5 71q128 0 230.5 -55t166.5 -152q63 98 167 152.5t241 54.5
q147 0 263 -70.5t179.5 -194t63.5 -276.5q0 -60 -13 -123h-727zM1159 623h440q-23 82 -80.5 119.5t-132.5 37.5q-176 0 -227 -157zM604 270q101 0 168.5 67.5t67.5 174.5t-67.5 174.5t-168.5 67.5t-168 -67.5t-67 -174.5t67 -174.5t168 -67.5z" />
    <glyph glyph-name="Racute" unicode="&#x154;" horiz-adv-x="1259" 
d="M942 1843l-237 -287h-295l163 287h369zM877 0l-271 471h-155v-471h-328v1434h573q134 0 247 -66t179 -179t66 -247q0 -131 -72 -243t-192 -173l305 -526h-352zM451 1126v-368h245q68 0 116 53.5t48 130.5t-48 130.5t-116 53.5h-245z" />
    <glyph glyph-name="racute" unicode="&#x155;" horiz-adv-x="757" 
d="M752 1434l-238 -287h-295l164 287h369zM420 842q29 97 116 149.5t191 52.5v-348q-39 4 -80.5 3t-82 -18t-73 -42.5t-52 -71.5t-19.5 -104v-463h-307v1024h307v-182z" />
    <glyph glyph-name="Rcommaaccent" unicode="&#x156;" horiz-adv-x="1259" 
d="M924 526l305 -526h-352l-271 471h-155v-471h-328v1434h573q134 0 247 -66t179 -179t66 -247q0 -131 -72 -243t-192 -173zM451 1126v-368h245q68 0 116 53.5t48 130.5t-48 130.5t-116 53.5h-245zM508 -553l20 430h287l-61 -430h-246z" />
    <glyph glyph-name="rcommaaccent" unicode="&#x157;" horiz-adv-x="757" 
d="M420 842q29 97 116 149.5t191 52.5v-348q-39 4 -80.5 3t-82 -18t-73 -42.5t-52 -71.5t-19.5 -104v-463h-307v1024h307v-182zM111 -553l20 430h287l-62 -430h-245z" />
    <glyph glyph-name="Rcaron" unicode="&#x158;" horiz-adv-x="1259" 
d="M432 1536l-217 307h297l72 -112l71 112h297l-217 -307h-303zM877 0l-271 471h-155v-471h-328v1434h573q134 0 247 -66t179 -179t66 -247q0 -131 -72 -243t-192 -173l305 -526h-352zM451 1126v-368h245q68 0 116 53.5t48 130.5t-48 130.5t-116 53.5h-245z" />
    <glyph glyph-name="rcaron" unicode="&#x159;" horiz-adv-x="757" 
d="M242 1126l-217 308h297l71 -113l72 113h297l-217 -308h-303zM420 842q29 97 116 149.5t191 52.5v-348q-39 4 -80.5 3t-82 -18t-73 -42.5t-52 -71.5t-19.5 -104v-463h-307v1024h307v-182z" />
    <glyph glyph-name="Sacute" unicode="&#x15a;" horiz-adv-x="1198" 
d="M422 1577h295l237 287h-368zM625 -29q-219 0 -365.5 95.5t-208.5 259.5l283 163q85 -198 301 -198q106 0 150 34t44 83q0 63 -63 99t-234 83q-71 20 -126.5 42t-113 58t-95.5 81t-62 110.5t-24 144.5q0 100 40 184t107.5 138t153.5 84t180 30q177 0 311.5 -82.5
t212.5 -240.5l-276 -162q-39 82 -97 124t-151 42q-73 0 -113.5 -31.5t-40.5 -77.5q0 -36 17.5 -61t74.5 -54.5t166 -62.5q62 -19 95 -30t90 -34t89 -43.5t72.5 -55t62 -73t37 -92t15.5 -116.5q0 -204 -147.5 -322.5t-384.5 -118.5z" />
    <glyph glyph-name="sacute" unicode="&#x15b;" horiz-adv-x="958" 
d="M823 1454l-237 -287h-295l164 287h368zM403 725q0 -23 28 -39.5t72 -28.5t98 -26t108 -38t98 -57.5t72 -92.5t28 -136q0 -85 -35 -151.5t-95.5 -105.5t-135.5 -59t-160 -20q-322 0 -440 244l266 152q42 -121 174 -121q111 0 111 63q0 22 -28 39t-72 30t-98 27.5
t-108 38.5t-98 57t-72 88.5t-28 127.5q0 107 56.5 185t146 114.5t198.5 36.5q127 0 232 -56t168 -163l-262 -142q-49 90 -138 90q-40 0 -63 -15t-23 -42z" />
    <glyph glyph-name="Scedilla" unicode="&#x15e;" horiz-adv-x="1198" 
d="M1157 412q0 -171 -107.5 -284t-289.5 -146v-76q51 -13 90 -52.5t39 -105.5q0 -217 -461 -190v213q195 -15 195 28q0 31 -109 41v137q-174 24 -291.5 115.5t-171.5 233.5l283 163q85 -198 301 -198q106 0 150 34t44 83q0 63 -63 99t-234 83q-71 20 -126.5 42t-113 58
t-95.5 81t-62 110.5t-24 144.5q0 100 40 184t107.5 138t153.5 84t180 30q177 0 311.5 -82.5t212.5 -240.5l-276 -162q-39 82 -97 124t-151 42q-73 0 -113.5 -31.5t-40.5 -77.5q0 -36 17.5 -61t74.5 -54.5t166 -62.5q62 -19 95 -30t90 -34t89 -43.5t72.5 -55t62 -73t37 -92
t15.5 -116.5z" />
    <glyph glyph-name="scedilla" unicode="&#x15f;" horiz-adv-x="958" 
d="M907 307q0 -128 -74.5 -208t-199.5 -111v-82q51 -13 90 -52.5t39 -105.5q0 -217 -461 -190v213q195 -15 195 28q0 31 -109 41v137q-245 31 -346 238l266 152q42 -121 174 -121q111 0 111 63q0 22 -28 39t-72 30t-98 27.5t-108 38.5t-98 57t-72 88.5t-28 127.5
q0 107 56.5 185t146 114.5t198.5 36.5q127 0 232 -56t168 -163l-262 -142q-49 90 -138 90q-40 0 -63 -15t-23 -42q0 -23 28 -39.5t72 -28.5t98 -26t108 -38t98 -57.5t72 -92.5t28 -136z" />
    <glyph glyph-name="Scaron" unicode="&#x160;" horiz-adv-x="1198" 
d="M444 1556l-217 308h297l72 -113l72 113h297l-217 -308h-304zM696 856q62 -19 95 -30t90 -34t89 -43.5t72.5 -55t62 -73t37 -92t15.5 -116.5q0 -204 -147.5 -322.5t-384.5 -118.5q-219 0 -365.5 95.5t-208.5 259.5l283 163q85 -198 301 -198q106 0 150 34t44 83
q0 63 -63 99t-234 83q-71 20 -126.5 42t-113 58t-95.5 81t-62 110.5t-24 144.5q0 100 40 184t107.5 138t153.5 84t180 30q177 0 311.5 -82.5t212.5 -240.5l-276 -162q-39 82 -97 124t-151 42q-73 0 -113.5 -31.5t-40.5 -77.5q0 -36 17.5 -61t74.5 -54.5t166 -62.5z" />
    <glyph glyph-name="scaron" unicode="&#x161;" horiz-adv-x="958" 
d="M313 1147l-217 307h297l72 -113l72 113h297l-218 -307h-303zM403 725q0 -23 28 -39.5t72 -28.5t98 -26t108 -38t98 -57.5t72 -92.5t28 -136q0 -85 -35 -151.5t-95.5 -105.5t-135.5 -59t-160 -20q-322 0 -440 244l266 152q42 -121 174 -121q111 0 111 63q0 22 -28 39
t-72 30t-98 27.5t-108 38.5t-98 57t-72 88.5t-28 127.5q0 107 56.5 185t146 114.5t198.5 36.5q127 0 232 -56t168 -163l-262 -142q-49 90 -138 90q-40 0 -63 -15t-23 -42z" />
    <glyph glyph-name="uni0162" unicode="&#x162;" horiz-adv-x="1105" 
d="M1085 1434v-316h-368v-1118h-328v1118h-369v316h1065zM406 -553l20 430h287l-62 -430h-245z" />
    <glyph glyph-name="uni0163" unicode="&#x163;" horiz-adv-x="794" 
d="M713 729h-211v-362q0 -43 24.5 -64t71.5 -24.5t115 0.5v-279q-100 -8 -177.5 -7t-135 20t-97 47.5t-63.5 74.5t-34.5 102t-10.5 130v362h-164v295h164v195l307 92v-287h211v-295zM311 -553l21 430h286l-61 -430h-246z" />
    <glyph glyph-name="Tcaron" unicode="&#x164;" horiz-adv-x="1105" 
d="M391 1536l-217 307h297l72 -112l71 112h297l-217 -307h-303zM1085 1434v-316h-368v-1118h-328v1118h-369v316h1065z" />
    <glyph glyph-name="tcaron" unicode="&#x165;" horiz-adv-x="851" 
d="M606 1495h287l-62 -389h-245zM502 1311v-287h211v-295h-211v-362q0 -43 24.5 -64t71.5 -24.5t115 0.5v-279q-100 -8 -177.5 -7t-135 20t-97 47.5t-63.5 74.5t-34.5 102t-10.5 130v362h-164v295h164v195z" />
    <glyph glyph-name="Tbar" unicode="&#x166;" horiz-adv-x="1105" 
d="M1085 1118h-368v-274h225v-295h-225v-549h-328v549h-225v295h225v274h-369v316h1065v-316z" />
    <glyph glyph-name="tbar" unicode="&#x167;" horiz-adv-x="794" 
d="M713 729h-211v-98h153v-246h-153v-18q0 -43 24.5 -64t71.5 -24.5t115 0.5v-279q-100 -8 -177.5 -7t-135 20t-97 47.5t-63.5 74.5t-34.5 102t-10.5 130v18h-113v246h113v98h-164v295h164v195l307 92v-287h211v-295z" />
    <glyph glyph-name="Umacron" unicode="&#x16a;" horiz-adv-x="1331" 
d="M358 1554v246h615v-246h-615zM666 -29q-158 0 -282.5 58t-197.5 171t-73 263v971h327v-942q0 -201 226 -201q225 0 225 201v942h328v-971q0 -150 -73 -263t-197.5 -171t-282.5 -58z" />
    <glyph glyph-name="umacron" unicode="&#x16b;" horiz-adv-x="1193" 
d="M897 1391v-246h-614v246h614zM774 1024h307v-1024h-307v96q-42 -58 -118 -91.5t-175 -33.5q-163 0 -273 112.5t-110 311.5v629h308v-584q0 -91 50 -138.5t128 -47.5q88 0 139 53t51 158v559z" />
    <glyph glyph-name="Uring" unicode="&#x16e;" horiz-adv-x="1331" 
d="M666 1444q-119 0 -196 73t-77 183t77 183t196 73q121 0 196.5 -73t75.5 -183t-75.5 -183t-196.5 -73zM666 1630q35 0 54 19.5t19 50.5t-19 50t-54 19q-34 0 -53 -19.5t-19 -49.5t19 -50t53 -20zM666 -29q-158 0 -282.5 58t-197.5 171t-73 263v971h327v-942
q0 -201 226 -201q225 0 225 201v942h328v-971q0 -150 -73 -263t-197.5 -171t-282.5 -58z" />
    <glyph glyph-name="uring" unicode="&#x16f;" horiz-adv-x="1193" 
d="M590 1096q-119 0 -196 73t-77 183t77 183t196 73q121 0 196.5 -73t75.5 -183t-75.5 -183t-196.5 -73zM590 1421q-34 0 -53 -19.5t-19 -49.5t19 -50t53 -20q35 0 54.5 19.5t19.5 50.5q0 30 -19 49.5t-55 19.5zM774 1024h307v-1024h-307v96q-42 -58 -118 -91.5t-175 -33.5
q-163 0 -273 112.5t-110 311.5v629h308v-584q0 -91 50 -138.5t128 -47.5q88 0 139 53t51 158v559z" />
    <glyph glyph-name="Uhungarumlaut" unicode="&#x170;" horiz-adv-x="1331" 
d="M276 1536h304l176 287h-316zM651 1536h303l197 287h-315zM666 -29q-158 0 -282.5 58t-197.5 171t-73 263v971h327v-942q0 -201 226 -201q225 0 225 201v942h328v-971q0 -150 -73 -263t-197.5 -171t-282.5 -58z" />
    <glyph glyph-name="uhungarumlaut" unicode="&#x171;" horiz-adv-x="1193" 
d="M680 1413l-176 -287h-303l164 287h315zM879 1126h-304l185 287h315zM774 1024h307v-1024h-307v96q-42 -58 -118 -91.5t-175 -33.5q-163 0 -273 112.5t-110 311.5v629h308v-584q0 -91 50 -138.5t128 -47.5q88 0 139 53t51 158v559z" />
    <glyph glyph-name="Uogonek" unicode="&#x172;" horiz-adv-x="1331" 
d="M891 1434h328v-971q0 -119 -46.5 -214.5t-130.5 -160.5q-99 -91 -137 -147.5t-41 -114.5q-3 -47 45 -53q15 -3 47 8v-184q-84 -35 -180 -35q-90 0 -147.5 47t-57.5 139q0 100 105 223h-10q-158 0 -282.5 58t-197.5 171t-73 263v971h327v-942q0 -201 226 -201
q225 0 225 201v942z" />
    <glyph glyph-name="uogonek" unicode="&#x173;" horiz-adv-x="1193" 
d="M1081 0q-92 -103 -92 -174q-3 -53 45 -53q15 -3 47 8v-184q-84 -35 -180 -35q-90 0 -147.5 47t-57.5 139q0 114 131 252h-53v96q-42 -58 -118 -91.5t-175 -33.5q-163 0 -273 112.5t-110 311.5v629h308v-584q0 -91 50 -138.5t128 -47.5q88 0 139 53t51 158v559h307v-1024z
" />
    <glyph glyph-name="Wcircumflex" unicode="&#x174;" horiz-adv-x="2043" 
d="M1092 1649l-72 -113h-297l217 307h303l217 -307h-297zM1679 1434h344l-395 -1434h-373l-233 846l-234 -846h-372l-396 1434h345l247 -1004l277 1004h266l277 -1004z" />
    <glyph glyph-name="wcircumflex" unicode="&#x175;" horiz-adv-x="1576" 
d="M778 1239l-71 -113h-297l217 308h303l217 -308h-297zM1239 1024h328l-328 -1024h-287l-164 547l-163 -547h-287l-328 1024h328l147 -549l160 549h287l160 -549z" />
    <glyph glyph-name="Ycircumflex" unicode="&#x176;" horiz-adv-x="1290" 
d="M635 1649l-72 -113h-297l217 307h303l218 -307h-297zM1290 1434l-481 -883v-551h-328v551l-481 883h373l272 -553l273 553h372z" />
    <glyph glyph-name="ycircumflex" unicode="&#x177;" horiz-adv-x="1085" 
d="M535 1239l-72 -113h-297l217 308h303l217 -308h-297zM758 1024h327l-350 -993q-86 -242 -226 -347t-357 -94v287q107 0 164.5 38t91.5 132l-408 977h338l227 -627z" />
    <glyph glyph-name="Ydieresis" unicode="&#x178;" horiz-adv-x="1290" 
d="M451 1516q-63 0 -108.5 45t-45.5 108t45.5 108.5t108.5 45.5t108 -45.5t45 -108.5t-45 -108t-108 -45zM840 1516q-63 0 -108.5 45t-45.5 108t45.5 108.5t108.5 45.5t108 -45.5t45 -108.5t-45 -108t-108 -45zM1290 1434l-481 -883v-551h-328v551l-481 883h373l272 -553
l273 553h372z" />
    <glyph glyph-name="Zacute" unicode="&#x179;" horiz-adv-x="1105" 
d="M911 1843l-237 -287h-295l164 287h368zM496 315h559v-315h-983v254l549 864h-539v316h962v-254z" />
    <glyph glyph-name="zacute" unicode="&#x17a;" horiz-adv-x="972" 
d="M840 1434l-238 -287h-295l164 287h369zM494 287h407v-287h-819v205l387 532h-367v287h779v-205z" />
    <glyph glyph-name="Zdotaccent" unicode="&#x17b;" horiz-adv-x="1105" 
d="M563 1526q-71 0 -122.5 52t-51.5 122t51.5 122t122.5 52t122.5 -52t51.5 -122t-51.5 -122t-122.5 -52zM496 315h559v-315h-983v254l549 864h-539v316h962v-254z" />
    <glyph glyph-name="zdotaccent" unicode="&#x17c;" horiz-adv-x="972" 
d="M492 1116q-71 0 -123 52t-52 122t52 122t123 52q70 0 122 -52t52 -122t-52 -122t-122 -52zM494 287h407v-287h-819v205l387 532h-367v287h779v-205z" />
    <glyph glyph-name="Zcaron" unicode="&#x17d;" horiz-adv-x="1105" 
d="M401 1536l-217 307h297l72 -112l72 112h297l-217 -307h-304zM496 315h559v-315h-983v254l549 864h-539v316h962v-254z" />
    <glyph glyph-name="zcaron" unicode="&#x17e;" horiz-adv-x="972" 
d="M330 1126l-217 308h297l71 -113l72 113h297l-217 -308h-303zM494 287h407v-287h-819v205l387 532h-367v287h779v-205z" />
    <glyph glyph-name="florin" unicode="&#x192;" horiz-adv-x="905" 
d="M905 1137q-27 14 -59 16t-62 -8.5t-53.5 -40t-30.5 -74.5l-26 -162h168v-295h-219l-109 -639q-20 -117 -69 -198t-116.5 -118.5t-152 -46.5t-176.5 17v308q27 -14 59 -16t62 8t53.5 39.5t30.5 74.5l96 571h-156v295h207l39 230q20 117 69 198t116.5 118.5t152 46.5
t176.5 -17v-307z" />
    <glyph glyph-name="Scommaaccent" unicode="&#x218;" horiz-adv-x="1198" 
d="M625 -29q-219 0 -365.5 95.5t-208.5 259.5l283 163q85 -198 301 -198q106 0 150 34t44 83q0 63 -63 99t-234 83q-71 20 -126.5 42t-113 58t-95.5 81t-62 110.5t-24 144.5q0 100 40 184t107.5 138t153.5 84t180 30q177 0 311.5 -82.5t212.5 -240.5l-276 -162
q-39 82 -97 124t-151 42q-73 0 -113.5 -31.5t-40.5 -77.5q0 -36 17.5 -61t74.5 -54.5t166 -62.5q62 -19 95 -30t90 -34t89 -43.5t72.5 -55t62 -73t37 -92t15.5 -116.5q0 -204 -147.5 -322.5t-384.5 -118.5zM721 -553l61 430h-286l-21 -430h246z" />
    <glyph glyph-name="scommaaccent" unicode="&#x219;" horiz-adv-x="958" 
d="M403 725q0 -23 28 -39.5t72 -28.5t98 -26t108 -38t98 -57.5t72 -92.5t28 -136q0 -85 -35 -151.5t-95.5 -105.5t-135.5 -59t-160 -20q-322 0 -440 244l266 152q42 -121 174 -121q111 0 111 63q0 22 -28 39t-72 30t-98 27.5t-108 38.5t-98 57t-72 88.5t-28 127.5
q0 107 56.5 185t146 114.5t198.5 36.5q127 0 232 -56t168 -163l-262 -142q-49 90 -138 90q-40 0 -63 -15t-23 -42zM348 -553l21 430h286l-61 -430h-246z" />
    <glyph glyph-name="uni021A" unicode="&#x21a;" horiz-adv-x="1105" 
d="M1085 1434v-316h-368v-1118h-328v1118h-369v316h1065zM406 -553l20 430h287l-62 -430h-245z" />
    <glyph glyph-name="uni021B" unicode="&#x21b;" horiz-adv-x="794" 
d="M713 729h-211v-362q0 -43 24.5 -64t71.5 -24.5t115 0.5v-279q-100 -8 -177.5 -7t-135 20t-97 47.5t-63.5 74.5t-34.5 102t-10.5 130v362h-164v295h164v195l307 92v-287h211v-295zM311 -553l21 430h286l-61 -430h-246z" />
    <glyph glyph-name="circumflex" unicode="&#x2c6;" horiz-adv-x="819" 
d="M778 1126h-297l-71 113l-72 -113h-297l217 308h303z" />
    <glyph glyph-name="caron" unicode="&#x2c7;" horiz-adv-x="819" 
d="M481 1434h297l-217 -308h-303l-217 308h297l72 -113z" />
    <glyph glyph-name="breve" unicode="&#x2d8;" horiz-adv-x="798" 
d="M399 1110q-173 0 -265.5 80t-92.5 227h270q0 -45 23 -69.5t65 -24.5t65 24.5t23 69.5h271q0 -147 -93 -227t-266 -80z" />
    <glyph glyph-name="dotaccent" unicode="&#x2d9;" horiz-adv-x="450" 
d="M215 1116q-71 0 -122.5 52t-51.5 122t51.5 122t122.5 52t122.5 -52t51.5 -122t-51.5 -122t-122.5 -52z" />
    <glyph glyph-name="ring" unicode="&#x2da;" horiz-adv-x="626" 
d="M313 1096q-119 0 -195.5 73t-76.5 183t76.5 183t195.5 73q121 0 197 -73t76 -183t-76 -183t-197 -73zM313 1282q35 0 54.5 19.5t19.5 50.5q0 30 -19.5 49.5t-54.5 19.5q-34 0 -52.5 -19.5t-18.5 -49.5q0 -31 18.5 -50.5t52.5 -19.5z" />
    <glyph glyph-name="ogonek" unicode="&#x2db;" horiz-adv-x="466" 
d="M246 -438q-90 0 -147.5 47t-57.5 139q0 114 131 252h254q-92 -103 -92 -174q-3 -53 45 -53q15 -3 47 8v-184q-84 -35 -180 -35z" />
    <glyph glyph-name="tilde" unicode="&#x2dc;" horiz-adv-x="817" 
d="M41 1133q0 101 24 173t63.5 107.5t92 46t108.5 -4.5t113 -50q52 -32 70 -22t18 71h246q0 -101 -24 -173t-63.5 -107.5t-92 -46t-108.5 4.5t-113 50q-53 32 -70.5 22t-17.5 -71h-246z" />
    <glyph glyph-name="hungarumlaut" unicode="&#x2dd;" horiz-adv-x="956" 
d="M41 1126h303l176 287h-315zM416 1126h303l196 287h-315z" />
    <glyph glyph-name="gravecomb" unicode="&#x300;" horiz-adv-x="0" 
d="M-41 1147l-164 287h-368l237 -287h295z" />
    <glyph glyph-name="acutecomb" unicode="&#x301;" horiz-adv-x="0" 
d="M-573 1147h294l238 287h-369z" />
    <glyph glyph-name="uni0302" unicode="&#x302;" horiz-adv-x="0" 
d="M-41 1126h-297l-72 113l-71 -113h-297l217 308h303z" />
    <glyph glyph-name="tildecomb" unicode="&#x303;" horiz-adv-x="0" 
d="M-756 1133q0 101 24 173t64 107.5t92 46t108.5 -4.5t113.5 -50q52 -32 70 -22t18 71h246q0 -101 -24 -173t-64 -107.5t-92 -46t-108.5 4.5t-113.5 50q-52 32 -70 22t-18 -71h-246z" />
    <glyph glyph-name="uni0304" unicode="&#x304;" horiz-adv-x="0" 
d="M-655 1145v246h614v-246h-614z" />
    <glyph glyph-name="uni0306" unicode="&#x306;" horiz-adv-x="0" 
d="M-399 1110q-173 0 -266 80t-93 227h271q0 -45 23 -69.5t65 -24.5t65 24.5t23 69.5h270q0 -147 -92.5 -227t-265.5 -80z" />
    <glyph glyph-name="uni0307" unicode="&#x307;" horiz-adv-x="0" 
d="M-215 1116q-71 0 -122.5 52t-51.5 122t51.5 122t122.5 52t122.5 -52t51.5 -122t-51.5 -122t-122.5 -52z" />
    <glyph glyph-name="uni0308" unicode="&#x308;" horiz-adv-x="0" 
d="M-584 1106q-63 0 -108 45.5t-45 108.5t45 108t108 45t108.5 -45t45.5 -108t-45.5 -108.5t-108.5 -45.5zM-195 1106q-63 0 -108 45.5t-45 108.5t45 108t108 45t108.5 -45t45.5 -108t-45.5 -108.5t-108.5 -45.5z" />
    <glyph glyph-name="uni030A" unicode="&#x30a;" horiz-adv-x="0" 
d="M-324 1096q-119 0 -195.5 73t-76.5 183t76.5 183t195.5 73q121 0 197 -73t76 -183t-76 -183t-197 -73zM-324 1282q35 0 54.5 19.5t19.5 50.5q0 30 -19 49.5t-55 19.5q-34 0 -52.5 -19.5t-18.5 -49.5q0 -31 18.5 -50.5t52.5 -19.5z" />
    <glyph glyph-name="uni030B" unicode="&#x30b;" horiz-adv-x="0" 
d="M-915 1126h303l176 287h-316zM-541 1126h303l197 287h-315z" />
    <glyph glyph-name="uni030C" unicode="&#x30c;" horiz-adv-x="0" 
d="M-338 1434h297l-217 -308h-303l-217 308h297l71 -113z" />
    <glyph glyph-name="uni0312" unicode="&#x312;" horiz-adv-x="0" 
d="M-287 2007l-61 -430h287l20 430h-246z" />
    <glyph glyph-name="uni0326" unicode="&#x326;" horiz-adv-x="0" 
d="M-102 -553l61 430h-287l-20 -430h246z" />
    <glyph glyph-name="uni0327" unicode="&#x327;" horiz-adv-x="0" 
d="M-170 -94q51 -13 90 -52.5t39 -105.5q0 -217 -461 -190v213q195 -15 195 28q0 31 -109 41v160h246v-94z" />
    <glyph glyph-name="uni0328" unicode="&#x328;" horiz-adv-x="0" 
d="M-242 -438q-90 0 -147 47t-57 139q0 114 131 252h254q-93 -104 -93 -174q-3 -53 45 -53q16 -3 48 8v-184q-84 -35 -181 -35z" />
    <glyph glyph-name="uni0394" unicode="&#x394;" horiz-adv-x="1351" 
d="M885 1434l467 -1434h-1352l467 1434h418zM449 307h454l-227 768z" />
    <glyph glyph-name="uni03A9" unicode="&#x3a9;" horiz-adv-x="1572" 
d="M1532 758q0 -129 -51 -242.5t-142 -200.5h164v-315h-569v315q123 42 196.5 149t73.5 253q0 189 -120 307.5t-298 118.5t-297.5 -118.5t-119.5 -307.5q0 -146 73.5 -253t196.5 -149v-315h-569v315h163q-92 86 -142 199.5t-50 243.5q0 197 100 359t270.5 253.5t374.5 91.5
q152 0 290 -54t238 -147t159 -224.5t59 -278.5z" />
    <glyph glyph-name="pi" unicode="&#x3c0;" horiz-adv-x="1372" 
d="M1331 1024v-287h-160v-737h-307v737h-348v-737h-307v737h-168v287h1290z" />
    <glyph glyph-name="uni0401" unicode="&#x401;" horiz-adv-x="1085" 
d="M375 1516q-63 0 -108.5 45t-45.5 108t45.5 108.5t108.5 45.5t108 -45.5t45 -108.5t-45 -108t-108 -45zM764 1516q-63 0 -108.5 45t-45.5 108t45.5 108.5t108.5 45.5t108.5 -45.5t45.5 -108.5t-45.5 -108t-108.5 -45zM451 315h573v-315h-901v1434h891v-316h-563v-237h512
v-312h-512v-254z" />
    <glyph glyph-name="uni0402" unicode="&#x402;" horiz-adv-x="1443" 
d="M967 950q179 0 282 -103.5t103 -299.5v-129q0 -239 -114 -345t-357 -93v305q82 -4 112.5 26.5t30.5 106.5v92q0 145 -139 145q-88 0 -189 -32v-623h-327v1118h-349v316h1065v-316h-389v-205q137 37 271 37z" />
    <glyph glyph-name="uni0403" unicode="&#x403;" horiz-adv-x="962" 
d="M893 1841l-238 -287h-295l164 287h369zM942 1434v-316h-491v-1118h-328v1434h819z" />
    <glyph glyph-name="uni0404" unicode="&#x404;" horiz-adv-x="1472" 
d="M807 291q109 0 198 46.5t134 129.5l282 -164q-93 -154 -256 -243t-358 -89q-159 0 -298 57.5t-237 157t-154.5 237.5t-56.5 294q0 209 95.5 379t267 268t383.5 98q193 0 356 -89t258 -243l-282 -163q-47 83 -135 129.5t-197 46.5q-148 0 -251.5 -73t-143.5 -200h585v-307
h-585q40 -127 143.5 -199.5t251.5 -72.5z" />
    <glyph glyph-name="uni0405" unicode="&#x405;" horiz-adv-x="1198" 
d="M625 -29q-219 0 -365.5 95.5t-208.5 259.5l283 163q85 -198 301 -198q106 0 150 34t44 83q0 63 -63 99t-234 83q-71 20 -126.5 42t-113 58t-95.5 81t-62 110.5t-24 144.5q0 100 40 184t107.5 138t153.5 84t180 30q177 0 311.5 -82.5t212.5 -240.5l-276 -162
q-39 82 -97 124t-151 42q-73 0 -113.5 -31.5t-40.5 -77.5q0 -36 17.5 -61t74.5 -54.5t166 -62.5q62 -19 95 -30t90 -34t89 -43.5t72.5 -55t62 -73t37 -92t15.5 -116.5q0 -204 -147.5 -322.5t-384.5 -118.5z" />
    <glyph glyph-name="uni0406" unicode="&#x406;" horiz-adv-x="573" 
d="M123 1434h328v-1434h-328v1434z" />
    <glyph glyph-name="uni0407" unicode="&#x407;" horiz-adv-x="573" 
d="M92 1516q-63 0 -108 45t-45 108t45 108.5t108 45.5t108.5 -45.5t45.5 -108.5t-45.5 -108t-108.5 -45zM481 1516q-63 0 -108 45t-45 108t45 108.5t108 45.5t108.5 -45.5t45.5 -108.5t-45.5 -108t-108.5 -45zM123 1434h328v-1434h-328v1434z" />
    <glyph glyph-name="uni0408" unicode="&#x408;" horiz-adv-x="1175" 
d="M547 -29q-342 0 -486 279l285 164q36 -65 80 -94t123 -29q99 0 142.5 47.5t43.5 122.5v973h328v-973q0 -230 -144 -360t-372 -130z" />
    <glyph glyph-name="uni0409" unicode="&#x409;" horiz-adv-x="1945" 
d="M1403 922q141 0 255 -58t180.5 -164t66.5 -239t-66.5 -239t-180.5 -164t-255 -58h-502v1118h-315v-536q0 -84 -10.5 -156t-30.5 -127.5t-47.5 -101.5t-61 -78t-72 -57.5t-80.5 -38.5t-86 -22t-89 -8.5t-89 3.5v307q120 -15 179 40.5t59 225.5v865h971v-512h174zM1403 307
q78 0 126 39.5t48 114.5t-48 114t-126 39h-174v-307h174z" />
    <glyph glyph-name="uni040A" unicode="&#x40a;" horiz-adv-x="1945" 
d="M1403 922q141 0 255 -58t180.5 -164t66.5 -239t-66.5 -239t-180.5 -164t-255 -58h-502v614h-450v-614h-328v1434h328v-512h450v512h328v-512h174zM1403 307q78 0 126 39.5t48 114.5t-48 114t-126 39h-174v-307h174z" />
    <glyph glyph-name="uni040B" unicode="&#x40b;" horiz-adv-x="1454" 
d="M967 950q179 0 282 -103.5t103 -299.5v-547h-328v510q0 145 -139 145q-88 0 -189 -32v-623h-327v1118h-349v316h1065v-316h-389v-205q137 37 271 37z" />
    <glyph glyph-name="uni040C" unicode="&#x40c;" horiz-adv-x="1282" 
d="M995 1841l-237 -287h-295l164 287h368zM1282 0h-373l-458 664v-664h-328v1434h328v-623l438 623h373l-484 -699z" />
    <glyph glyph-name="uni040E" unicode="&#x40e;" horiz-adv-x="1249" 
d="M934 1819v-267h-615v267h615zM901 1434h328l-414 -1012q-182 -444 -602 -422v307q108 -10 175.5 26.5t111.5 115.5l-459 985h328l280 -627z" />
    <glyph glyph-name="uni040F" unicode="&#x40f;" horiz-adv-x="1331" 
d="M881 1434h327v-1434h-379v-274h-327v274h-379v1434h328v-1119h430v1119z" />
    <glyph glyph-name="uni0410" unicode="&#x410;" horiz-adv-x="1392" 
d="M1034 0l-71 225h-533l-72 -225h-358l487 1434h418l488 -1434h-359zM528 532h336l-168 527z" />
    <glyph glyph-name="uni0411" unicode="&#x411;" horiz-adv-x="1198" 
d="M676 901q220 0 355.5 -123.5t135.5 -326.5t-135.5 -327t-355.5 -124h-553v1434h921v-316h-593v-217h225zM676 307q73 0 118.5 35t45.5 109t-45.5 108.5t-118.5 34.5h-225v-287h225z" />
    <glyph glyph-name="uni0412" unicode="&#x412;" horiz-adv-x="1228" 
d="M1012 743q82 -53 129 -135.5t47 -187.5q0 -187 -133.5 -303.5t-329.5 -116.5h-602v1434h561q192 0 322.5 -114t130.5 -296q0 -172 -125 -281zM684 1126h-233v-254h233q55 0 90 35.5t35 91.5t-34.5 91.5t-90.5 35.5zM725 307q61 0 98 38t37 99t-37 99.5t-98 38.5h-274
v-275h274z" />
    <glyph glyph-name="uni0413" unicode="&#x413;" horiz-adv-x="962" 
d="M942 1434v-316h-491v-1118h-328v1434h819z" />
    <glyph glyph-name="uni0414" unicode="&#x414;" horiz-adv-x="1454" 
d="M1249 315h154v-589h-328v274h-717v-274h-327v589h145q113 161 113 476v643h960v-1119zM524 315h398v811h-306v-340q0 -305 -92 -471z" />
    <glyph glyph-name="uni0415" unicode="&#x415;" horiz-adv-x="1085" 
d="M451 315h573v-315h-901v1434h891v-316h-563v-237h512v-312h-512v-254z" />
    <glyph glyph-name="uni0416" unicode="&#x416;" horiz-adv-x="1888" 
d="M1868 0h-363l-397 635v-635h-328v635l-397 -635h-363l463 729l-442 705h362l377 -631v631h328v-631l377 631h362l-442 -705z" />
    <glyph glyph-name="uni0417" unicode="&#x417;" horiz-adv-x="1146" 
d="M911 741q195 -110 195 -335q0 -197 -150.5 -316t-380.5 -119q-403 0 -544 340l282 162q31 -92 92.5 -143t169.5 -51q101 0 152 39.5t51 111.5t-52 112t-153 40h-182v290h141q95 0 145 37.5t50 104.5q0 141 -166 141q-158 0 -227 -164l-281 162q155 309 508 309
q217 0 355.5 -115.5t138.5 -308.5q0 -185 -144 -297z" />
    <glyph glyph-name="uni0418" unicode="&#x418;" horiz-adv-x="1372" 
d="M922 0v778l-553 -778h-246v1434h328v-779l553 779h245v-1434h-327z" />
    <glyph glyph-name="uni0419" unicode="&#x419;" horiz-adv-x="1372" 
d="M379 1554v267h614v-267h-614zM922 0v778l-553 -778h-246v1434h328v-779l553 779h245v-1434h-327z" />
    <glyph glyph-name="uni041A" unicode="&#x41a;" horiz-adv-x="1282" 
d="M1282 0h-373l-458 664v-664h-328v1434h328v-623l438 623h373l-484 -699z" />
    <glyph glyph-name="uni041B" unicode="&#x41b;" horiz-adv-x="1372" 
d="M20 0v307q55 -11 99 -2.5t75 35t47.5 84t16.5 145.5v865h991v-1434h-327v1118h-336v-536q0 -148 -34 -259.5t-88.5 -175.5t-130.5 -101t-152 -46t-161 0z" />
    <glyph glyph-name="uni041C" unicode="&#x41c;" horiz-adv-x="1679" 
d="M1556 1434v-1434h-327v834l-371 -609h-37l-370 609v-834h-328v1434h328l389 -637l389 637h327z" />
    <glyph glyph-name="uni041D" unicode="&#x41d;" horiz-adv-x="1351" 
d="M901 1434h328v-1434h-328v569h-450v-569h-328v1434h328v-549h450v549z" />
    <glyph glyph-name="uni041E" unicode="&#x41e;" horiz-adv-x="1613" 
d="M807 -29q-152 0 -290 57.5t-238 156.5t-159 238t-59 294q0 207 100 378.5t271 269t375 97.5q203 0 374 -97.5t271 -269t100 -378.5t-100 -379t-271 -269.5t-374 -97.5zM807 291q178 0 298 118.5t120 307.5t-120 307.5t-298 118.5t-298 -118.5t-120 -307.5t120 -307.5
t298 -118.5z" />
    <glyph glyph-name="uni041F" unicode="&#x41f;" horiz-adv-x="1331" 
d="M1208 1434v-1434h-327v1118h-430v-1118h-328v1434h1085z" />
    <glyph glyph-name="uni0420" unicode="&#x420;" horiz-adv-x="1208" 
d="M666 1434q211 0 356 -143.5t145 -348.5t-145 -348t-356 -143h-215v-451h-328v1434h543zM666 758q75 0 124.5 53t49.5 131t-49.5 131t-124.5 53h-215v-368h215z" />
    <glyph glyph-name="uni0421" unicode="&#x421;" horiz-adv-x="1472" 
d="M807 -29q-159 0 -298 57.5t-237 157t-154.5 237.5t-56.5 294q0 209 95.5 379t267 268t383.5 98q193 0 356 -89t258 -243l-282 -163q-47 83 -135 129.5t-197 46.5q-190 0 -304 -116.5t-114 -309.5t114 -309.5t304 -116.5q109 0 198 46.5t134 129.5l282 -164
q-93 -154 -256 -243t-358 -89z" />
    <glyph glyph-name="uni0422" unicode="&#x422;" horiz-adv-x="1105" 
d="M1085 1434v-316h-368v-1118h-328v1118h-369v316h1065z" />
    <glyph glyph-name="uni0423" unicode="&#x423;" horiz-adv-x="1249" 
d="M901 1434h328l-414 -1012q-182 -444 -602 -422v307q108 -10 175.5 26.5t111.5 115.5l-459 985h328l280 -627z" />
    <glyph glyph-name="uni0424" unicode="&#x424;" horiz-adv-x="1687" 
d="M1647 717q0 -242 -174 -398t-469 -192v-168h-320v168q-295 36 -469 192t-174 398t174 398t469 192v168h320v-168q295 -36 469 -192t174 -398zM369 717q0 -246 315 -289v578q-315 -43 -315 -289zM1004 428q315 43 315 289t-315 289v-578z" />
    <glyph glyph-name="uni0425" unicode="&#x425;" horiz-adv-x="1269" 
d="M1249 0h-372l-242 414l-242 -414h-373l429 735l-408 699h373l221 -379l221 379h373l-408 -699z" />
    <glyph glyph-name="uni0426" unicode="&#x426;" horiz-adv-x="1413" 
d="M1208 315h154v-589h-328v274h-911v1434h328v-1119h430v1119h327v-1119z" />
    <glyph glyph-name="uni0427" unicode="&#x427;" horiz-adv-x="1300" 
d="M850 1434h328v-1434h-328v500q-116 -45 -244 -45q-222 0 -368 124.5t-146 342.5v512h328v-463q0 -97 53 -149t141 -52q131 0 236 47v617z" />
    <glyph glyph-name="uni0428" unicode="&#x428;" horiz-adv-x="1925" 
d="M1475 1434h327v-1434h-1679v1434h328v-1119h348v1119h327v-1119h349v1119z" />
    <glyph glyph-name="uni0429" unicode="&#x429;" horiz-adv-x="2007" 
d="M1802 315h154v-589h-328v274h-1505v1434h328v-1119h348v1119h327v-1119h349v1119h327v-1119z" />
    <glyph glyph-name="uni042A" unicode="&#x42a;" horiz-adv-x="1413" 
d="M328 0v1118h-328v316h655v-451h215q211 0 356.5 -143t145.5 -348t-145.5 -348.5t-356.5 -143.5h-542zM655 307h215q75 0 124.5 53.5t49.5 131.5t-49.5 131t-124.5 53h-215v-369z" />
    <glyph glyph-name="uni042B" unicode="&#x42b;" horiz-adv-x="1740" 
d="M123 0v1434h328v-451h215q211 0 356 -143t145 -348t-145 -348.5t-356 -143.5h-543zM1290 0v1434h328v-1434h-328zM451 307h215q75 0 124.5 53.5t49.5 131.5t-49.5 131t-124.5 53h-215v-369z" />
    <glyph glyph-name="uni042C" unicode="&#x42c;" horiz-adv-x="1208" 
d="M666 983q211 0 356 -143t145 -348t-145 -348.5t-356 -143.5h-543v1434h328v-451h215zM666 307q75 0 124.5 53.5t49.5 131.5t-49.5 131t-124.5 53h-215v-369h215z" />
    <glyph glyph-name="uni042D" unicode="&#x42d;" horiz-adv-x="1472" 
d="M666 1462q212 0 383 -98t266.5 -268t95.5 -379t-95.5 -379.5t-266.5 -268.5t-383 -98q-195 0 -358.5 89t-256.5 243l283 164q45 -83 134 -129.5t198 -46.5q148 0 251.5 72.5t143.5 199.5h-586v307h586q-40 127 -143.5 200t-251.5 73q-109 0 -197 -46.5t-135 -129.5
l-283 163q95 154 258.5 243t356.5 89z" />
    <glyph glyph-name="uni042E" unicode="&#x42e;" horiz-adv-x="2170" 
d="M1364 1462q203 0 374 -97.5t271 -269t100 -378.5q0 -154 -59 -292.5t-158.5 -237.5t-237.5 -157.5t-290 -58.5q-181 0 -336 78.5t-257 217.5t-132 313h-188v-580h-328v1434h328v-539h196q57 250 255.5 408.5t461.5 158.5zM1364 291q178 0 298 118.5t120 307.5t-120 307.5
t-298 118.5q-179 0 -298.5 -116.5t-119.5 -309.5q0 -189 120 -307.5t298 -118.5z" />
    <glyph glyph-name="uni042F" unicode="&#x42f;" horiz-adv-x="1280" 
d="M1157 1434v-1434h-328v471h-104l-305 -471h-369l336 512q-132 56 -213.5 174t-81.5 256q0 134 66 247t179 179t247 66h573zM584 758h245v368h-245q-68 0 -116 -53.5t-48 -130.5t48 -130.5t116 -53.5z" />
    <glyph glyph-name="uni0430" unicode="&#x430;" horiz-adv-x="1275" 
d="M856 1024h307v-1024h-307v96q-109 -125 -305 -125q-202 0 -346 157t-144 384t144 384t346 157q196 0 305 -125v96zM612 262q107 0 175.5 68t68.5 182t-68.5 182t-175.5 68t-175 -68t-68 -182t68 -182t175 -68z" />
    <glyph glyph-name="uni0431" unicode="&#x431;" horiz-adv-x="1161" 
d="M608 -29q-166 0 -291.5 74t-190.5 199.5t-65 283.5q0 87 6.5 153t22.5 130t44 113.5t71.5 97.5t104.5 89.5t143 82.5q28 14 75.5 37t67 33t53.5 28t49 29.5t37.5 29.5t35 35t26 39.5t24.5 49.5l254 -146q-29 -121 -118 -192t-267 -138q-128 -48 -184 -93t-80 -105
q108 96 281 96q72 0 145.5 -29.5t136 -83.5t102 -141.5t39.5 -191.5q0 -211 -142 -345.5t-380 -134.5zM606 248q95 0 156 57.5t61 145.5q0 89 -63 147.5t-160 58.5q-86 0 -151.5 -54t-65.5 -144q0 -93 64 -152t159 -59z" />
    <glyph glyph-name="uni0432" unicode="&#x432;" horiz-adv-x="1054" 
d="M877 524q137 -73 137 -231q0 -131 -91 -212t-257 -81h-553v1024h512q166 0 257 -81t91 -212q0 -135 -96 -207zM592 778h-193v-143h193q90 0 90 70q0 73 -90 73zM625 254q41 0 65.5 19.5t24.5 56.5q0 35 -24.5 53t-65.5 18h-226v-147h226z" />
    <glyph glyph-name="uni0433" unicode="&#x433;" horiz-adv-x="849" 
d="M829 1024v-295h-409v-729h-307v1024h716z" />
    <glyph glyph-name="uni0434" unicode="&#x434;" horiz-adv-x="1228" 
d="M1055 287h133v-561h-299v274h-570v-274h-299v561h127q41 64 61.5 146.5t20.5 207.5v383h826v-737zM469 287h287v463h-228v-109q0 -215 -59 -354z" />
    <glyph glyph-name="uni0435" unicode="&#x435;" 
d="M387 389q53 -143 246 -143q61 0 112.5 21.5t83.5 56.5l246 -142q-152 -211 -446 -211q-129 0 -236 41.5t-179.5 114.5t-112.5 172t-40 213q0 152 68 275t193 194.5t284 71.5q224 0 372 -154.5t148 -386.5q0 -64 -12 -123h-727zM381 618h440q-23 84 -82 123t-135 39
q-87 0 -144 -42t-79 -120z" />
    <glyph glyph-name="uni0436" unicode="&#x436;" horiz-adv-x="1576" 
d="M1556 0h-339l-279 444v-444h-299v444l-279 -444h-340l340 512l-319 512h340l258 -438v438h299v-438l258 438h340l-319 -512z" />
    <glyph glyph-name="uni0437" unicode="&#x437;" horiz-adv-x="925" 
d="M735 520q72 -38 111 -100.5t39 -140.5q0 -133 -112 -220.5t-312 -87.5q-312 0 -430 244l248 147q45 -124 186 -124q57 0 89 20.5t32 58.5q0 72 -97 72h-143v258h111q96 0 96 70q0 36 -26 55t-70 19q-114 0 -168 -119l-248 141q63 121 168.5 180.5t241.5 59.5
q180 0 286.5 -90t106.5 -218q0 -150 -109 -225z" />
    <glyph glyph-name="uni0438" unicode="&#x438;" 
d="M850 1024h225v-1024h-299v512l-438 -512h-225v1024h299v-512z" />
    <glyph glyph-name="uni0439" unicode="&#x439;" 
d="M287 1145v266h614v-266h-614zM850 1024h225v-1024h-299v512l-438 -512h-225v1024h299v-512z" />
    <glyph glyph-name="uni043A" unicode="&#x43a;" horiz-adv-x="1095" 
d="M1096 0h-348l-328 453v-453h-307v1024h307v-449l307 449h358l-372 -512z" />
    <glyph glyph-name="uni043B" unicode="&#x43b;" horiz-adv-x="1116" 
d="M1004 1024v-1024h-308v729h-221v-305q0 -233 -116 -341.5t-339 -82.5v287q71 -22 109.5 19.5t38.5 137.5v580h836z" />
    <glyph glyph-name="uni043C" unicode="&#x43c;" horiz-adv-x="1310" 
d="M1198 1024v-1024h-295v528l-229 -356h-37l-229 356v-528h-295v1024h295l247 -387l248 387h295z" />
    <glyph glyph-name="uni043D" unicode="&#x43d;" 
d="M768 1024h307v-1024h-307v369h-348v-369h-307v1024h307v-369h348v369z" />
    <glyph glyph-name="uni043E" unicode="&#x43e;" horiz-adv-x="1208" 
d="M604 -29q-149 0 -273.5 71t-197 195.5t-72.5 274.5t72.5 274.5t197 195.5t273.5 71t273.5 -71t197 -195.5t72.5 -274.5t-72.5 -274.5t-197 -195.5t-273.5 -71zM604 270q101 0 168.5 67.5t67.5 174.5t-67.5 174.5t-168.5 67.5t-168 -67.5t-67 -174.5t67 -174.5t168 -67.5z
" />
    <glyph glyph-name="uni043F" unicode="&#x43f;" 
d="M1075 1024v-1024h-307v737h-348v-737h-307v1024h962z" />
    <glyph glyph-name="uni0440" unicode="&#x440;" horiz-adv-x="1275" 
d="M725 1053q202 0 345.5 -157t143.5 -384t-143.5 -384t-345.5 -157q-196 0 -305 125v-506h-307v1434h307v-96q109 125 305 125zM664 262q107 0 175 68t68 182t-68 182t-175 68t-175.5 -68t-68.5 -182t68.5 -182t175.5 -68z" />
    <glyph glyph-name="uni0441" unicode="&#x441;" horiz-adv-x="1087" 
d="M604 -29q-232 0 -387.5 155.5t-155.5 385.5t155.5 385.5t387.5 155.5q148 0 272 -71t191 -191l-268 -156q-26 54 -79 84.5t-120 30.5q-100 0 -165.5 -66.5t-65.5 -171.5t65.5 -171.5t165.5 -66.5q68 0 121 30.5t78 84.5l268 -153q-67 -121 -190.5 -193t-272.5 -72z" />
    <glyph glyph-name="uni0442" unicode="&#x442;" horiz-adv-x="962" 
d="M942 1024v-295h-305v-729h-307v729h-310v295h922z" />
    <glyph glyph-name="uni0443" unicode="&#x443;" horiz-adv-x="1085" 
d="M758 1024h327l-350 -993q-163 -463 -583 -441v287q104 0 159 30t90 111l-401 1006h328l237 -629z" />
    <glyph glyph-name="uni0444" unicode="&#x444;" horiz-adv-x="1413" 
d="M1352 512q0 -201 -132.5 -344.5t-363.5 -179.5v-398h-299v398q-231 36 -363.5 179.5t-132.5 344.5t132.5 344.5t363.5 179.5v398h299v-398q231 -36 363.5 -179.5t132.5 -344.5zM365 512q0 -86 49 -145.5t143 -85.5v462q-94 -26 -143 -85.5t-49 -145.5zM856 281
q94 26 143.5 86t49.5 145t-49.5 145t-143.5 86v-462z" />
    <glyph glyph-name="uni0445" unicode="&#x445;" horiz-adv-x="1085" 
d="M1085 0h-352l-190 270l-191 -270h-352l367 520l-355 504h353l178 -254l178 254h352l-354 -504z" />
    <glyph glyph-name="uni0446" unicode="&#x446;" horiz-adv-x="1249" 
d="M1034 287h174v-561h-299v274h-796v1024h307v-737h307v737h307v-737z" />
    <glyph glyph-name="uni0447" unicode="&#x447;" horiz-adv-x="1116" 
d="M696 1024h308v-1024h-308v307q-116 -33 -225 -33q-181 0 -295.5 95t-114.5 276v379h308v-338q0 -125 163 -125q93 0 164 33v430z" />
    <glyph glyph-name="uni0448" unicode="&#x448;" horiz-adv-x="1720" 
d="M1300 1024h308v-1024h-1495v1024h307v-737h287v737h307v-737h286v737z" />
    <glyph glyph-name="uni0449" unicode="&#x449;" horiz-adv-x="1740" 
d="M1567 287h133v-561h-299v274h-1288v1024h307v-737h266v737h307v-737h267v737h307v-737z" />
    <glyph glyph-name="uni044A" unicode="&#x44a;" horiz-adv-x="1198" 
d="M756 717q185 0 293 -98t108 -261q0 -162 -108 -260t-293 -98h-480v729h-276v295h584v-307h172zM758 266q45 0 72.5 26t27.5 66t-27.5 66.5t-72.5 26.5h-174v-185h174z" />
    <glyph glyph-name="uni044B" unicode="&#x44b;" horiz-adv-x="1515" 
d="M592 717q185 0 293 -98t108 -261q0 -162 -108 -260t-293 -98h-479v1024h307v-307h172zM1096 1024h307v-1024h-307v1024zM594 266q45 0 72.5 26t27.5 66t-27.5 66.5t-72.5 26.5h-174v-185h174z" />
    <glyph glyph-name="uni044C" unicode="&#x44c;" horiz-adv-x="1034" 
d="M592 717q185 0 293 -98t108 -261q0 -162 -108 -260t-293 -98h-479v1024h307v-307h172zM594 266q45 0 72.5 26t27.5 66t-27.5 66.5t-72.5 26.5h-174v-185h174z" />
    <glyph glyph-name="uni044D" unicode="&#x44d;" horiz-adv-x="1097" 
d="M494 1053q236 0 389 -149.5t153 -391.5t-153 -391.5t-389 -149.5q-156 0 -281.5 71.5t-192.5 193.5l261 147q25 -53 80.5 -86t136.5 -33q62 0 113.5 29.5t82.5 81.5h-284v274h284q-31 52 -82.5 81.5t-113.5 29.5q-80 0 -135 -33t-82 -86l-261 150q67 121 192 191.5
t282 70.5z" />
    <glyph glyph-name="uni044E" unicode="&#x44e;" horiz-adv-x="1669" 
d="M1065 1053q149 0 273.5 -71t197 -195.5t72.5 -274.5t-72.5 -274.5t-197 -195.5t-273.5 -71q-187 0 -329 111t-187 287h-129v-369h-307v1024h307v-369h129q45 176 187 287t329 111zM1065 270q101 0 168 67.5t67 174.5t-67 174.5t-168 67.5t-168.5 -67.5t-67.5 -174.5
t67.5 -174.5t168.5 -67.5z" />
    <glyph glyph-name="uni044F" unicode="&#x44f;" horiz-adv-x="1075" 
d="M963 1024v-1024h-299v295h-64l-211 -295h-348l240 338q-93 46 -146 134.5t-53 186.5q0 69 25 133.5t71.5 116.5t120.5 83.5t164 31.5h500zM489 754q-50 0 -79 -28t-29 -77q0 -47 29 -73.5t79 -26.5h175v205h-175z" />
    <glyph glyph-name="uni0451" unicode="&#x451;" 
d="M399 1116q-63 0 -108 45.5t-45 108.5t45 108t108 45t108.5 -45t45.5 -108t-45.5 -108.5t-108.5 -45.5zM788 1116q-63 0 -108 45.5t-45 108.5t45 108t108 45t108.5 -45t45.5 -108t-45.5 -108.5t-108.5 -45.5zM387 389q53 -143 246 -143q61 0 112.5 21.5t83.5 56.5
l246 -142q-152 -211 -446 -211q-129 0 -236 41.5t-179.5 114.5t-112.5 172t-40 213q0 152 68 275t193 194.5t284 71.5q224 0 372 -154.5t148 -386.5q0 -64 -12 -123h-727zM381 618h440q-23 84 -82 123t-135 39q-87 0 -144 -42t-79 -120z" />
    <glyph glyph-name="uni0452" unicode="&#x452;" horiz-adv-x="1204" 
d="M723 1053q163 0 273 -112.5t110 -311.5v-629q0 -239 -114 -345t-357 -93v295q86 -5 125 28.5t39 114.5v584q0 91 -50 138.5t-128 47.5q-88 0 -139.5 -53t-51.5 -158v-559h-307v1118h-123v193h123v123h307v-123h287v-193h-287v-190q42 58 118 91.5t175 33.5z" />
    <glyph glyph-name="uni0453" unicode="&#x453;" horiz-adv-x="849" 
d="M791 1434l-238 -287h-295l164 287h369zM829 1024v-295h-409v-729h-307v1024h716z" />
    <glyph glyph-name="uni0454" unicode="&#x454;" horiz-adv-x="1097" 
d="M600 264q81 0 136.5 33t80.5 86l260 -147q-67 -122 -192 -193.5t-281 -71.5q-155 0 -278 66.5t-194 190.5t-71 284t71 284t194 190.5t278 66.5q156 0 281 -70.5t192 -191.5l-260 -150q-27 53 -82 86t-135 33q-62 0 -114 -29.5t-83 -81.5h285v-274h-285q31 -52 83 -81.5
t114 -29.5z" />
    <glyph glyph-name="uni0455" unicode="&#x455;" horiz-adv-x="958" 
d="M403 725q0 -23 28 -39.5t72 -28.5t98 -26t108 -38t98 -57.5t72 -92.5t28 -136q0 -85 -35 -151.5t-95.5 -105.5t-135.5 -59t-160 -20q-322 0 -440 244l266 152q42 -121 174 -121q111 0 111 63q0 22 -28 39t-72 30t-98 27.5t-108 38.5t-98 57t-72 88.5t-28 127.5
q0 107 56.5 185t146 114.5t198.5 36.5q127 0 232 -56t168 -163l-262 -142q-49 90 -138 90q-40 0 -63 -15t-23 -42z" />
    <glyph glyph-name="uni0456" unicode="&#x456;" horiz-adv-x="532" 
d="M266 1114q-75 0 -129.5 54.5t-54.5 129.5t54.5 130t129.5 55t130 -55t55 -130t-55 -129.5t-130 -54.5zM113 0v1024h307v-1024h-307z" />
    <glyph glyph-name="uni0457" unicode="&#x457;" horiz-adv-x="532" 
d="M72 1106q-63 0 -108.5 45.5t-45.5 108.5t45.5 108t108.5 45t108 -45t45 -108t-45 -108.5t-108 -45.5zM461 1106q-63 0 -108.5 45.5t-45.5 108.5t45.5 108t108.5 45t108 -45t45 -108t-45 -108.5t-108 -45.5zM113 0v1024h307v-1024h-307z" />
    <glyph glyph-name="uni0458" unicode="&#x458;" horiz-adv-x="563" 
d="M297 1114q-75 0 -129.5 54.5t-54.5 129.5t54.5 130t129.5 55t129.5 -55t54.5 -130t-54.5 -129.5t-129.5 -54.5zM143 0v1024h308v-1024q0 -239 -114 -345t-357 -93v295q86 -5 124.5 28.5t38.5 114.5z" />
    <glyph glyph-name="uni0459" unicode="&#x459;" horiz-adv-x="1546" 
d="M1145 696q169 0 264.5 -93t95.5 -255q0 -161 -97 -254.5t-263 -93.5h-469v729h-201v-305q0 -231 -115 -342.5t-340 -97.5v286q72 -9 110 35t38 139v580h815v-328h162zM1147 266q33 0 56.5 22t23.5 60t-23.5 60t-56.5 22h-164v-164h164z" />
    <glyph glyph-name="uni045A" unicode="&#x45a;" horiz-adv-x="1617" 
d="M1196 696q172 0 276.5 -94t104.5 -254q0 -159 -106.5 -253.5t-274.5 -94.5h-469v410h-328v-410h-307v1024h307v-328h328v328h307v-328h162zM1198 266q33 0 56.5 22t23.5 60t-23.5 60t-56.5 22h-164v-164h164z" />
    <glyph glyph-name="uni045B" unicode="&#x45b;" horiz-adv-x="1204" 
d="M723 1053q163 0 273 -112.5t110 -311.5v-629h-307v584q0 91 -50 138.5t-128 47.5q-88 0 -139.5 -53t-51.5 -158v-559h-307v1118h-123v193h123v123h307v-123h287v-193h-287v-190q42 58 118 91.5t175 33.5z" />
    <glyph glyph-name="uni045C" unicode="&#x45c;" horiz-adv-x="1095" 
d="M913 1434l-237 -287h-295l164 287h368zM1096 0h-348l-328 453v-453h-307v1024h307v-449l307 449h358l-372 -512z" />
    <glyph glyph-name="uni045E" unicode="&#x45e;" horiz-adv-x="1085" 
d="M852 1411v-266h-614v266h614zM758 1024h327l-350 -993q-163 -463 -583 -441v287q104 0 159 30t90 111l-401 1006h328l237 -629z" />
    <glyph glyph-name="uni045F" unicode="&#x45f;" 
d="M768 1024h307v-1024h-332v-274h-299v274h-331v1024h307v-737h348v737z" />
    <glyph glyph-name="uni0490" unicode="&#x490;" horiz-adv-x="962" 
d="M614 1679h328v-561h-491v-1118h-328v1434h491v245z" />
    <glyph glyph-name="uni0491" unicode="&#x491;" horiz-adv-x="849" 
d="M530 1229h299v-500h-409v-729h-307v1024h417v205z" />
    <glyph glyph-name="Wgrave" unicode="&#x1e80;" horiz-adv-x="2043" 
d="M1286 1556l-164 287h-368l237 -287h295zM416 0l-396 1434h345l247 -1004l277 1004h266l277 -1004l247 1004h344l-395 -1434h-373l-233 846l-234 -846h-372z" />
    <glyph glyph-name="wgrave" unicode="&#x1e81;" horiz-adv-x="1576" 
d="M973 1147h-295l-238 287h369zM1239 1024h328l-328 -1024h-287l-164 547l-163 -547h-287l-328 1024h328l147 -549l160 549h287l160 -549z" />
    <glyph glyph-name="Wacute" unicode="&#x1e82;" horiz-adv-x="2043" 
d="M918 1556h294l238 287h-369zM416 0l-396 1434h345l247 -1004l277 1004h266l277 -1004l247 1004h344l-395 -1434h-373l-233 846l-234 -846h-372z" />
    <glyph glyph-name="wacute" unicode="&#x1e83;" horiz-adv-x="1576" 
d="M1137 1434l-238 -287h-295l164 287h369zM1239 1024h328l-328 -1024h-287l-164 547l-163 -547h-287l-328 1024h328l147 -549l160 549h287l160 -549z" />
    <glyph glyph-name="Wdieresis" unicode="&#x1e84;" horiz-adv-x="2043" 
d="M907 1516q-63 0 -108 45t-45 108t45 108.5t108 45.5t108.5 -45.5t45.5 -108.5t-45.5 -108t-108.5 -45zM1296 1516q-63 0 -108 45t-45 108t45 108.5t108 45.5t108.5 -45.5t45.5 -108.5t-45.5 -108t-108.5 -45zM416 0l-396 1434h345l247 -1004l277 1004h266l277 -1004
l247 1004h344l-395 -1434h-373l-233 846l-234 -846h-372z" />
    <glyph glyph-name="wdieresis" unicode="&#x1e85;" horiz-adv-x="1576" 
d="M594 1106q-63 0 -108.5 45.5t-45.5 108.5t45.5 108t108.5 45t108.5 -45t45.5 -108t-45.5 -108.5t-108.5 -45.5zM983 1106q-63 0 -108.5 45.5t-45.5 108.5t45.5 108t108.5 45t108.5 -45t45.5 -108t-45.5 -108.5t-108.5 -45.5zM1239 1024h328l-328 -1024h-287l-164 547
l-163 -547h-287l-328 1024h328l147 -549l160 549h287l160 -549z" />
    <glyph glyph-name="Ygrave" unicode="&#x1ef2;" horiz-adv-x="1290" 
d="M829 1556h-294l-238 287h369zM1290 1434l-481 -883v-551h-328v551l-481 883h373l272 -553l273 553h372z" />
    <glyph glyph-name="ygrave" unicode="&#x1ef3;" horiz-adv-x="1085" 
d="M729 1147h-295l-237 287h368zM758 1024h327l-350 -993q-86 -242 -226 -347t-357 -94v287q107 0 164.5 38t91.5 132l-408 977h338l227 -627z" />
    <glyph glyph-name="endash" unicode="&#x2013;" horiz-adv-x="1310" 
d="M123 465v295h1065v-295h-1065z" />
    <glyph glyph-name="emdash" unicode="&#x2014;" horiz-adv-x="1515" 
d="M123 465v295h1270v-295h-1270z" />
    <glyph glyph-name="quoteleft" unicode="&#x2018;" horiz-adv-x="593" 
d="M92 829l164 605h246l-82 -605h-328z" />
    <glyph glyph-name="quoteright" unicode="&#x2019;" horiz-adv-x="593" 
d="M502 1434l-164 -605h-246l82 605h328z" />
    <glyph glyph-name="quotesinglbase" unicode="&#x201a;" horiz-adv-x="593" 
d="M502 317l-164 -604h-246l82 604h328z" />
    <glyph glyph-name="quotedblleft" unicode="&#x201c;" horiz-adv-x="1003" 
d="M92 829l164 605h246l-82 -605h-328zM502 829l164 605h245l-82 -605h-327z" />
    <glyph glyph-name="quotedblright" unicode="&#x201d;" horiz-adv-x="1003" 
d="M502 1434l-164 -605h-246l82 605h328zM911 1434l-163 -605h-246l82 605h327z" />
    <glyph glyph-name="quotedblbase" unicode="&#x201e;" horiz-adv-x="1003" 
d="M502 317l-164 -604h-246l82 604h328zM911 317l-163 -604h-246l82 604h327z" />
    <glyph glyph-name="dagger" unicode="&#x2020;" horiz-adv-x="983" 
d="M901 1178v-295h-256v-883h-307v883h-256v295h256v256h307v-256h256z" />
    <glyph glyph-name="daggerdbl" unicode="&#x2021;" horiz-adv-x="983" 
d="M901 883h-256v-332h256v-295h-256v-256h-307v256h-256v295h256v332h-256v295h256v256h307v-256h256v-295z" />
    <glyph glyph-name="bullet" unicode="&#x2022;" horiz-adv-x="778" 
d="M393 410q-129 0 -220 91t-91 220q0 126 91 214.5t220 88.5q126 0 214.5 -88.5t88.5 -214.5q0 -129 -88.5 -220t-214.5 -91z" />
    <glyph glyph-name="ellipsis" unicode="&#x2026;" horiz-adv-x="1556" 
d="M287 -29q-79 0 -137 57.5t-58 137.5q0 79 57.5 136.5t137.5 57.5q79 0 136.5 -57t57.5 -137t-57.5 -137.5t-136.5 -57.5zM778 -29q-79 0 -136.5 57.5t-57.5 137.5t57 137t137 57t137.5 -57.5t57.5 -136.5q0 -80 -57.5 -137.5t-137.5 -57.5zM1270 -29q-80 0 -137.5 57.5
t-57.5 137.5q0 79 57.5 136.5t137.5 57.5t137 -57t57 -137t-57.5 -137.5t-136.5 -57.5z" />
    <glyph glyph-name="perthousand" unicode="&#x2030;" horiz-adv-x="2383" 
d="M438 766q-152 0 -254 101t-102 247t102 247t254 101t253.5 -99.5t101.5 -248.5q0 -146 -102 -247t-253 -101zM252 225l926 1024l135 -78l-926 -1026zM436 1001q48 0 79.5 33.5t31.5 79.5q0 48 -31 80.5t-80 32.5q-47 0 -77.5 -32.5t-30.5 -80.5t30.5 -80.5t77.5 -32.5z
M1169 -25q-152 0 -254 101.5t-102 247.5t102 247t254 101q151 0 253 -101t102 -247t-102 -247.5t-253 -101.5zM1948 -25q-152 0 -254.5 101.5t-102.5 247.5t102 247t255 101q151 0 252.5 -101t101.5 -247t-101.5 -247.5t-252.5 -101.5zM1167 211q48 0 79.5 33.5t31.5 79.5
q0 48 -31 80t-80 32q-47 0 -77.5 -32t-30.5 -80t30.5 -80.5t77.5 -32.5zM1946 211q48 0 79 33.5t31 79.5q0 48 -30.5 80t-79.5 32q-47 0 -78 -32t-31 -80t31 -80.5t78 -32.5z" />
    <glyph glyph-name="guilsinglleft" unicode="&#x2039;" horiz-adv-x="741" 
d="M618 1022l-225 -389l225 -389h-270l-225 389l225 389h270z" />
    <glyph glyph-name="guilsinglright" unicode="&#x203a;" horiz-adv-x="741" 
d="M393 1022l225 -389l-225 -389h-270l225 389l-225 389h270z" />
    <glyph glyph-name="fraction" unicode="&#x2044;" horiz-adv-x="368" 
d="M-123 0h-205l820 1434h204z" />
    <glyph glyph-name="Euro" unicode="&#x20ac;" horiz-adv-x="1261" 
d="M948 451l273 -156q-73 -158 -197 -241t-287 -83q-231 0 -379 147t-188 402h-139v172h123v25v41h-123v172h141q45 248 192 390t373 142q157 0 277.5 -78t195.5 -227l-272 -158q-39 76 -86 110t-115 34q-179 0 -233 -213h387v-172h-410v-41v-25h410v-172h-391
q50 -229 237 -229q73 0 122 38t89 122z" />
    <glyph glyph-name="uni20BD" unicode="&#x20bd;" horiz-adv-x="1239" 
d="M707 471h-215v-84h430v-201h-430v-186h-328v186h-144v201h144v84h-144v287h144v676h543q211 0 356 -143.5t145 -348.5q0 -203 -144 -337t-357 -134zM492 1126v-368h215q75 0 124.5 53t49.5 131t-49.5 131t-124.5 53h-215z" />
    <glyph glyph-name="uni2116" unicode="&#x2116;" horiz-adv-x="2142" 
d="M1726 766q-152 0 -253 101.5t-101 246.5q0 146 101 247t253 101t253.5 -101t101.5 -247q0 -145 -100.5 -246.5t-254.5 -101.5zM922 1434h327v-1434h-245l-553 778v-778h-328v1434h246l553 -779v779zM1726 1012q46 0 73.5 28t27.5 74q0 44 -28.5 73.5t-72.5 29.5t-72 -29
t-28 -74q0 -44 28 -73t72 -29zM1401 377v287h659v-287h-659z" />
    <glyph glyph-name="trademark" unicode="&#x2122;" horiz-adv-x="974" 
d="M424 1434v-127h-113v-283h-137v283h-113v127h363zM782 1434h131v-410h-131v205l-88 -131h-12l-88 131v-205h-131v410h131l94 -142z" />
    <glyph glyph-name="estimated" unicode="&#x212e;" horiz-adv-x="1597" 
d="M799 1454q166 0 308.5 -58t240.5 -157.5t153 -234.5t55 -287q0 -31 -30 -31h-1147q-31 0 -31 -31v-393q0 -22 14 -39q173 -182 478 -182q296 0 473 199q15 18 37 18h75q20 0 26 -12t-7 -27q-106 -113 -260 -176t-344 -63q-181 0 -332.5 58t-253 157.5t-157.5 234
t-56 287.5q0 152 55.5 287t153 234.5t240.5 157.5t309 58zM1249 1171q0 22 -14 39q-174 183 -436 183q-263 0 -437 -183q-14 -17 -14 -39v-393q0 -30 31 -30h840q30 0 30 30v393z" />
    <glyph glyph-name="oneeighth" unicode="&#x215b;" horiz-adv-x="1654" 
d="M469 614h-250v572l-162 -45l-57 202l250 91h219v-820zM1053 1434h204l-819 -1434h-205zM1499 430q115 -71 115 -205q0 -117 -84.5 -185.5t-237.5 -68.5t-237 68.5t-84 185.5q0 135 114 205q-86 63 -86 168q0 115 82 182.5t211 67.5t211 -67.5t82 -182.5q0 -105 -86 -168z
M1292 641q-39 0 -61.5 -17.5t-22.5 -50.5q0 -32 22.5 -48.5t61.5 -16.5q36 0 60 17t24 48q0 32 -24 50t-60 18zM1292 180q41 0 64.5 21.5t23.5 58.5q0 36 -23.5 57t-64.5 21t-64.5 -21t-23.5 -57q0 -37 23.5 -58.5t64.5 -21.5z" />
    <glyph glyph-name="threeeighths" unicode="&#x215c;" horiz-adv-x="1802" 
d="M664 864q0 -136 -85.5 -207t-238.5 -71q-247 0 -330 184l211 123q18 -51 46.5 -71.5t72.5 -20.5q72 0 72 63q0 30 -22.5 46t-59.5 16h-49l-86 127l127 155h-273v226h576v-174l-138 -162q85 -28 131 -88t46 -146zM1200 1434h205l-819 -1434h-205zM1647 430
q114 -70 114 -205q0 -117 -84 -185.5t-237 -68.5t-237.5 68.5t-84.5 185.5q0 134 115 205q-86 63 -86 168q0 115 82 182.5t211 67.5t211 -67.5t82 -182.5q0 -105 -86 -168zM1440 641q-39 0 -61.5 -17.5t-22.5 -50.5q0 -32 22.5 -48.5t61.5 -16.5q36 0 60 17t24 48
q0 32 -24 50t-60 18zM1440 180q41 0 64.5 21.5t23.5 58.5q0 36 -23.5 57t-64.5 21t-64.5 -21t-23.5 -57q0 -37 23.5 -58.5t64.5 -21.5z" />
    <glyph glyph-name="fiveeighths" unicode="&#x215d;" horiz-adv-x="1773" 
d="M653 854q0 -132 -84.5 -200t-218.5 -68q-247 0 -330 184l205 117q32 -92 117 -92q42 0 63 18t21 47q0 66 -84 66h-266l35 508h499v-226h-291l-6 -84h47q136 0 214.5 -65.5t78.5 -204.5zM1171 1434h205l-819 -1434h-205zM1618 430q115 -71 115 -205q0 -117 -84.5 -185.5
t-237.5 -68.5t-237 68.5t-84 185.5q0 135 114 205q-86 63 -86 168q0 115 82 182.5t211 67.5t211 -67.5t82 -182.5q0 -105 -86 -168zM1411 641q-39 0 -61.5 -17.5t-22.5 -50.5q0 -32 22.5 -48.5t61.5 -16.5q36 0 60 17t24 48q0 32 -24 50t-60 18zM1411 180q41 0 64.5 21.5
t23.5 58.5q0 36 -23.5 57t-64.5 21t-64.5 -21t-23.5 -57q0 -37 23.5 -58.5t64.5 -21.5z" />
    <glyph glyph-name="seveneighths" unicode="&#x215e;" horiz-adv-x="1697" 
d="M330 614h-258l231 594h-303v226h573v-191zM1096 1434h204l-819 -1434h-205zM1542 430q115 -71 115 -205q0 -117 -84.5 -185.5t-237.5 -68.5t-237 68.5t-84 185.5q0 135 114 205q-86 63 -86 168q0 115 82 182.5t211 67.5t211 -67.5t82 -182.5q0 -105 -86 -168zM1335 641
q-39 0 -61.5 -17.5t-22.5 -50.5q0 -32 22.5 -48.5t61.5 -16.5q36 0 60 17t24 48q0 32 -24 50t-60 18zM1335 180q41 0 64.5 21.5t23.5 58.5q0 36 -23.5 57t-64.5 21t-64.5 -21t-23.5 -57q0 -37 23.5 -58.5t64.5 -21.5z" />
    <glyph glyph-name="arrowleft" unicode="&#x2190;" horiz-adv-x="1617" 
d="M1536 864v-295h-901l467 -467h-406l-614 615l614 614h406l-467 -467h901z" />
    <glyph glyph-name="arrowup" unicode="&#x2191;" horiz-adv-x="1392" 
d="M1311 819v-405l-461 460v-874h-307v874l-461 -460v405l614 615z" />
    <glyph glyph-name="arrowright" unicode="&#x2192;" horiz-adv-x="1617" 
d="M922 1331l614 -614l-614 -615h-406l467 467h-901v295h901l-467 467h406z" />
    <glyph glyph-name="arrowdown" unicode="&#x2193;" horiz-adv-x="1392" 
d="M850 559l461 461v-406l-615 -614l-614 614v406l461 -461v875h307v-875z" />
    <glyph glyph-name="arrowboth" unicode="&#x2194;" horiz-adv-x="2252" 
d="M1597 1290l574 -573l-574 -574h-397l420 426h-993l426 -426h-398l-573 574l573 573h398l-426 -426h999l-426 426h397z" />
    <glyph glyph-name="arrowupdn" unicode="&#x2195;" horiz-adv-x="1310" 
d="M1229 791l-420 419v-987l420 420v-397l-574 -574l-573 574v397l420 -420v987l-420 -419v397l573 573l574 -573v-397z" />
    <glyph glyph-name="uni2196" unicode="&#x2196;" horiz-adv-x="1320" 
d="M1239 324l-207 -207l-663 661v-659l-287 287v868h868l287 -287h-659z" />
    <glyph glyph-name="uni2197" unicode="&#x2197;" horiz-adv-x="1320" 
d="M371 1274h868v-868l-287 -287v659l-663 -661l-207 207l661 663h-659z" />
    <glyph glyph-name="uni2198" unicode="&#x2198;" horiz-adv-x="1320" 
d="M952 1292l287 -286v-869h-868l-287 287h659l-661 663l207 207l663 -661v659z" />
    <glyph glyph-name="uni2199" unicode="&#x2199;" horiz-adv-x="1320" 
d="M1239 1087l-661 -663h659l-287 -287h-868v869l287 286v-659l663 661z" />
    <glyph glyph-name="partialdiff" unicode="&#x2202;" horiz-adv-x="1200" 
d="M496 1462q121 0 233 -53.5t198.5 -148.5t138.5 -236.5t52 -306.5q0 -182 -46 -326.5t-126 -235t-185 -137.5t-226 -47q-211 0 -332 125t-121 314q0 211 125 346t338 135q143 0 258 -72q-22 170 -110.5 262t-239.5 95q-108 3 -226 -64v277q115 73 269 73zM547 258
q108 0 171.5 81t84.5 224q-91 62 -211 62q-87 0 -145 -55t-58 -150q0 -76 45 -119t113 -43z" />
    <glyph glyph-name="emptyset" unicode="&#x2205;" horiz-adv-x="1646" 
d="M1354 1235q100 -103 155.5 -236.5t55.5 -281.5q0 -202 -99.5 -372.5t-270 -270t-372.5 -99.5t-379 105l-96 -121h-246l191 240q-100 103 -155.5 236.5t-55.5 281.5q0 151 58.5 288.5t157.5 236.5t236.5 157.5t288.5 58.5q204 0 379 -104l96 121h246zM287 717
q0 -207 131 -357l659 834q-117 63 -254 63q-110 0 -209.5 -42.5t-171 -114.5t-113.5 -172t-42 -211zM823 176q147 0 270.5 72t195 196.5t71.5 272.5q0 206 -131 356l-660 -833q119 -64 254 -64z" />
    <glyph glyph-name="product" unicode="&#x220f;" horiz-adv-x="1310" 
d="M123 -410v1844h1065v-1844h-307v1549h-451v-1549h-307z" />
    <glyph glyph-name="summation" unicode="&#x2211;" horiz-adv-x="1167" 
d="M61 -410v256l418 686l-387 644v258h963v-295h-598l364 -607l-393 -647h657v-295h-1024z" />
    <glyph glyph-name="minus" unicode="&#x2212;" horiz-adv-x="1146" 
d="M102 573v287h942v-287h-942z" />
    <glyph glyph-name="radical" unicode="&#x221a;" horiz-adv-x="1404" 
d="M539 0l-240 381h-217v295h393l187 -322l432 1284h311l-571 -1638h-295z" />
    <glyph glyph-name="infinity" unicode="&#x221e;" horiz-adv-x="1658" 
d="M1171 1085q167 0 276 -101t109 -267t-109 -267.5t-276 -101.5q-168 0 -342 166q-174 -166 -342 -166q-167 0 -276 101.5t-109 267.5t109 267t276 101q169 0 342 -165q173 165 342 165zM504 625q70 0 143 92q-73 92 -143 92q-41 0 -67.5 -26.5t-26.5 -65.5t26.5 -65.5
t67.5 -26.5zM1155 625q41 0 67.5 26.5t26.5 65.5t-26.5 65.5t-67.5 26.5q-70 0 -143 -92q73 -92 143 -92z" />
    <glyph glyph-name="integral" unicode="&#x222b;" horiz-adv-x="905" 
d="M0 -418v307q27 -14 59 -16t62 8.5t53.5 40t30.5 74.5l186 1096q20 117 69 198t116.5 118.5t152 46.5t176.5 -17v-308q-27 14 -59 16t-62 -8t-53.5 -39.5t-30.5 -74.5l-186 -1096q-20 -117 -69 -198t-116.5 -118.5t-152 -46.5t-176.5 17z" />
    <glyph glyph-name="approxequal" unicode="&#x2248;" horiz-adv-x="1146" 
d="M596 760q-75 31 -126.5 45.5t-89.5 11.5t-58 -10.5t-56 -26.5l-184 58q106 408 469 266q47 -19 75.5 -29t59.5 -17.5t49.5 -5t36 12t28.5 29.5t19 51l246 -119q-20 -100 -65 -169t-106.5 -101.5t-137.5 -31.5t-160 36zM328 289l-246 119q20 100 65 169t106.5 101.5
t137.5 31.5t160 -36q75 -31 126.5 -45.5t89.5 -12t58 10t56 26.5l184 -57q-106 -408 -469 -266q-47 19 -75.5 29t-59.5 17.5t-49.5 5t-36 -12t-28.5 -29.5t-19 -51z" />
    <glyph glyph-name="notequal" unicode="&#x2260;" horiz-adv-x="1064" 
d="M983 788h-326l-65 -143h391v-287h-520l-115 -256h-184l115 256h-197v287h326l65 143h-391v287h520l115 256h184l-115 -256h197v-287z" />
    <glyph glyph-name="lessequal" unicode="&#x2264;" horiz-adv-x="1085" 
d="M1004 1372v-315l-574 -166l574 -166v-315l-922 348v266zM82 82v287h922v-287h-922z" />
    <glyph glyph-name="greaterequal" unicode="&#x2265;" horiz-adv-x="1085" 
d="M82 1372l922 -348v-266l-922 -348v315l573 166l-573 166v315zM82 82v287h922v-287h-922z" />
    <glyph glyph-name="lozenge" unicode="&#x25ca;" horiz-adv-x="1146" 
d="M463 0l-381 717l381 717h221l381 -717l-381 -717h-221zM573 416l160 301l-160 301l-159 -301z" />
    <glyph glyph-name="i.loclTRK" horiz-adv-x="532" 
d="M266 1116q-70 0 -122 52t-52 122t52 122t122 52t122 -52t52 -122t-52 -122t-122 -52zM113 0v1024h307v-1024h-307z" />
    <glyph glyph-name="f_f_j" horiz-adv-x="1740" 
d="M1628 1024v-1024q0 -239 -114 -345t-357 -93v295q86 -5 125 28.5t39 114.5v729h-262v-729h-307v729h-267v-729h-307v729h-137v295h137q0 221 124.5 337t373.5 101v-295q-191 17 -191 -143h267v20q0 439 497 439q114 0 256 -29v-283q-156 17 -256 17q-95 0 -142.5 -30
t-47.5 -114v-20h569z" />
    <glyph glyph-name="f_j" horiz-adv-x="1167" 
d="M1055 1024v-1024q0 -239 -114 -345t-357 -93v295q86 -5 125 28.5t39 114.5v729h-263v-729h-307v729h-137v295h137q0 438 498 438q119 0 256 -28v-283q-147 16 -256 16q-96 0 -143.5 -30t-47.5 -113h570z" />
    <glyph glyph-name="uni0414.loclBGR" horiz-adv-x="1515" 
d="M1315 315h170v-589h-328v274h-799v-274h-327v589h170l348 1119h418zM543 315h430l-215 752z" />
    <glyph glyph-name="uni041B.loclBGR" horiz-adv-x="1351" 
d="M467 1434h418l467 -1434h-359l-317 1055l-318 -1055h-358z" />
    <glyph glyph-name="uni0424.loclBGR" horiz-adv-x="1769" 
d="M1708 717q0 -301 -180 -496t-490 -235v-191h-307v191q-310 40 -490 235t-180 496t180 496t490 235v190h307v-190q310 -40 490 -235t180 -496zM389 717q0 -368 342 -430v860q-342 -62 -342 -430zM1038 287q342 62 342 430t-342 430v-860z" />
    <glyph glyph-name="uni0414.ss01" horiz-adv-x="1454" 
d="M1249 315h154v-315h-1372v315h145q113 161 113 476v643h960v-1119zM524 315h398v811h-306v-340q0 -305 -92 -471z" />
    <glyph glyph-name="uni0426.ss01" horiz-adv-x="1413" 
d="M1208 315h154v-315h-1239v1434h328v-1119h430v1119h327v-1119z" />
    <glyph glyph-name="uni0429.ss01" horiz-adv-x="2007" 
d="M1802 315h154v-315h-1833v1434h328v-1119h348v1119h327v-1119h349v1119h327v-1119z" />
    <glyph glyph-name="uni0414.loclBGR.ss01" horiz-adv-x="1515" 
d="M1315 315h170v-315h-1454v315h170l348 1119h418zM543 315h430l-215 752z" />
    <glyph glyph-name="uni0432.loclBGR" horiz-adv-x="1157" 
d="M870 844q109 -50 167.5 -151t58.5 -247q0 -224 -130 -349.5t-362 -125.5q-221 0 -356 136.5t-135 359.5v489q0 227 129.5 366.5t341.5 139.5q182 0 295.5 -96.5t113.5 -263.5q0 -129 -123 -258zM584 1176q-73 0 -118.5 -61t-45.5 -159v-102l59 12q45 10 109 17
q60 49 83 91t23 87q0 54 -29 84.5t-81 30.5zM604 266q87 0 135.5 47.5t48.5 132.5q0 102 -83 139t-226 7l-59 -12v-113q0 -91 50.5 -146t133.5 -55z" />
    <glyph glyph-name="uni0433.loclBGR" horiz-adv-x="958" 
d="M662 367l266 -152q-118 -244 -441 -244q-85 0 -160 20t-135.5 59t-95.5 105.5t-35 151.5q0 68 21 122t56 87t79.5 59t90.5 39.5t90.5 26.5t79.5 22.5t56 25t21 36.5q0 27 -23 42t-63 15q-88 0 -137 -90l-262 142q63 107 167.5 163t231.5 56q109 0 198.5 -36.5t146 -114.5
t56.5 -185q0 -74 -27 -130t-70.5 -88t-96 -54.5t-105.5 -35t-96.5 -24.5t-70.5 -29t-27 -41q0 -32 28 -50.5t82 -18.5q133 0 175 121z" />
    <glyph glyph-name="uni0434.loclBGR" horiz-adv-x="1275" 
d="M864 1024h299v-973q0 -124 -45.5 -220.5t-123 -153.5t-172 -86t-199.5 -29q-164 0 -290.5 62.5t-195.5 185.5l262 151q33 -61 86.5 -95t147.5 -34q109 0 170 56t61 163v94q-108 -133 -299 -133q-142 0 -258.5 71t-181 190t-64.5 259q0 141 64.5 260t181 190t258.5 71
q191 0 299 -133v104zM616 295q109 0 178.5 66t69.5 171t-69.5 171.5t-178.5 66.5t-178 -66t-69 -172q0 -105 69 -171t178 -66z" />
    <glyph glyph-name="uni0436.loclBGR" horiz-adv-x="1576" 
d="M1556 0h-339l-279 444v-444h-299v444l-279 -444h-340l340 512l-319 512h340l258 -438v848h299v-848l258 438h340l-319 -512z" />
    <glyph glyph-name="uni0438.loclBGR" horiz-adv-x="1193" 
d="M774 1024h307v-1024h-307v96q-42 -58 -118 -91.5t-175 -33.5q-163 0 -273 112.5t-110 311.5v629h308v-584q0 -91 50 -138.5t128 -47.5q88 0 139 53t51 158v559z" />
    <glyph glyph-name="uni0439.loclBGR" horiz-adv-x="1193" 
d="M897 1411v-266h-614v266h614zM774 1024h307v-1024h-307v96q-42 -58 -118 -91.5t-175 -33.5q-163 0 -273 112.5t-110 311.5v629h308v-584q0 -91 50 -138.5t128 -47.5q88 0 139 53t51 158v559z" />
    <glyph glyph-name="uni043A.loclBGR" horiz-adv-x="1095" 
d="M1096 0h-348l-328 453v-453h-307v1434h307v-859l307 449h358l-372 -512z" />
    <glyph glyph-name="uni043B.loclBGR" horiz-adv-x="1105" 
d="M1106 0h-340l-213 649l-213 -649h-340l379 1024h348z" />
    <glyph glyph-name="uni043F.loclBGR" horiz-adv-x="1193" 
d="M713 1053q163 0 273 -112.5t110 -311.5v-629h-308v584q0 91 -50 138.5t-128 47.5q-88 0 -139 -53t-51 -158v-559h-307v1024h307v-96q42 58 118 91.5t175 33.5z" />
    <glyph glyph-name="uni0442.loclBGR" horiz-adv-x="1746" 
d="M1260 1053q177 0 283 -116t106 -308v-629h-308v602q0 78 -37.5 123t-109.5 45q-76 0 -118 -50.5t-42 -141.5v-578h-307v602q0 78 -37.5 123t-109.5 45q-76 0 -118 -50.5t-42 -141.5v-578h-307v1024h307v-94q83 123 274 123q180 0 269 -135q94 135 297 135z" />
    <glyph glyph-name="uni0446.loclBGR" horiz-adv-x="1275" 
d="M1143 287h92v-561h-299v301q-71 30 -113 94q-102 -150 -342 -150q-163 0 -273 112.5t-110 311.5v629h308v-584q0 -91 50 -138.5t128 -47.5q88 0 139 53t51 158v559h307v-676q0 -29 16.5 -45t45.5 -16z" />
    <glyph glyph-name="uni0448.loclBGR" horiz-adv-x="1746" 
d="M1327 1024h307v-1024h-307v94q-83 -123 -274 -123q-180 0 -269 135q-94 -135 -297 -135q-177 0 -283 116t-106 308v629h308v-602q0 -78 37.5 -123t109.5 -45q76 0 118 50.5t42 141.5v578h307v-602q0 -78 37.5 -123t109.5 -45q76 0 118 50.5t42 141.5v578z" />
    <glyph glyph-name="uni0449.loclBGR" horiz-adv-x="1828" 
d="M1696 287h92v-561h-299v301q-65 29 -107 86q-104 -142 -309 -142q-194 0 -287 138q-97 -138 -299 -138q-177 0 -283 116t-106 308v629h308v-602q0 -78 37.5 -123t109.5 -45q76 0 118 50.5t42 141.5v578h307v-602q0 -78 37.5 -123t109.5 -45q76 0 118 50.5t42 141.5v578
h307v-676q0 -29 16.5 -45t45.5 -16z" />
    <glyph glyph-name="uni044C.loclBGR" horiz-adv-x="1019" 
d="M559 754q205 0 312.5 -100t107.5 -281q0 -174 -122 -288t-318 -114q-206 0 -323.5 113t-117.5 309v631h299v-270h162zM539 258q60 0 100.5 37t40.5 82q0 48 -31 79t-90 31h-162v-94q0 -61 38.5 -98t103.5 -37z" />
    <glyph glyph-name="uni044A.loclBGR" horiz-adv-x="1198" 
d="M737 754q205 0 312.5 -100t107.5 -281q0 -174 -122 -288t-318 -114q-206 0 -323.5 113t-117.5 309v344h-276v287h575v-270h162zM717 258q60 0 100.5 37t40.5 82q0 48 -31 79t-90 31h-162v-94q0 -61 38.5 -98t103.5 -37z" />
    <glyph glyph-name="uni044E.loclBGR" horiz-adv-x="1669" 
d="M1065 1053q149 0 273.5 -71t197 -195.5t72.5 -274.5t-72.5 -274.5t-197 -195.5t-273.5 -71q-187 0 -329 111t-187 287h-129v-369h-307v1434h307v-779h129q45 176 187 287t329 111zM1065 270q101 0 168 67.5t67 174.5t-67 174.5t-168 67.5t-168.5 -67.5t-67.5 -174.5
t67.5 -174.5t168.5 -67.5z" />
    <glyph glyph-name="zero.sinf" horiz-adv-x="835" 
d="M418 -356q-172 0 -274.5 117.5t-102.5 320.5t102.5 320.5t274.5 117.5t274.5 -117.5t102.5 -320.5t-102.5 -320.5t-274.5 -117.5zM418 -106q57 0 88 48.5t31 139.5t-31 139.5t-88 48.5t-88 -48.5t-31 -139.5t31 -139.5t88 -48.5z" />
    <glyph glyph-name="one.sinf" horiz-adv-x="561" 
d="M250 492h219v-820h-250v572l-162 -45l-57 202z" />
    <glyph glyph-name="two.sinf" horiz-adv-x="720" 
d="M43 -328v158l297 301q66 66 66 109q0 26 -17 40.5t-47 14.5q-68 0 -109 -96l-202 114q40 95 120.5 151t194.5 56q133 0 222 -72.5t89 -187.5q0 -75 -37 -136t-106 -130l-96 -96h252v-226h-627z" />
    <glyph glyph-name="three.sinf" horiz-adv-x="704" 
d="M487 156q85 -28 131 -88t46 -146q0 -136 -85.5 -207t-238.5 -71q-247 0 -330 184l211 123q18 -51 46.5 -71.5t72.5 -20.5q72 0 72 63q0 30 -22.5 46t-59.5 16h-49l-86 127l127 155h-273v226h576v-175z" />
    <glyph glyph-name="four.sinf" horiz-adv-x="733" 
d="M702 23v-226h-75v-125h-238v125h-369v226l250 469h267l-240 -469h92v124h238v-124h75z" />
    <glyph glyph-name="five.sinf" horiz-adv-x="694" 
d="M360 182q136 0 214.5 -65.5t78.5 -204.5q0 -132 -84.5 -200t-218.5 -68q-247 0 -330 184l205 117q32 -92 117 -92q42 0 63 18t21 47q0 66 -84 66h-266l35 508h499v-226h-291l-6 -84h47z" />
    <glyph glyph-name="six.sinf" horiz-adv-x="700" 
d="M401 227q123 -15 196 -93.5t73 -196.5q0 -130 -87.5 -211.5t-232.5 -81.5t-232 81.5t-87 211.5q0 84 39 151l252 404h249zM350 -152q41 0 65.5 23t24.5 66t-24.5 64.5t-65.5 21.5t-65.5 -21.5t-24.5 -64.5t24.5 -66t65.5 -23z" />
    <glyph glyph-name="seven.sinf" horiz-adv-x="604" 
d="M0 492h573v-191l-243 -629h-258l231 594h-303v226z" />
    <glyph glyph-name="eight.sinf" horiz-adv-x="724" 
d="M569 102q115 -71 115 -204q0 -117 -84.5 -185.5t-237.5 -68.5t-237 68.5t-84 185.5q0 133 115 204q-86 63 -86 168q0 115 81.5 182.5t210.5 67.5t211 -67.5t82 -182.5q0 -105 -86 -168zM362 313q-83 0 -83 -67q0 -32 22 -49t61 -17q36 0 60 17.5t24 48.5q0 32 -24 49.5
t-60 17.5zM362 -147q41 0 65 21t24 58q0 35 -24 56.5t-65 21.5t-64.5 -21t-23.5 -57q0 -37 23.5 -58t64.5 -21z" />
    <glyph glyph-name="nine.sinf" horiz-adv-x="700" 
d="M670 227q0 -84 -39 -151l-252 -404h-250l170 265q-123 15 -195.5 93.5t-72.5 196.5q0 130 87 211.5t232 81.5t232.5 -81.5t87.5 -211.5zM260 227q0 -43 24.5 -64.5t65.5 -21.5t65.5 21.5t24.5 64.5t-24.5 65.5t-65.5 22.5t-65.5 -22.5t-24.5 -65.5z" />
    <glyph glyph-name="zero.tf" 
d="M594 -29q-182 0 -315 94.5t-201 262t-68 389.5t68 389t201 261.5t315 94.5t315 -94.5t201 -261.5t68 -389t-68 -389.5t-201 -262t-315 -94.5zM594 291q128 0 192 108.5t64 317.5t-64 317.5t-192 108.5t-192 -108.5t-64 -317.5t64 -317.5t192 -108.5z" />
    <glyph glyph-name="one.tf" 
d="M778 315h379v-315h-1106v315h400v772l-254 -69l-80 280l375 136h286v-1119z" />
    <glyph glyph-name="two.tf" 
d="M61 0v238l525 481q84 77 128 138t44 124t-45 112.5t-138 49.5q-78 0 -133.5 -41t-103.5 -125l-277 162q78 159 214 241t305 82q224 0 364.5 -131.5t140.5 -329.5q0 -131 -68 -241.5t-208 -239.5l-223 -205h520v-315h-1045z" />
    <glyph glyph-name="three.tf" 
d="M817 874q146 -48 233 -153.5t87 -259.5q0 -153 -72 -265.5t-191.5 -168.5t-269.5 -56q-420 0 -563 338l283 164q68 -182 260 -182q112 0 168.5 46.5t56.5 123.5t-56.5 123.5t-168.5 46.5h-64l-129 190l264 305h-569v308h983v-267z" />
    <glyph glyph-name="four.tf" 
d="M1157 532v-303h-143v-229h-332v229h-672v303l457 902h352l-457 -902h320v308h332v-308h143z" />
    <glyph glyph-name="five.tf" 
d="M614 930q151 0 267.5 -53t186 -163t69.5 -263q0 -115 -42.5 -207.5t-116.5 -151t-169.5 -90t-204.5 -31.5q-420 0 -563 338l283 164q68 -182 270 -182q110 0 162.5 44t52.5 116q0 71 -52 115t-163 44h-471l59 824h883v-308h-584l-14 -196h147z" />
    <glyph glyph-name="six.tf" 
d="M647 1001q235 -15 372.5 -155t137.5 -359q0 -232 -152.5 -374t-410.5 -142q-259 0 -411 142t-152 374q0 184 96 312l457 635h377zM594 279q107 0 171 54.5t64 153.5t-64 154t-171 55q-108 0 -172 -54t-64 -155q0 -100 64 -154t172 -54z" />
    <glyph glyph-name="seven.tf" 
d="M41 1434h1085v-275l-528 -1159h-348l506 1118h-715v316z" />
    <glyph glyph-name="eight.tf" 
d="M958 748q98 -60 150.5 -149.5t52.5 -195.5q0 -198 -150.5 -315t-416.5 -117t-416.5 117t-150.5 315q0 106 52 195.5t150 149.5q-153 103 -153 288q0 102 40.5 184t111.5 134t164.5 80t201.5 28t201.5 -28t164.5 -80t111.5 -134t40.5 -184q0 -185 -154 -288zM594 1155
q-90 0 -140.5 -38.5t-50.5 -100.5t50.5 -100.5t140.5 -38.5t140 38.5t50 100.5t-50 100.5t-140 38.5zM594 279q116 0 178 45t62 127t-62 127t-178 45t-178 -45t-62 -127t62 -127t178 -45z" />
    <glyph glyph-name="nine.tf" 
d="M1157 946q0 -183 -96 -311l-457 -635h-377l314 432q-235 15 -372.5 155t-137.5 359q0 232 152.5 374t410.5 142q259 0 411 -142t152 -374zM358 946q0 -99 64.5 -154t171.5 -55q108 0 171.5 54t63.5 155t-63.5 155t-171.5 54q-107 0 -171.5 -55t-64.5 -154z" />
    <glyph glyph-name="zero.dnom" horiz-adv-x="835" 
d="M418 -29q-171 0 -274 118t-103 321t102.5 320.5t274.5 117.5t274.5 -117.5t102.5 -320.5t-103 -321t-274 -118zM418 221q57 0 88 49t31 140t-31 139.5t-88 48.5t-88 -48.5t-31 -139.5t31 -140t88 -49z" />
    <glyph glyph-name="one.dnom" horiz-adv-x="561" 
d="M250 819h219v-819h-250v571l-162 -45l-57 203z" />
    <glyph glyph-name="two.dnom" horiz-adv-x="739" 
d="M43 0v158l297 301q66 66 66 108q0 26 -17.5 41t-46.5 15q-68 0 -109 -97l-202 115q40 95 120.5 151t194.5 56q133 0 222 -72.5t89 -187.5q0 -75 -37 -136t-106 -130l-96 -97h252v-225h-627z" />
    <glyph glyph-name="three.dnom" horiz-adv-x="708" 
d="M487 483q85 -28 131 -87.5t46 -145.5q0 -136 -85.5 -207.5t-238.5 -71.5q-247 0 -330 185l211 123q18 -52 46.5 -72.5t72.5 -20.5q72 0 72 64q0 30 -22.5 45.5t-59.5 15.5h-49l-86 127l127 156h-273v225h576v-174z" />
    <glyph glyph-name="four.dnom" horiz-adv-x="733" 
d="M702 350v-225h-75v-125h-238v125h-369v225l250 469h267l-240 -469h92v125h238v-125h75z" />
    <glyph glyph-name="five.dnom" horiz-adv-x="679" 
d="M360 510q136 0 214.5 -65.5t78.5 -204.5q0 -132 -85 -200.5t-218 -68.5q-247 0 -330 185l205 116q32 -92 117 -92q42 0 63 18t21 48q0 65 -84 65h-266l35 508h499v-225h-291l-6 -84h47z" />
    <glyph glyph-name="six.dnom" horiz-adv-x="700" 
d="M401 555q123 -15 196 -94t73 -197q0 -130 -87.5 -211.5t-232.5 -81.5t-232 81.5t-87 211.5q0 85 39 152l252 403h249zM350 176q41 0 65.5 22.5t24.5 65.5t-24.5 64.5t-65.5 21.5t-65.5 -21.5t-24.5 -64.5t24.5 -65.5t65.5 -22.5z" />
    <glyph glyph-name="seven.dnom" horiz-adv-x="604" 
d="M0 819h573v-190l-243 -629h-258l231 594h-303v225z" />
    <glyph glyph-name="eight.dnom" horiz-adv-x="724" 
d="M569 430q115 -71 115 -205q0 -117 -84.5 -185.5t-237.5 -68.5t-237 68.5t-84 185.5q0 134 115 205q-86 63 -86 168q0 115 81.5 182.5t210.5 67.5t211 -67.5t82 -182.5q0 -105 -86 -168zM362 641q-39 0 -61 -17.5t-22 -50.5q0 -32 22 -48.5t61 -16.5q36 0 60 17t24 48
q0 32 -24 50t-60 18zM362 180q41 0 65 21.5t24 58.5q0 35 -24 56.5t-65 21.5t-64.5 -21t-23.5 -57q0 -37 23.5 -58.5t64.5 -21.5z" />
    <glyph glyph-name="nine.dnom" horiz-adv-x="700" 
d="M670 555q0 -85 -39 -152l-252 -403h-250l170 264q-123 15 -195.5 93.5t-72.5 197.5q0 130 87 211.5t232 81.5t232.5 -81.5t87.5 -211.5zM260 555q0 -43 24.5 -64.5t65.5 -21.5t65.5 21.5t24.5 64.5t-24.5 65.5t-65.5 22.5t-65.5 -22.5t-24.5 -65.5z" />
    <glyph glyph-name="zero.numr" horiz-adv-x="835" 
d="M418 586q-172 0 -274.5 117.5t-102.5 320.5t102.5 320.5t274.5 117.5t274.5 -117.5t102.5 -320.5t-102.5 -320.5t-274.5 -117.5zM418 836q57 0 88 48.5t31 139.5t-31 139.5t-88 48.5t-88 -48.5t-31 -139.5t31 -139.5t88 -48.5z" />
    <glyph glyph-name="one.numr" horiz-adv-x="561" 
d="M250 1434h219v-820h-250v572l-162 -45l-57 202z" />
    <glyph glyph-name="two.numr" horiz-adv-x="739" 
d="M43 614v158l297 301q66 66 66 109q0 26 -17 40.5t-47 14.5q-68 0 -109 -96l-202 114q40 95 120.5 151t194.5 56q133 0 222 -72.5t89 -187.5q0 -75 -37 -136t-106 -130l-96 -96h252v-226h-627z" />
    <glyph glyph-name="three.numr" horiz-adv-x="708" 
d="M487 1098q85 -28 131 -88t46 -146q0 -136 -85.5 -207t-238.5 -71q-247 0 -330 184l211 123q18 -51 46.5 -71.5t72.5 -20.5q72 0 72 63q0 30 -22.5 46t-59.5 16h-49l-86 127l127 155h-273v226h576v-174z" />
    <glyph glyph-name="four.numr" horiz-adv-x="733" 
d="M702 965v-226h-75v-125h-238v125h-369v226l250 469h267l-240 -469h92v125h238v-125h75z" />
    <glyph glyph-name="five.numr" horiz-adv-x="679" 
d="M360 1124q136 0 214.5 -65.5t78.5 -204.5q0 -132 -84.5 -200t-218.5 -68q-247 0 -330 184l205 117q32 -92 117 -92q42 0 63 18t21 47q0 66 -84 66h-266l35 508h499v-226h-291l-6 -84h47z" />
    <glyph glyph-name="six.numr" horiz-adv-x="700" 
d="M401 1169q123 -15 196 -93.5t73 -196.5q0 -130 -87.5 -211.5t-232.5 -81.5t-232 81.5t-87 211.5q0 84 39 151l252 404h249zM350 791q41 0 65.5 22.5t24.5 65.5t-24.5 64.5t-65.5 21.5t-65.5 -21.5t-24.5 -64.5t24.5 -65.5t65.5 -22.5z" />
    <glyph glyph-name="seven.numr" horiz-adv-x="604" 
d="M0 1434h573v-191l-243 -629h-258l231 594h-303v226z" />
    <glyph glyph-name="eight.numr" horiz-adv-x="724" 
d="M569 1044q115 -71 115 -204q0 -117 -84.5 -185.5t-237.5 -68.5t-237 68.5t-84 185.5q0 133 115 204q-86 63 -86 168q0 115 81.5 182.5t210.5 67.5t211 -67.5t82 -182.5q0 -105 -86 -168zM362 1255q-83 0 -83 -67q0 -32 22 -49t61 -17q36 0 60 17.5t24 48.5q0 32 -24 49.5
t-60 17.5zM362 795q41 0 65 21t24 58q0 35 -24 56.5t-65 21.5t-64.5 -21t-23.5 -57q0 -37 23.5 -58t64.5 -21z" />
    <glyph glyph-name="nine.numr" horiz-adv-x="700" 
d="M670 1169q0 -84 -39 -151l-252 -404h-250l170 265q-123 15 -195.5 93.5t-72.5 196.5q0 130 87 211.5t232 81.5t232.5 -81.5t87.5 -211.5zM260 1169q0 -43 24.5 -64.5t65.5 -21.5t65.5 21.5t24.5 64.5t-24.5 65.5t-65.5 22.5t-65.5 -22.5t-24.5 -65.5z" />
    <glyph glyph-name="zero.sups" horiz-adv-x="835" 
d="M418 913q-171 0 -274 118t-103 321t102.5 320.5t274.5 117.5t274.5 -117.5t102.5 -320.5t-103 -321t-274 -118zM418 1163q57 0 88 49t31 140t-31 139.5t-88 48.5t-88 -48.5t-31 -139.5t31 -140t88 -49z" />
    <glyph glyph-name="one.sups" horiz-adv-x="561" 
d="M250 1761h219v-819h-250v571l-162 -45l-57 203z" />
    <glyph glyph-name="two.sups" horiz-adv-x="739" 
d="M43 942v158l297 301q66 66 66 108q0 26 -17.5 41t-46.5 15q-68 0 -109 -97l-202 115q40 95 120.5 151t194.5 56q133 0 222 -72.5t89 -187.5q0 -75 -37 -136t-106 -130l-96 -97h252v-225h-627z" />
    <glyph glyph-name="three.sups" horiz-adv-x="708" 
d="M487 1425q85 -28 131 -87.5t46 -145.5q0 -136 -85.5 -207.5t-238.5 -71.5q-247 0 -330 185l211 123q18 -52 46.5 -72.5t72.5 -20.5q72 0 72 64q0 30 -22.5 45.5t-59.5 15.5h-49l-86 127l127 156h-273v225h576v-174z" />
    <glyph glyph-name="four.sups" horiz-adv-x="733" 
d="M702 1292v-225h-75v-125h-238v125h-369v225l250 469h267l-240 -469h92v125h238v-125h75z" />
    <glyph glyph-name="five.sups" horiz-adv-x="679" 
d="M360 1452q136 0 214.5 -65.5t78.5 -204.5q0 -132 -85 -200.5t-218 -68.5q-247 0 -330 185l205 116q32 -92 117 -92q42 0 63 18t21 48q0 65 -84 65h-266l35 508h499v-225h-291l-6 -84h47z" />
    <glyph glyph-name="six.sups" horiz-adv-x="700" 
d="M401 1497q123 -15 196 -94t73 -197q0 -130 -87.5 -211.5t-232.5 -81.5t-232 81.5t-87 211.5q0 85 39 152l252 403h249zM350 1118q41 0 65.5 22.5t24.5 65.5t-24.5 64.5t-65.5 21.5t-65.5 -21.5t-24.5 -64.5t24.5 -65.5t65.5 -22.5z" />
    <glyph glyph-name="seven.sups" horiz-adv-x="604" 
d="M0 1761h573v-190l-243 -629h-258l231 594h-303v225z" />
    <glyph glyph-name="eight.sups" horiz-adv-x="724" 
d="M569 1372q115 -71 115 -205q0 -117 -84.5 -185.5t-237.5 -68.5t-237 68.5t-84 185.5q0 134 115 205q-86 63 -86 168q0 115 81.5 182.5t210.5 67.5t211 -67.5t82 -182.5q0 -105 -86 -168zM362 1583q-83 0 -83 -67q0 -32 22 -49t61 -17q36 0 60 17.5t24 48.5q0 32 -24 49.5
t-60 17.5zM362 1122q41 0 65 21.5t24 58.5q0 35 -24 56.5t-65 21.5t-64.5 -21t-23.5 -57q0 -37 23.5 -58.5t64.5 -21.5z" />
    <glyph glyph-name="nine.sups" horiz-adv-x="700" 
d="M670 1497q0 -84 -39 -151l-252 -404h-250l170 264q-123 15 -195.5 93.5t-72.5 197.5q0 130 87 211.5t232 81.5t232.5 -81.5t87.5 -211.5zM260 1497q0 -43 24.5 -64.5t65.5 -21.5t65.5 21.5t24.5 64.5t-24.5 65.5t-65.5 22.5t-65.5 -22.5t-24.5 -65.5z" />
    <glyph glyph-name="cent.tf" 
d="M649 479q68 0 121 30.5t78 84.5l268 -154q-67 -121 -190.5 -192.5t-272.5 -71.5q-63 0 -121 12l-61 -188h-123l72 225q-141 64 -225 195.5t-84 296.5q0 230 155 385t387 155q55 0 99 -8l59 185h123l-70 -217q167 -71 252 -222l-268 -155q-23 51 -78 84l-143 -445h22z
M418 717q0 -133 98 -199l139 436h-6q-101 0 -166 -66t-65 -171z" />
    <glyph glyph-name="dollar.tf" 
d="M1147 408q0 -187 -120.5 -299.5t-326.5 -133.5v-180h-143v178q-195 12 -326 105.5t-190 247.5l283 163q37 -86 91 -137t142 -65v282q-3 1 -15.5 7t-19.5 8q-52 21 -86.5 35.5t-83.5 39.5t-80.5 49t-67 59t-56.5 73.5t-34.5 89.5t-13.5 110q0 98 36.5 176.5t100 130
t145 80t175.5 33.5v178h143v-182q144 -21 250.5 -98t165.5 -209l-276 -162q-43 115 -140 150v-283q171 -65 232 -98q150 -82 194 -210q21 -61 21 -138zM428 1044q0 -36 27.5 -64.5t101.5 -64.5v236q-68 -7 -98.5 -36.5t-30.5 -70.5zM700 285q119 19 119 106q0 39 -26 65
t-93 56v-227z" />
    <glyph glyph-name="Euro.tf" 
d="M887 449l270 -156q-61 -146 -178.5 -234t-271.5 -88q-217 0 -354.5 146.5t-174.5 402.5h-137v172h123v25v41h-123v172h139q41 248 177 390t350 142q148 0 264 -82.5t176 -220.5l-275 -158q-23 63 -66.5 102.5t-98.5 39.5q-156 0 -197 -213h307v-172h-325v-41v-25h325
v-172h-311q41 -229 201 -229q59 0 106.5 44t73.5 114z" />
    <glyph glyph-name="florin.tf" 
d="M1147 1137q-82 31 -151 5t-93 -112l-45 -162h227v-295h-311l-180 -639q-26 -93 -67.5 -163t-94 -112.5t-116 -66t-132 -22.5t-143.5 18v308q57 -17 105 -15.5t85.5 32.5t53.5 89l161 571h-221v295h303l66 230q26 93 67.5 163t94 112.5t116 66t132 22.5t143.5 -18v-307z
" />
    <glyph glyph-name="uni20BD.tf" 
d="M645 471h-153v-84h368v-201h-368v-186h-328v186h-144v201h144v84h-144v287h144v676h481q211 0 356.5 -143.5t145.5 -348.5q0 -203 -144.5 -337t-357.5 -134zM492 1126v-368h153q75 0 124.5 53t49.5 131t-49.5 131t-124.5 53h-153z" />
    <glyph glyph-name="sterling.tf" 
d="M524 315h643v-315h-1106v315h136v236h-115v287h115v172q0 113 40 202.5t107 142.5t146.5 80t166.5 27q161 0 282.5 -80t180.5 -225l-284 -164q-24 77 -62.5 113.5t-105.5 36.5q-64 0 -104 -39t-40 -109v-157h418v-287h-418v-236z" />
    <glyph glyph-name="yen.tf" 
d="M1188 1434l-367 -682h254v-181h-317v-82h317v-180h-317v-309h-328v309h-317v180h317v82h-317v181h254l-367 682h373l221 -465l221 465h373z" />
    <glyph glyph-name="brevecy" horiz-adv-x="778" 
d="M82 1145v266h614v-266h-614z" />
    </font>
</defs>
</svg>
